 0
SECTION
 2
HEADER
 9
$ACADVER
 1
AC1003
 9
$EXTMIN
 10
-138.500000
 20
-90.000000
 9
$EXTMAX
 10
138.509415
 20
100.472618
 9
$LIMMIN
 10
-138.501000
 20
-90.001000
 9
$LIMMAX
 10
138.510415
 20
100.473618
 9
$SNAPUNIT
 10
1
 20
1
 9
$SNAPBASE
 10
0
 20
0
 9
$GRIDMODE
 70
0
 9
$GRIDUNIT
 10
0
 20
0
 9
$LTSCALE
 40
4.616824
 9
$TEXTSIZE
 40
3.2
 9
$DIMTAD
 70
0
 9
$LUNITS
 70
2
 9
$LUPREC
 70
4
 9
$FILLETRAD
 40
0
 9
$AUNITS
 70
0
 9
$AUPREC
 70
0
 0
ENDSEC
 0
SECTION
 2
TABLES
 0
TABLE
 2
LTYPE
 70
25
  0
LTYPE
  2
CONTINUOUS
 70
    64
  3
Solid-line
 72
    65
 73
     0
 40
0.0
  0
LTYPE
  2
BORDER
 70
    64
  3
BORDER
 72
    65
 73
     6
 40
1.75
 49
0.5
 49
-0.25
 49
0.5
 49
-0.25
 49
0.0
 49
-0.25
  0
LTYPE
  2
BORDER2
 70
    64
  3
BORDER2
 72
    65
 73
     6
 40
0.875
 49
0.25
 49
-0.125
 49
0.25
 49
-0.125
 49
0.0
 49
-0.125
  0
LTYPE
  2
BORDERX2
 70
    64
  3
BORDERX2
 72
    65
 73
     6
 40
3.5
 49
1.0
 49
-0.5
 49
1.0
 49
-0.5
 49
0.0
 49
-0.5
  0
LTYPE
  2
CENTER
 70
    64
  3
CENTER
 72
    65
 73
     4
 40
2.0
 49
1.25
 49
-0.25
 49
0.25
 49
-0.25
  0
LTYPE
  2
CENTER2
 70
    64
  3
CENTER2
 72
    65
 73
     4
 40
1.125
 49
0.75
 49
-0.125
 49
0.125
 49
-0.125
  0
LTYPE
  2
CENTERX2
 70
    64
  3
CENTERX2
 72
    65
 73
     4
 40
4.0
 49
2.5
 49
-0.5
 49
0.5
 49
-0.5
  0
LTYPE
  2
DASHDOT
 70
    64
  3
DASHDOT
 72
    65
 73
     4
 40
1.0
 49
0.5
 49
-0.25
 49
0.0
 49
-0.25
  0
LTYPE
  2
DASHDOT2
 70
    64
  3
DASHDOT2
 72
    65
 73
     4
 40
0.5
 49
0.25
 49
-0.125
 49
0.0
 49
-0.125
  0
LTYPE
  2
DASHDOTX2
 70
    64
  3
DASHDOTX2
 72
    65
 73
     4
 40
2.0
 49
1.0
 49
-0.5
 49
0.0
 49
-0.5
  0
LTYPE
  2
DASHED
 70
    64
  3
DASHED
 72
    65
 73
     2
 40
0.75
 49
0.5
 49
-0.25
  0
LTYPE
  2
DASHED2
 70
    64
  3
DASHED2
 72
    65
 73
     2
 40
0.375
 49
0.25
 49
-0.125
  0
LTYPE
  2
DASHEDX2
 70
    64
  3
DASHEDX2
 72
    65
 73
     2
 40
1.5
 49
1.0
 49
-0.5
  0
LTYPE
  2
DIVIDE
 70
    64
  3
DIVIDE
 72
    65
 73
     6
 40
1.25
 49
0.5
 49
-0.25
 49
0.0
 49
-0.25
 49
0.0
 49
-0.25
  0
LTYPE
  2
DIVIDE2
 70
    64
  3
DIVIDE2
 72
    65
 73
     6
 40
0.625
 49
0.25
 49
-0.125
 49
0.0
 49
-0.125
 49
0.0
 49
-0.125
  0
LTYPE
  2
DIVIDEX2
 70
    64
  3
DIVIDEX2
 72
    65
 73
     6
 40
2.5
 49
1.0
 49
-0.5
 49
0.0
 49
-0.5
 49
0.0
 49
-0.5
  0
LTYPE
  2
DOT
 70
    64
  3
DOT
 72
    65
 73
     2
 40
0.25
 49
0.0
 49
-0.25
  0
LTYPE
  2
DOT2
 70
    64
  3
DOT2
 72
    65
 73
     2
 40
0.125
 49
0.0
 49
-0.125
  0
LTYPE
  2
DOTX2
 70
    64
  3
DOTX2
 72
    65
 73
     2
 40
0.5
 49
0.0
 49
-0.5
  0
LTYPE
  2
HIDDEN
 70
    64
  3
HIDDEN
 72
    65
 73
     2
 40
0.375
 49
0.25
 49
-0.125
  0
LTYPE
  2
HIDDEN2
 70
    64
  3
HIDDEN2
 72
    65
 73
     2
 40
0.1875
 49
0.125
 49
-0.0625
  0
LTYPE
  2
HIDDENX2
 70
    64
  3
HIDDENX2
 72
    65
 73
     2
 40
0.75
 49
0.5
 49
-0.25
  0
LTYPE
  2
PHANTOM
 70
    64
  3
PHANTOM
 72
    65
 73
     6
 40
2.5
 49
1.25
 49
-0.25
 49
0.25
 49
-0.25
 49
0.25
 49
-0.25
  0
LTYPE
  2
PHANTOM2
 70
    64
  3
PHANTOM2
 72
    65
 73
     6
 40
1.25
 49
0.625
 49
-0.125
 49
0.125
 49
-0.125
 49
0.125
 49
-0.125
  0
LTYPE
  2
PHANTOMX2
 70
    64
  3
PHANTOMX2
 72
    65
 73
     6
 40
5.0
 49
2.5
 49
-0.5
 49
0.5
 49
-0.5
 49
0.5
 49
-0.5
 0
ENDTAB
 0
TABLE
 2
LAYER
 70
1
 0
LAYER
 2
001
 70
0
 62
7
 6
CONTINUOUS
 0
ENDTAB
 0
TABLE
 2
STYLE
 70
2
 0
STYLE
 2
STANDARD
 70
0
 40
0
 41
1
 50
0
 71
0
 42
.2
 3
TXT
 4
BIGFONT
 0
STYLE
 2
TATEGAKI
 70
4
 40
1
 41
1
 50
0
 71
0
 42
.2
 3
TXT
 4
BIGFONT
 0
ENDTAB
 0
ENDSEC
 0
SECTION
 2
BLOCKS
 0
BLOCK
 8
0
 2
ARROW
 70
0
 10
0
 20
0
 0
POLYLINE
 8
0
 6
CONTINUOUS
 62
0
 66
1
 0
VERTEX
 8
0
 6
CONTINUOUS
 62
0
 10
2.000000
 20
0.535898
 0
VERTEX
 8
0
 6
CONTINUOUS
 62
0
 10
0.0
 20
0.0
 0
VERTEX
 8
0
 6
CONTINUOUS
 62
0
 10
2.000000
 20
-0.535898
 0
SEQEND
 8
0
 0
ENDBLK
 8
0
 0
BLOCK
 8
001
 2
*D0
 70
1
 10
0.0
 20
0.0
 0
LINE
 8
001
 10
-72.322140
 20
4.138687
 11
-72.322140
 21
-9.100839
 0
LINE
 8
001
 10
62.773187
 20
7.623743
 11
62.773187
 21
-9.100839
 0
LINE
 8
001
 10
-72.322140
 20
-8.100839
 11
62.773187
 21
-8.100839
 0
INSERT
 8
001
 62
7
 2
ARROW
 6
BYBLOCK
 10
-72.322140
 20
-8.100839
 41
1.000000
 42
1.000000
 0
INSERT
 8
001
 62
7
 2
ARROW
 6
BYBLOCK
 10
62.773187
 20
-8.100839
 41
1.000000
 42
1.000000
 50
180.000000
 0
POINT
 8
001
 10
-72.322140
 20
5.138687
 0
POINT
 8
001
 10
62.773187
 20
8.623743
 0
POINT
 8
001
 10
62.773187
 20
-8.100839
 0
ENDBLK
 8
001
 0
BLOCK
 8
001
 2
*D1
 70
1
 10
0.0
 20
0.0
 0
LINE
 8
001
 10
90.062960
 20
21.545336
 11
90.062960
 21
-7.383588
 0
LINE
 8
001
 10
128.504487
 20
21.545336
 11
128.504487
 21
-7.383588
 0
LINE
 8
001
 10
90.062960
 20
-6.383588
 11
128.504487
 21
-6.383588
 0
INSERT
 8
001
 62
7
 2
ARROW
 6
BYBLOCK
 10
90.062960
 20
-6.383588
 41
1.000000
 42
1.000000
 0
INSERT
 8
001
 62
7
 2
ARROW
 6
BYBLOCK
 10
128.504487
 20
-6.383588
 41
1.000000
 42
1.000000
 50
180.000000
 0
TEXT
 8
001
 10
102.408723
 20
-5.383588
 40
3.200000
 1
%%c38.5
 41
0.991587
 7
STANDARD
 0
POINT
 8
001
 10
90.062960
 20
22.545336
 0
POINT
 8
001
 10
128.504487
 20
22.545336
 0
POINT
 8
001
 10
128.504487
 20
-6.383588
 0
ENDBLK
 8
001
 0
BLOCK
 8
001
 2
*D2
 70
1
 10
0.0
 20
0.0
 0
LINE
 8
001
 10
-128.816295
 20
22.819312
 11
-128.816295
 21
-9.100839
 0
LINE
 8
001
 10
-86.381295
 20
22.819312
 11
-86.381295
 21
-9.100839
 0
LINE
 8
001
 10
-128.816295
 20
-8.100839
 11
-86.381295
 21
-8.100839
 0
INSERT
 8
001
 62
7
 2
ARROW
 6
BYBLOCK
 10
-128.816295
 20
-8.100839
 41
1.000000
 42
1.000000
 0
INSERT
 8
001
 62
7
 2
ARROW
 6
BYBLOCK
 10
-86.381295
 20
-8.100839
 41
1.000000
 42
1.000000
 50
180.000000
 0
TEXT
 8
001
 10
-114.473795
 20
-7.100839
 40
3.200000
 1
%%c45.5
 41
0.991587
 7
STANDARD
 0
POINT
 8
001
 10
-128.816295
 20
23.819312
 0
POINT
 8
001
 10
-86.381295
 20
23.819312
 0
POINT
 8
001
 10
-86.381295
 20
-8.100839
 0
ENDBLK
 8
001
 0
ENDSEC
 0
SECTION
 2
ENTITIES
 0
DIMENSION
 8
001
 2
*D0
 10
62.773187
 20
-8.100839
 11
-13.024477
 21
-7.100839
 13
-72.322140
 23
5.138687
 14
62.773187
 24
8.623743
 0
DIMENSION
 8
001
 2
*D1
 10
128.504487
 20
-6.383588
 11
102.408723
 21
-5.383588
 13
90.062960
 23
22.545336
 14
128.504487
 24
22.545336
 0
DIMENSION
 8
001
 2
*D2
 10
-86.381295
 20
-8.100839
 11
-114.473795
 21
-7.100839
 13
-128.816295
 23
23.819312
 14
-86.381295
 24
23.819312
 0
LINE
 8
001
 62
3
 10
54.909410
 20
65.544611
 11
138.509410
 21
65.544611
 0
LINE
 8
001
 62
3
 10
54.909410
 20
85.494611
 11
138.509410
 21
85.494611
 0
TEXT
 8
001
 62
3
 10
127.784410
 20
80.649611
 40
3.040000
 1
担
 41
0.859375
 7
STANDARD
 0
TEXT
 8
001
 62
3
 10
134.671910
 20
80.649611
 40
3.040000
 1
当
 41
0.859375
 7
STANDARD
 0
TEXT
 8
001
 62
3
 10
87.588633
 20
80.132449
 40
3.040000
 1
変更・追記内容
 41
1.182726
 7
STANDARD
 0
LINE
 8
001
 62
3
 10
54.909410
 20
85.494611
 11
54.909410
 21
65.544611
 0
TEXT
 8
001
 62
3
 10
58.682114
 20
73.495435
 40
2.432000
 1
1
 41
1.499999
 7
STANDARD
 0
TEXT
 8
001
 62
3
 10
58.682114
 20
66.639224
 40
2.432000
 1
2
 41
1.000000
 7
STANDARD
 0
TEXT
 8
001
 62
3
 10
67.868359
 20
80.208976
 40
3.200000
 1
日
 41
0.859375
 7
STANDARD
 0
TEXT
 8
001
 62
3
 10
76.745233
 20
80.208976
 40
3.200000
 1
付
 41
0.859375
 7
STANDARD
 0
LINE
 8
001
 62
3
 10
54.909410
 20
85.494611
 11
54.909410
 21
89.994611
 0
TEXT
 8
001
 62
3
 10
67.694200
 20
86.144611
 40
3.200000
 1
図
 41
0.859375
 7
STANDARD
 0
TEXT
 8
001
 62
3
 10
86.350095
 20
86.144611
 40
3.200000
 1
面
 41
0.859375
 7
STANDARD
 0
TEXT
 8
001
 62
3
 10
105.005990
 20
86.144611
 40
3.200000
 1
略
 41
0.859375
 7
STANDARD
 0
TEXT
 8
001
 62
3
 10
123.661886
 20
86.144611
 40
3.200000
 1
歴
 41
0.859375
 7
STANDARD
 0
TEXT
 8
001
 62
3
 10
55.511774
 20
80.569611
 40
3.200000
 1
記
 41
0.859375
 7
STANDARD
 0
TEXT
 8
001
 62
3
 10
61.764681
 20
80.569611
 40
3.200000
 1
号
 41
0.859375
 7
STANDARD
 0
LINE
 8
001
 10
59.727114
 20
76.905366
 11
57.827114
 21
73.614469
 0
LINE
 8
001
 10
59.727114
 20
76.905366
 11
61.627114
 21
73.614469
 0
LINE
 8
001
 10
57.827114
 20
73.614469
 11
61.627114
 21
73.614469
 0
LINE
 8
001
 10
59.727114
 20
70.049155
 11
57.827114
 21
66.758259
 0
LINE
 8
001
 10
59.727114
 20
70.049155
 11
61.627114
 21
66.758259
 0
LINE
 8
001
 10
57.827114
 20
66.758259
 11
61.627114
 21
66.758259
 0
LINE
 8
001
 62
3
 10
0.000000
 20
100.472617
 11
0.000000
 21
99.224058
 0
TEXT
 8
001
 62
3
 10
42.152194
 20
-58.877732
 40
5.000000
 1
防雨型２Ｐ延長コード
 41
0.720919
 7
STANDARD
 0
TEXT
 8
001
 62
3
 10
102.290256
 20
-79.093976
 40
3.200000
 1
2002.12.2
 41
1.444394
 7
STANDARD
 0
LINE
 8
001
 62
3
 10
55.680234
 20
36.798030
 11
55.680234
 21
39.972317
 0
LINE
 8
001
 62
3
 10
61.773187
 20
38.972317
 11
62.773187
 21
38.972317
 0
ARC
 8
001
 62
3
 10
58.726711
 20
39.972317
 40
3.046476
 50
0.000000
 51
180.000000
 0
ARC
 8
001
 62
3
 10
58.726711
 20
7.623743
 40
3.046476
 50
180.000000
 51
0.000000
 0
LINE
 8
001
 62
3
 10
61.773187
 20
8.623743
 11
62.773187
 21
8.623743
 0
LINE
 8
001
 62
3
 10
54.680234
 20
35.798030
 11
35.424613
 21
35.798030
 0
LINE
 8
001
 62
3
 10
54.680234
 20
11.798030
 11
35.424613
 21
11.798030
 0
LINE
 8
001
 62
3
 10
32.424613
 20
14.798030
 11
32.424613
 21
32.798030
 0
ARC
 8
001
 62
3
 10
35.424613
 20
32.798030
 40
3.000000
 50
90.000000
 51
180.000000
 0
ARC
 8
001
 62
3
 10
35.424613
 20
14.798030
 40
3.000000
 50
180.000000
 51
270.000000
 0
ARC
 8
001
 62
3
 10
54.680234
 20
36.798030
 40
1.000000
 50
270.000000
 51
0.000000
 0
LINE
 8
001
 62
3
 10
55.680234
 20
10.798030
 11
55.680234
 21
7.623743
 0
ARC
 8
001
 62
3
 10
54.680234
 20
10.798030
 40
1.000000
 50
0.000000
 51
90.000000
 0
LINE
 8
001
 62
3
 10
-86.407788
 20
-31.245376
 11
-86.407788
 21
-80.245376
 0
TEXT
 8
001
 62
3
 10
-85.015197
 20
-52.245376
 40
4.000000
 1
電
 41
0.875000
 7
STANDARD
 0
TEXT
 8
001
 62
3
 10
-76.621119
 20
-52.245376
 40
4.000000
 1
線
 41
0.875000
 7
STANDARD
 0
TEXT
 8
001
 62
3
 10
-68.227041
 20
-52.245376
 40
4.000000
 1
長
 41
0.875000
 7
STANDARD
 0
TEXT
 8
001
 62
3
 10
-59.832963
 20
-52.245376
 40
4.000000
 1
さ
 41
0.875000
 7
STANDARD
 0
TEXT
 8
001
 62
3
 10
-85.015197
 20
-66.245376
 40
4.000000
 1
電
 41
0.875000
 7
STANDARD
 0
TEXT
 8
001
 62
3
 10
-76.621119
 20
-66.245376
 40
4.000000
 1
線
 41
0.875000
 7
STANDARD
 0
TEXT
 8
001
 62
3
 10
-68.227041
 20
-66.245376
 40
4.000000
 1
仕
 41
0.875000
 7
STANDARD
 0
TEXT
 8
001
 62
3
 10
-59.832963
 20
-66.245376
 40
4.000000
 1
様
 41
0.875000
 7
STANDARD
 0
TEXT
 8
001
 62
3
 10
-85.015197
 20
-73.245376
 40
4.000000
 1
電線許容電流
 41
1.049260
 7
STANDARD
 0
TEXT
 8
001
 62
3
 10
-85.015197
 20
-80.245376
 40
4.000000
 1
電
 41
0.875000
 7
STANDARD
 0
TEXT
 8
001
 62
3
 10
-72.424080
 20
-80.245376
 40
4.000000
 1
線
 41
0.875000
 7
STANDARD
 0
TEXT
 8
001
 62
3
 10
-59.832962
 20
-80.245376
 40
4.000000
 1
色
 41
0.875000
 7
STANDARD
 0
TEXT
 8
001
 62
3
 10
-30.348632
 20
-79.474444
 40
4.000000
 1
黒　　
 41
0.833333
 7
STANDARD
 0
LINE
 8
001
 10
-54.645772
 20
-38.245376
 11
-54.645772
 21
-80.245376
 0
TEXT
 8
001
 62
3
 10
-33.966538
 20
-72.666028
 40
4.000000
 1
16A
 41
1.125000
 7
STANDARD
 0
TEXT
 8
001
 62
3
 10
-85.156397
 20
-58.852842
 40
4.000000
 1
定
 41
0.875000
 7
STANDARD
 0
TEXT
 8
001
 62
3
 10
-76.762319
 20
-58.852842
 40
4.000000
 1
　
 41
0.875000
 7
STANDARD
 0
TEXT
 8
001
 62
3
 10
-68.368240
 20
-58.852842
 40
4.000000
 1
　
 41
0.875000
 7
STANDARD
 0
TEXT
 8
001
 62
3
 10
-59.974162
 20
-58.852842
 40
4.000000
 1
格
 41
0.875000
 7
STANDARD
 0
TEXT
 8
001
 62
3
 10
-42.919199
 20
-58.852842
 40
4.000000
 1
125V/15A
 41
1.043478
 7
STANDARD
 0
CIRCLE
 8
001
 62
3
 10
109.283723
 20
22.545336
 40
15.174287
 0
CIRCLE
 8
001
 62
3
 10
109.283723
 20
22.545336
 40
19.220763
 0
LINE
 8
001
 62
3
 10
-72.322140
 20
5.138687
 11
-72.322140
 21
42.499937
 0
LINE
 8
001
 62
3
 10
-58.484640
 20
38.579312
 11
-58.484640
 21
40.424312
 0
ARC
 8
001
 62
3
 10
-70.707765
 20
42.499937
 40
1.614375
 50
90.000000
 51
180.000000
 0
ARC
 8
001
 62
3
 10
-70.707765
 20
5.138687
 40
1.614375
 50
180.000000
 51
270.000000
 0
ARC
 8
001
 62
3
 10
-62.174640
 20
40.424312
 40
3.690000
 50
0.000000
 51
90.000000
 0
ARC
 8
001
 62
3
 10
-57.562140
 20
38.579312
 40
0.922500
 50
180.000000
 51
270.000000
 0
ARC
 8
001
 62
3
 10
-57.562140
 20
9.059312
 40
0.922500
 50
90.000000
 51
180.000000
 0
ARC
 8
001
 62
3
 10
-62.174640
 20
7.214312
 40
3.690000
 50
270.000000
 51
0.000000
 0
LINE
 8
001
 62
3
 10
-7.747140
 20
15.455984
 11
-7.747140
 21
32.215908
 0
LINE
 8
001
 62
3
 10
-29.887140
 20
13.671812
 11
-29.887140
 21
33.966812
 0
LINE
 8
001
 62
3
 10
-33.577140
 20
37.656812
 11
-57.562140
 21
37.656812
 0
LINE
 8
001
 62
3
 10
-33.577140
 20
9.981812
 11
-57.562140
 21
9.981812
 0
ARC
 8
001
 62
3
 10
-33.577140
 20
33.966812
 40
3.690000
 50
0.000000
 51
90.000000
 0
ARC
 8
001
 62
3
 10
-33.577140
 20
13.671812
 40
3.690000
 50
270.000000
 51
0.000000
 0
LINE
 8
001
 62
3
 10
-29.887140
 20
31.199312
 11
-11.437140
 21
31.199312
 0
LINE
 8
001
 62
3
 10
-29.887140
 20
16.439312
 11
-11.437140
 21
16.439312
 0
ARC
 8
001
 62
3
 10
-9.592140
 20
15.455984
 40
1.845000
 50
180.000000
 51
0.000000
 0
ARC
 8
001
 62
3
 10
-9.592140
 20
32.215908
 40
1.845000
 50
0.000000
 51
180.000000
 0
LINE
 8
001
 62
3
 10
-58.484640
 20
7.214312
 11
-58.484640
 21
38.579312
 0
ARC
 8
001
 62
3
 10
-64.480890
 20
44.114312
 40
0.922500
 50
0.000000
 51
180.000000
 0
ARC
 8
001
 62
3
 10
-68.632140
 20
44.114312
 40
0.922500
 50
0.000000
 51
180.000000
 0
LINE
 8
001
 62
3
 10
-69.554640
 20
44.114312
 11
-70.707765
 21
44.114312
 0
LINE
 8
001
 62
3
 10
-62.174640
 20
44.114312
 11
-63.558390
 21
44.114312
 0
LINE
 8
001
 62
3
 10
-65.403390
 20
44.114312
 11
-67.709640
 21
44.114312
 0
ARC
 8
001
 62
3
 10
-68.632140
 20
3.524312
 40
0.922500
 50
180.000000
 51
0.000000
 0
ARC
 8
001
 62
3
 10
-64.480890
 20
3.524312
 40
0.922500
 50
180.000000
 51
0.000000
 0
LINE
 8
001
 62
3
 10
-62.174640
 20
3.524312
 11
-63.558390
 21
3.524312
 0
LINE
 8
001
 62
3
 10
-65.403390
 20
3.524312
 11
-67.709640
 21
3.524312
 0
LINE
 8
001
 62
3
 10
-69.554640
 20
3.524312
 11
-70.707765
 21
3.524312
 0
LINE
 8
001
 62
3
 10
-7.747140
 20
19.483562
 11
0.001183
 21
19.483562
 0
LINE
 8
001
 62
3
 10
-7.747140
 20
28.155062
 11
0.612620
 21
28.155062
 0
CIRCLE
 8
001
 62
3
 10
-107.598795
 20
23.819312
 40
21.217500
 0
CIRCLE
 8
001
 62
3
 10
-107.598795
 20
23.819312
 40
17.066250
 0
LINE
 8
001
 62
3
 10
4.396334
 20
28.155062
 11
10.773187
 21
28.155062
 0
LINE
 8
001
 62
3
 10
3.767078
 20
19.483562
 11
10.773187
 21
19.483562
 0
TEXT
 8
001
 62
3
 10
-15.883193
 20
-6.551718
 40
4.500000
 1
電線長さ
 41
0.833333
 7
STANDARD
  0
POLYLINE
  8
001
 66
1
  0
VERTEX
  8
001
 10
3.590918
 20
29.861172
  0
VERTEX
  8
001
 10
4.582470
 20
27.660736
  0
VERTEX
  8
001
 10
4.859380
 20
25.470648
  0
VERTEX
  8
001
 10
4.122841
 20
23.382267
  0
VERTEX
  8
001
 10
3.447619
 20
21.309668
  0
VERTEX
  8
001
 10
3.856194
 20
19.267923
  0
VERTEX
  8
001
 10
4.973489
 20
17.232279
  0
SEQEND
  8
001
  0
POLYLINE
  8
001
 66
1
  0
VERTEX
  8
001
 10
-0.343606
 20
30.254625
  0
VERTEX
  8
001
 10
0.647946
 20
28.054188
  0
VERTEX
  8
001
 10
0.924856
 20
25.864101
  0
VERTEX
  8
001
 10
0.188317
 20
23.775720
  0
VERTEX
  8
001
 10
-0.486905
 20
21.703120
  0
VERTEX
  8
001
 10
-0.078330
 20
19.661375
  0
VERTEX
  8
001
 10
1.038964
 20
17.625731
  0
SEQEND
  8
001
 0
TEXT
 8
001
 62
3
 10
-85.015197
 20
-45.245376
 40
4.000000
 1
型
 41
0.875000
 7
STANDARD
 0
TEXT
 8
001
 62
3
 10
-59.832962
 20
-45.245376
 40
4.000000
 1
式
 41
0.875000
 7
STANDARD
 0
TEXT
 8
001
 62
3
 10
-51.527584
 20
-37.813345
 40
4.000000
 1
（防雨・防塵型）
 41
1.068292
 7
STANDARD
 0
TEXT
 8
001
 62
3
 10
65.014843
 20
72.194611
 40
3.200000
 1
2003.3.3
 41
0.837707
 7
STANDARD
 0
TEXT
 8
001
 62
3
 10
82.620169
 20
72.194611
 40
3.200000
 1
電気用品表示変更
 41
0.833333
 7
STANDARD
 0
TEXT
 8
001
 62
3
 10
126.911885
 20
72.194611
 40
3.200000
 1
　牧田
 41
0.833333
 7
STANDARD
 0
LINE
 8
001
 62
3
 10
31.191247
 20
15.745567
 11
31.191247
 21
31.745567
 0
LINE
 8
001
 62
3
 10
14.499532
 20
15.905518
 11
13.487913
 21
15.905518
 0
LINE
 8
001
 62
3
 10
14.499532
 20
31.585615
 11
13.487913
 21
31.585615
 0
ARC
 8
001
 62
3
 10
31.691247
 20
31.745567
 40
0.500000
 50
90.000000
 51
180.000000
 0
ARC
 8
001
 62
3
 10
31.691247
 20
15.745567
 40
0.500000
 50
180.000000
 51
270.000000
 0
LINE
 8
001
 6
HIDDEN
 62
15
 10
31.191247
 20
29.245567
 11
31.191247
 21
29.815281
 0
LINE
 8
001
 6
HIDDEN
 62
15
 10
31.191247
 20
18.245567
 11
31.191247
 21
17.675852
 0
LINE
 8
001
 62
3
 10
17.034389
 20
30.693685
 11
18.551818
 21
30.693685
 0
LINE
 8
001
 62
3
 10
20.569247
 20
30.693685
 11
22.086675
 21
30.693685
 0
LINE
 8
001
 62
3
 10
24.115723
 20
30.693685
 11
25.633152
 21
30.693685
 0
LINE
 8
001
 62
3
 10
27.650581
 20
30.693685
 11
29.168009
 21
30.693685
 0
LINE
 8
001
 62
3
 10
27.650581
 20
16.797448
 11
29.168009
 21
16.797448
 0
LINE
 8
001
 62
3
 10
24.115723
 20
16.797448
 11
25.633152
 21
16.797448
 0
LINE
 8
001
 62
3
 10
17.034389
 20
16.797448
 11
18.551818
 21
16.797448
 0
LINE
 8
001
 62
3
 10
20.569247
 20
16.797448
 11
22.086675
 21
16.797448
 0
LINE
 8
001
 62
3
 10
10.987913
 20
31.245567
 11
10.987913
 21
16.245567
 0
LINE
 8
001
 62
3
 10
11.987913
 20
15.245567
 11
12.787913
 21
15.245567
 0
LINE
 8
001
 62
3
 10
11.987913
 20
32.245567
 11
12.787913
 21
32.245567
 0
ARC
 8
001
 62
3
 10
12.787913
 20
31.545567
 40
0.700000
 50
0.000000
 51
90.000000
 0
ARC
 8
001
 62
3
 10
12.787913
 20
15.945567
 40
0.700000
 50
270.000000
 51
0.000000
 0
ARC
 8
001
 62
3
 10
11.987913
 20
16.245567
 40
1.000000
 50
180.000000
 51
270.000000
 0
ARC
 8
001
 62
3
 10
11.987913
 20
31.245567
 40
1.000000
 50
90.000000
 51
180.000000
 0
LINE
 8
001
 62
3
 10
17.034389
 20
31.585615
 11
14.499532
 21
31.585615
 0
LINE
 8
001
 62
3
 10
17.034389
 20
15.905518
 11
14.499532
 21
15.905518
 0
LINE
 8
001
 62
3
 10
20.569247
 20
15.905518
 11
18.551818
 21
15.905518
 0
LINE
 8
001
 62
3
 10
24.115723
 20
15.905518
 11
22.086675
 21
15.905518
 0
LINE
 8
001
 62
3
 10
27.650581
 20
15.905518
 11
25.633152
 21
15.905518
 0
LINE
 8
001
 62
3
 10
31.191247
 20
15.905518
 11
29.168009
 21
15.905518
 0
LINE
 8
001
 62
3
 10
31.191247
 20
31.585615
 11
29.168009
 21
31.585615
 0
LINE
 8
001
 62
3
 10
27.650581
 20
31.585615
 11
25.633152
 21
31.585615
 0
LINE
 8
001
 62
3
 10
24.115723
 20
31.585615
 11
22.086675
 21
31.585615
 0
LINE
 8
001
 62
3
 10
20.569247
 20
31.585615
 11
18.551818
 21
31.585615
 0
LINE
 8
001
 62
3
 10
78.959093
 20
20.611430
 11
62.773187
 21
20.611430
 0
LINE
 8
001
 62
3
 10
78.959093
 20
26.984630
 11
62.773187
 21
26.984630
 0
LINE
 8
001
 62
3
 10
62.773187
 20
8.623743
 11
62.773187
 21
23.798030
 0
LINE
 8
001
 62
3
 10
62.773187
 20
38.972317
 11
62.773187
 21
23.798030
 0
LINE
 8
001
 62
3
 10
-1.556806
 20
-31.245376
 11
-1.556806
 21
-80.245376
 0
LINE
 8
001
 62
3
 10
-1.556806
 20
-31.245376
 11
-86.407788
 21
-31.245376
 0
LINE
 8
001
 10
-1.556806
 20
-52.245376
 11
-86.407788
 21
-52.245376
 0
LINE
 8
001
 10
-1.556806
 20
-59.245376
 11
-86.407788
 21
-59.245376
 0
LINE
 8
001
 10
-1.556806
 20
-66.245376
 11
-86.407788
 21
-66.245376
 0
LINE
 8
001
 10
-1.556806
 20
-73.245376
 11
-86.407788
 21
-73.245376
 0
LINE
 8
001
 62
3
 10
-1.556806
 20
-80.245376
 11
-86.407788
 21
-80.245376
 0
LINE
 8
001
 10
-86.407788
 20
-45.245376
 11
-1.556806
 21
-45.245376
 0
TEXT
 8
001
 62
3
 10
72.606416
 20
-79.219562
 40
3.200000
 1
FREE
 41
1.000000
 7
STANDARD
 0
ARC
 8
001
 62
3
 10
74.446007
 20
23.798030
 40
5.524705
 50
324.774844
 51
35.225156
 0
LINE
 8
001
 10
116.383723
 20
25.731936
 11
116.383723
 21
19.358736
 0
LINE
 8
001
 10
114.883723
 20
25.731936
 11
114.883723
 21
19.358736
 0
LINE
 8
001
 10
103.683723
 20
25.731936
 11
103.683723
 21
19.358736
 0
LINE
 8
001
 10
102.183723
 20
25.731936
 11
102.183723
 21
19.358736
 0
LINE
 8
001
 10
102.183723
 20
25.731936
 11
103.683723
 21
25.731936
 0
LINE
 8
001
 10
114.883723
 20
25.731936
 11
116.383723
 21
25.731936
 0
LINE
 8
001
 10
102.183723
 20
19.358736
 11
103.683723
 21
19.358736
 0
LINE
 8
001
 10
114.883723
 20
19.358736
 11
116.383723
 21
19.358736
 0
TEXT
 8
001
 10
103.049281
 20
28.820575
 40
1.600000
 1
15A 125V
 41
0.950469
 7
STANDARD
 0
ARC
 8
001
 10
116.926528
 20
14.737169
 40
0.689663
 50
204.102092
 51
28.326247
 0
LINE
 8
001
 10
117.639591
 20
15.163472
 11
116.995760
 21
14.048324
 0
LINE
 8
001
 10
116.213466
 20
14.310866
 11
116.857297
 21
15.426014
 0
LINE
 8
001
 10
116.926528
 20
15.429484
 11
116.926528
 21
14.044853
 0
ARC
 8
001
 10
116.926528
 20
14.737169
 40
0.692315
 50
26.802291
 51
204.260830
 0
TEXT
 8
001
 10
100.024206
 20
13.855979
 40
1.769472
 1
<PS>E JET
 41
1.139241
 7
STANDARD
 0
LINE
 8
001
 10
126.911885
 20
85.426348
 11
126.911885
 21
65.544611
 0
LINE
 8
001
 10
54.909410
 20
72.194611
 11
138.509410
 21
72.194611
 0
LINE
 8
001
 10
54.909410
 20
78.844611
 11
138.509410
 21
78.844611
 0
LINE
 8
001
 10
65.014843
 20
85.494611
 11
65.014843
 21
65.544611
 0
LINE
 8
001
 10
82.620169
 20
84.988434
 11
82.620169
 21
65.544611
 0
LINE
 8
001
 10
78.959093
 20
26.984630
 11
78.959093
 21
20.611430
 0
CIRCLE
 8
001
 10
74.912617
 20
23.798030
 40
1.770333
 0
LINE
 8
001
 10
27.650581
 20
31.585615
 11
27.650581
 21
15.905518
 0
LINE
 8
001
 10
25.633152
 20
31.585615
 11
25.633152
 21
15.905518
 0
LINE
 8
001
 10
24.115723
 20
31.585615
 11
24.115723
 21
15.905518
 0
LINE
 8
001
 10
22.086675
 20
31.585615
 11
22.086675
 21
15.905518
 0
LINE
 8
001
 10
27.650581
 20
28.060034
 11
29.168009
 21
28.060034
 0
LINE
 8
001
 10
20.569247
 20
31.585615
 11
20.569247
 21
15.905518
 0
LINE
 8
001
 10
18.551818
 20
31.585615
 11
18.551818
 21
15.905518
 0
LINE
 8
001
 10
17.034389
 20
24.941285
 11
18.551818
 21
24.941285
 0
LINE
 8
001
 10
17.034389
 20
22.549848
 11
18.551818
 21
22.549848
 0
LINE
 8
001
 10
20.569247
 20
24.941285
 11
22.086675
 21
24.941285
 0
LINE
 8
001
 10
20.569247
 20
22.549848
 11
22.086675
 21
22.549848
 0
LINE
 8
001
 10
24.115723
 20
24.941285
 11
25.633152
 21
24.941285
 0
LINE
 8
001
 10
27.650581
 20
24.941285
 11
29.168009
 21
24.941285
 0
LINE
 8
001
 10
24.115723
 20
22.549848
 11
25.633152
 21
22.549848
 0
LINE
 8
001
 10
27.650581
 20
22.549848
 11
29.168009
 21
22.549848
 0
LINE
 8
001
 10
24.115723
 20
28.060034
 11
25.633152
 21
28.060034
 0
LINE
 8
001
 10
17.034389
 20
28.060034
 11
18.551818
 21
28.060034
 0
LINE
 8
001
 10
20.569247
 20
28.060034
 11
22.086675
 21
28.060034
 0
LINE
 8
001
 10
17.034389
 20
19.388534
 11
18.551818
 21
19.388534
 0
LINE
 8
001
 10
20.569247
 20
19.388534
 11
22.086675
 21
19.388534
 0
LINE
 8
001
 10
24.115723
 20
19.388534
 11
25.633152
 21
19.388534
 0
LINE
 8
001
 10
27.650581
 20
19.388534
 11
29.168009
 21
19.388534
 0
ARC
 8
001
 10
51.645377
 20
35.937459
 40
3.034857
 50
270.000000
 51
0.000000
 0
LINE
 8
001
 10
54.680234
 20
23.798030
 11
54.680234
 21
35.937459
 0
ARC
 8
001
 10
51.645377
 20
11.658600
 40
3.034857
 50
0.000000
 51
90.000000
 0
LINE
 8
001
 10
54.680234
 20
23.798030
 11
54.680234
 21
11.658600
 0
ARC
 8
001
 10
50.613216
 20
29.633100
 40
1.200000
 50
0.000000
 51
90.000000
 0
LINE
 8
001
 10
51.813216
 20
17.633100
 11
51.813216
 21
29.633100
 0
LINE
 8
001
 10
37.269622
 20
32.902602
 11
51.645377
 21
32.902602
 0
LINE
 8
001
 10
37.203578
 20
14.693458
 11
51.645377
 21
14.693458
 0
LINE
 8
001
 10
50.613216
 20
30.833100
 11
44.614200
 21
30.833100
 0
LINE
 8
001
 10
50.613216
 20
16.433100
 11
44.445816
 21
16.433100
 0
ARC
 8
001
 10
44.614200
 20
23.632116
 40
7.200984
 50
90.000000
 51
271.339898
 0
ARC
 8
001
 10
50.613216
 20
17.633100
 40
1.200000
 50
270.000000
 51
0.000000
 0
ARC
 8
001
 10
37.269622
 20
29.902602
 40
3.000000
 50
90.000000
 51
168.368001
 0
ARC
 8
001
 10
37.203578
 20
17.693458
 40
3.000000
 50
191.012131
 51
270.000000
 0
ARC
 8
001
 10
67.725888
 20
23.633100
 40
34.094867
 50
168.368001
 51
191.012131
 0
LINE
 8
001
 10
55.680234
 20
36.798030
 11
55.680234
 21
10.798030
 0
LINE
 8
001
 10
61.773187
 20
7.623743
 11
61.773187
 21
39.972317
 0
LINE
 8
001
 10
13.487913
 20
15.945567
 11
13.487913
 21
31.545567
 0
LINE
 8
001
 10
17.034389
 20
31.585615
 11
17.034389
 21
15.905518
 0
LINE
 8
001
 10
29.168009
 20
31.585615
 11
29.168009
 21
15.905518
 0
LINE
 8
001
 10
-11.437140
 20
15.455984
 11
-11.437140
 21
32.215908
 0
LINE
 8
001
 10
-26.197140
 20
31.199312
 11
-26.197140
 21
16.439312
 0
LINE
 8
001
 10
-24.352140
 20
31.199312
 11
-24.352140
 21
16.439312
 0
LINE
 8
001
 10
-22.507140
 20
31.199312
 11
-22.507140
 21
16.439312
 0
LINE
 8
001
 10
-20.662140
 20
31.199312
 11
-20.662140
 21
16.439312
 0
LINE
 8
001
 10
-18.817140
 20
31.199312
 11
-18.817140
 21
16.439312
 0
LINE
 8
001
 10
-16.972140
 20
31.199312
 11
-16.972140
 21
16.439312
 0
LINE
 8
001
 10
-15.127140
 20
31.199312
 11
-15.127140
 21
16.439312
 0
LINE
 8
001
 10
-13.282140
 20
31.199312
 11
-13.282140
 21
16.439312
 0
LINE
 8
001
 10
-15.127140
 20
25.203062
 11
-13.282140
 21
25.203062
 0
LINE
 8
001
 10
-15.127140
 20
22.435562
 11
-13.282140
 21
22.435562
 0
LINE
 8
001
 10
-18.817140
 20
25.203062
 11
-16.972140
 21
25.203062
 0
LINE
 8
001
 10
-18.817140
 20
22.435562
 11
-16.972140
 21
22.435562
 0
LINE
 8
001
 10
-26.197140
 20
22.435562
 11
-24.352140
 21
22.435562
 0
LINE
 8
001
 10
-22.507140
 20
22.435562
 11
-20.662140
 21
22.435562
 0
LINE
 8
001
 10
-26.197140
 20
25.203062
 11
-24.352140
 21
25.203062
 0
LINE
 8
001
 10
-22.507140
 20
25.203062
 11
-20.662140
 21
25.203062
 0
LINE
 8
001
 10
-24.352140
 20
29.586964
 11
-22.507140
 21
29.586964
 0
LINE
 8
001
 10
-20.662140
 20
29.586964
 11
-18.817140
 21
29.586964
 0
LINE
 8
001
 10
-16.972140
 20
29.586964
 11
-15.127140
 21
29.586964
 0
LINE
 8
001
 10
-16.972140
 20
18.051660
 11
-15.127140
 21
18.051660
 0
LINE
 8
001
 10
-20.662140
 20
18.051660
 11
-18.817140
 21
18.051660
 0
LINE
 8
001
 10
-24.352140
 20
18.051660
 11
-22.507140
 21
18.051660
 0
LINE
 8
001
 10
-42.802140
 20
29.815562
 11
-42.802140
 21
17.823062
 0
LINE
 8
001
 10
-31.732140
 20
17.823062
 11
-31.732140
 21
29.815562
 0
LINE
 8
001
 10
-42.340890
 20
17.361812
 11
-32.193390
 21
17.361812
 0
LINE
 8
001
 10
-42.340890
 20
30.276812
 11
-32.193390
 21
30.276812
 0
LINE
 8
001
 10
-34.499640
 20
30.276812
 11
-34.499640
 21
17.361812
 0
LINE
 8
001
 10
-37.267140
 20
30.276812
 11
-37.267140
 21
17.361812
 0
LINE
 8
001
 10
-40.034640
 20
30.276812
 11
-40.034640
 21
17.361812
 0
ARC
 8
001
 10
-32.193390
 20
29.815562
 40
0.461250
 50
0.000000
 51
90.000000
 0
ARC
 8
001
 10
-32.193390
 20
17.823062
 40
0.461250
 50
270.000000
 51
0.000000
 0
ARC
 8
001
 10
-42.340890
 20
17.823062
 40
0.461250
 50
180.000000
 51
270.000000
 0
ARC
 8
001
 10
-42.340890
 20
29.815562
 40
0.461250
 50
90.000000
 51
180.000000
 0
LINE
 8
001
 10
-53.968943
 20
31.990517
 11
-44.916702
 21
31.990517
 0
LINE
 8
001
 10
-44.916702
 20
15.190517
 11
-53.968943
 21
15.190517
 0
TEXT
 8
001
 10
-46.028952
 20
17.396620
 40
1.920000
 1
15A 125V
 50
90.000003
 41
0.909920
 7
STANDARD
 0
TEXT
 8
001
 10
-50.675433
 20
15.677422
 40
1.920000
 1
<PS>E JET
 50
90.000003
 41
0.852913
 7
STANDARD
 0
LINE
 8
001
 10
-50.783293
 20
30.197673
 11
-52.612024
 21
30.197673
 0
CIRCLE
 8
001
 10
-51.697658
 20
30.197673
 40
0.914365
 0
LINE
 8
001
 10
-50.783293
 20
30.197673
 11
-52.447740
 21
31.124795
 0
LINE
 8
001
 10
-52.612024
 20
30.197673
 11
-50.960859
 21
29.236054
 0
LINE
 8
001
 10
-53.968943
 20
15.190517
 11
-53.968943
 21
31.990517
 0
LINE
 8
001
 10
-44.916702
 20
15.190517
 11
-44.916702
 21
31.990517
 0
LINE
 8
001
 10
-57.562140
 20
37.656812
 11
-57.562140
 21
9.981812
 0
LINE
 8
001
 10
-63.558390
 20
44.114312
 11
-63.558390
 21
3.524312
 0
LINE
 8
001
 10
-65.403390
 20
44.114312
 11
-65.403390
 21
3.524312
 0
LINE
 8
001
 10
-67.709640
 20
44.114312
 11
-67.709640
 21
3.524312
 0
LINE
 8
001
 10
-69.554640
 20
44.114312
 11
-69.554640
 21
3.524312
 0
LINE
 8
001
 10
-111.565545
 20
30.691937
 11
-103.632045
 21
30.691937
 0
LINE
 8
001
 10
-111.565545
 20
28.662437
 11
-103.632045
 21
28.662437
 0
LINE
 8
001
 10
-103.632045
 20
30.691937
 11
-103.632045
 21
28.662437
 0
LINE
 8
001
 10
-111.565545
 20
30.691937
 11
-111.565545
 21
28.662437
 0
LINE
 8
001
 10
-110.827545
 20
18.976187
 11
-110.827545
 21
16.946687
 0
LINE
 8
001
 10
-110.827545
 20
18.976187
 11
-104.370045
 21
18.976187
 0
LINE
 8
001
 10
-110.827545
 20
16.946687
 11
-104.370045
 21
16.946687
 0
LINE
 8
001
 10
-104.370045
 20
18.976187
 11
-104.370045
 21
16.946687
 0
LINE
 8
001
 10
-102.986295
 20
20.037062
 11
-102.986295
 21
15.885812
 0
LINE
 8
001
 10
-112.211295
 20
20.037062
 11
-112.211295
 21
15.885812
 0
LINE
 8
001
 10
-112.672545
 20
27.601562
 11
-102.525045
 21
27.601562
 0
LINE
 8
001
 10
-112.672545
 20
31.752812
 11
-102.525045
 21
31.752812
 0
LINE
 8
001
 10
-102.525045
 20
31.752812
 11
-102.525045
 21
27.601562
 0
LINE
 8
001
 10
-112.672545
 20
31.752812
 11
-112.672545
 21
27.601562
 0
LINE
 8
001
 10
-112.211295
 20
20.037062
 11
-102.986295
 21
20.037062
 0
LINE
 8
001
 10
-112.211295
 20
15.885812
 11
-102.986295
 21
15.885812
 0
CIRCLE
 8
001
 10
-107.598795
 20
23.819312
 40
20.295000
 0
LINE
 8
001
 10
-1.556806
 20
-38.245376
 11
-86.407788
 21
-38.245376
 0
LINE
 8
001
 62
3
 10
86.700600
 20
-73.271133
 11
86.700600
 21
-52.271133
 0
LINE
 8
001
 62
3
 10
99.700600
 20
-73.271133
 11
99.700600
 21
-52.271133
 0
LINE
 8
001
 62
3
 10
112.700600
 20
-73.271133
 11
112.700600
 21
-52.271133
 0
LINE
 8
001
 62
3
 10
86.700600
 20
-73.271133
 11
86.700600
 21
-80.271133
 0
LINE
 8
001
 62
3
 10
59.646991
 20
-80.271133
 11
59.646991
 21
-66.271133
 0
LINE
 8
001
 62
3
 10
69.978925
 20
-66.661157
 11
69.978925
 21
-80.271133
 0
TEXT
 8
001
 62
3
 10
88.710918
 20
-54.066017
 40
2.000000
 1
A
 41
0.700000
 7
STANDARD
 0
TEXT
 8
001
 62
3
 10
91.246205
 20
-54.066017
 40
2.000000
 1
P
 41
0.700000
 7
STANDARD
 0
TEXT
 8
001
 62
3
 10
93.781491
 20
-54.066017
 40
2.000000
 1
P
 41
0.700000
 7
STANDARD
 0
TEXT
 8
001
 62
3
 10
96.316777
 20
-54.066017
 40
2.000000
 1
D
 41
0.700000
 7
STANDARD
 0
TEXT
 8
001
 62
3
 10
101.685460
 20
-54.066017
 40
2.000000
 1
C
 41
0.700000
 7
STANDARD
 0
TEXT
 8
001
 62
3
 10
104.220746
 20
-54.066017
 40
2.000000
 1
H
 41
0.700000
 7
STANDARD
 0
TEXT
 8
001
 62
3
 10
106.756033
 20
-54.066017
 40
2.000000
 1
C
 41
0.700000
 7
STANDARD
 0
TEXT
 8
001
 62
3
 10
109.291319
 20
-54.066017
 40
2.000000
 1
K
 41
0.700000
 7
STANDARD
 0
TEXT
 8
001
 62
3
 10
114.965285
 20
-54.066017
 40
2.000000
 1
DESN
 41
1.216763
 7
STANDARD
 0
TEXT
 8
001
 62
3
 10
29.958927
 20
-83.412515
 40
2.000000
 1
NICHIDO IND.CO.LTD
 41
1.274876
 7
STANDARD
 0
LINE
 8
001
 62
3
 10
40.341956
 20
-52.630458
 11
40.341956
 21
-73.271133
 0
LINE
 8
001
 62
3
 10
86.700600
 20
-80.271133
 11
86.700600
 21
-89.936856
 0
LINE
 8
001
 62
3
 10
40.341956
 20
-52.271133
 11
40.341956
 21
-50.271133
 0
LINE
 8
001
 62
3
 10
86.700600
 20
-52.271133
 11
86.700600
 21
-50.271133
 0
LINE
 8
001
 62
3
 10
99.700600
 20
-52.271133
 11
99.700600
 21
-50.271133
 0
LINE
 8
001
 62
3
 10
112.700600
 20
-52.271133
 11
112.700600
 21
-50.271133
 0
LINE
 8
001
 62
3
 10
99.700600
 20
-73.271133
 11
99.700600
 21
-80.271133
 0
TEXT
 8
001
 62
3
 10
87.813045
 20
-79.406446
 40
3.200000
 1
作成日
 41
1.017226
 7
STANDARD
 0
LINE
 8
001
 62
3
 10
138.399964
 20
-50.271133
 11
27.096521
 21
-50.271133
 0
LINE
 8
001
 62
3
 10
125.700600
 20
-73.271133
 11
125.700600
 21
-50.271133
 0
TEXT
 8
001
 62
3
 10
129.024404
 20
-53.980199
 40
1.800000
 1
D
 41
0.666667
 7
STANDARD
 0
TEXT
 8
001
 62
3
 10
131.841032
 20
-53.980199
 40
1.800000
 1
E
 41
0.666667
 7
STANDARD
 0
TEXT
 8
001
 62
3
 10
134.657660
 20
-53.980199
 40
1.800000
 1
F
 41
0.666667
 7
STANDARD
 0
TEXT
 8
001
 62
3
 10
129.024404
 20
-57.972752
 40
3.200000
 1
製図
 41
1.076369
 7
STANDARD
 0
LINE
 8
001
 62
3
 10
27.096521
 20
-50.271133
 11
27.096521
 21
-89.936856
 0
TEXT
 8
001
 62
3
 10
28.473174
 20
-89.604390
 40
5.000000
 1
日動工業株式会社
 41
0.833333
 7
STANDARD
 0
LINE
 8
001
 62
3
 10
69.978925
 20
-80.271133
 11
69.978925
 21
-89.936856
 0
LINE
 8
001
 62
3
 10
69.978925
 20
-85.103994
 11
86.700600
 21
-85.103994
 0
TEXT
 8
001
 62
3
 10
70.565527
 20
-84.287564
 40
3.200000
 1
出図コード
 41
0.835686
 7
STANDARD
 0
LINE
 8
001
 62
3
 10
134.763697
 20
-80.271133
 11
103.284149
 21
-80.271133
 0
LINE
 8
001
 62
3
 10
134.763697
 20
-80.271133
 11
138.399964
 21
-80.271133
 0
LINE
 8
001
 62
3
 10
42.242893
 20
-59.271133
 11
27.096521
 21
-59.271133
 0
LINE
 8
001
 62
3
 10
84.514747
 20
-59.271133
 11
138.399964
 21
-59.271133
 0
LINE
 8
001
 62
3
 10
45.828416
 20
-59.271133
 11
42.242893
 21
-59.271133
 0
LINE
 8
001
 62
3
 10
80.933194
 20
-59.271133
 11
45.828416
 21
-59.271133
 0
LINE
 8
001
 62
3
 10
80.933194
 20
-59.271133
 11
84.514747
 21
-59.271133
 0
LINE
 8
001
 62
3
 10
45.828416
 20
-66.271133
 11
27.096521
 21
-66.271133
 0
LINE
 8
001
 62
3
 10
80.845839
 20
-66.271133
 11
45.828416
 21
-66.271133
 0
LINE
 8
001
 62
3
 10
80.845839
 20
-66.271133
 11
86.700600
 21
-66.271133
 0
LINE
 8
001
 62
3
 10
73.297577
 20
-80.271133
 11
27.096521
 21
-80.271133
 0
LINE
 8
001
 62
3
 10
83.065449
 20
-80.271133
 11
73.297577
 21
-80.271133
 0
LINE
 8
001
 62
3
 10
83.065449
 20
-80.271133
 11
103.284149
 21
-80.271133
 0
LINE
 8
001
 62
3
 10
42.500987
 20
-73.271133
 11
27.096521
 21
-73.271133
 0
LINE
 8
001
 62
3
 10
56.958231
 20
-73.271133
 11
42.500987
 21
-73.271133
 0
LINE
 8
001
 62
3
 10
56.958231
 20
-73.271133
 11
138.399964
 21
-73.271133
 0
TEXT
 8
001
 62
3
 10
70.432979
 20
-89.334661
 40
3.200000
 1
ZK-A4X
 41
0.811285
 7
STANDARD
 0
TEXT
 8
001
 62
3
 10
28.913918
 20
-54.101607
 40
2.000000
 1
CONPONENTS
 41
0.533160
 7
STANDARD
 0
TEXT
 8
001
 62
3
 10
28.564192
 20
-73.033784
 40
3.000000
 1
材
 41
0.833333
 7
STANDARD
 0
TEXT
 8
001
 62
3
 10
36.099834
 20
-73.033784
 40
3.000000
 1
質
 41
0.833333
 7
STANDARD
 0
TEXT
 8
001
 62
3
 10
28.652262
 20
-62.409260
 40
2.000000
 1
MODEL
 41
1.031073
 7
STANDARD
 0
TEXT
 8
001
 62
3
 10
28.564192
 20
-69.351476
 40
2.000000
 1
MATERIAL
 41
0.659278
 7
STANDARD
 0
TEXT
 8
001
 62
3
 10
59.871472
 20
-73.033784
 40
3.000000
 1
備
 41
0.833333
 7
STANDARD
 0
TEXT
 8
001
 62
3
 10
66.604474
 20
-73.033784
 40
3.000000
 1
考
 41
0.833333
 7
STANDARD
 0
TEXT
 8
001
 62
3
 10
59.624463
 20
-69.351476
 40
2.000000
 1
REMARKS
 41
0.675794
 7
STANDARD
 0
TEXT
 8
001
 62
3
 10
30.153921
 20
-76.271597
 40
2.000000
 1
3AD
 41
1.426140
 7
STANDARD
 0
TEXT
 8
001
 62
3
 10
39.464900
 20
-76.105863
 40
2.000000
 1
ANGLE
 41
1.669884
 7
STANDARD
 0
TEXT
 8
001
 62
3
 10
60.398787
 20
-76.482704
 40
2.000000
 1
SCALE
 41
0.771963
 7
STANDARD
 0
TEXT
 8
001
 62
3
 10
29.840050
 20
-80.271133
 40
3.000000
 1
第
 41
0.833333
 7
STANDARD
 0
TEXT
 8
001
 62
3
 10
37.626900
 20
-80.271133
 40
3.000000
 1
三
 41
0.833333
 7
STANDARD
 0
TEXT
 8
001
 62
3
 10
45.413750
 20
-80.271133
 40
3.000000
 1
角
 41
0.833333
 7
STANDARD
 0
TEXT
 8
001
 62
3
 10
53.200600
 20
-80.271133
 40
3.000000
 1
法
 41
0.833333
 7
STANDARD
 0
TEXT
 8
001
 62
3
 10
60.261992
 20
-79.982704
 40
3.000000
 1
尺
 41
0.833333
 7
STANDARD
 0
TEXT
 8
001
 62
3
 10
66.994994
 20
-79.982704
 40
3.000000
 1
度
 41
0.833333
 7
STANDARD
 0
TEXT
 8
001
 62
3
 10
89.578265
 20
-57.813404
 40
3.000000
 1
承認
 41
1.089473
 7
STANDARD
 0
TEXT
 8
001
 62
3
 10
102.821145
 20
-57.871133
 40
3.000000
 1
検図
 41
0.931761
 7
STANDARD
 0
TEXT
 8
001
 62
3
 10
115.821542
 20
-57.871133
 40
3.000000
 1
設
 41
0.833333
 7
STANDARD
 0
TEXT
 8
001
 62
3
 10
120.311410
 20
-57.871133
 40
3.000000
 1
計
 41
0.833333
 7
STANDARD
 0
TEXT
 8
001
 62
3
 10
28.845390
 20
-58.582377
 40
3.000000
 1
品
 41
0.833333
 7
STANDARD
 0
TEXT
 8
001
 62
3
 10
36.381032
 20
-58.582377
 40
3.000000
 1
名
 41
0.833333
 7
STANDARD
 0
TEXT
 8
001
 62
3
 10
28.652262
 20
-66.041520
 40
3.000000
 1
型
 41
0.833333
 7
STANDARD
 0
TEXT
 8
001
 62
3
 10
36.200353
 20
-66.041520
 40
3.000000
 1
式
 41
0.833333
 7
STANDARD
 0
LINE
 8
001
 62
3
 10
-138.500000
 20
90.000000
 11
-138.500000
 21
-90.000000
 0
LINE
 8
001
 62
3
 10
138.500000
 20
-90.000000
 11
138.500000
 21
90.000000
 0
LINE
 8
001
 62
3
 10
-138.500000
 20
-90.000000
 11
138.500000
 21
-90.000000
 0
LINE
 8
001
 62
3
 10
-138.500000
 20
90.000000
 11
138.500000
 21
90.000000
 0
TEXT
 8
001
 62
3
 10
-53.885105
 20
-65.666028
 40
4.000000
 1
ＶＣＴ　１．２５ｓｑ×２ｃ
 41
0.833333
 7
STANDARD
 0
TEXT
 8
001
 62
3
 10
-75.412748
 20
-37.706239
 40
4.500000
 1
主　仕　様
 41
0.833333
 7
STANDARD
 0
TEXT
 8
001
 62
3
 10
-40.495513
 20
-44.829365
 40
4.000000
 1
SW-10
 41
1.034483
 7
STANDARD
 0
TEXT
 8
001
 62
3
 10
-35.713125
 20
-51.982479
 40
4.000000
 1
10m
 41
1.200000
 7
STANDARD
 0
TEXT
 8
001
 62
3
 10
51.105246
 20
-65.233688
 40
4.000000
 1
SW-10
 41
1.034483
 7
STANDARD
 0
TEXT
 8
001
 62
3
 10
89.274042
 20
-90.000000
 40
6.300000
 1
K-SW-10
 41
1.072492
 7
STANDARD
 0
LINE
 8
001
 62
3
 10
112.800637
 20
-50.271133
 11
112.800637
 21
-44.271133
 0
LINE
 8
001
 62
3
 10
86.800637
 20
-50.271133
 11
86.800637
 21
-44.271133
 0
LINE
 8
001
 62
3
 10
138.500000
 20
-44.271133
 11
86.800637
 21
-44.271133
 0
TEXT
 8
001
 62
3
 10
92.796235
 20
-49.474784
 40
4.500000
 1
コード
 41
0.833333
 7
STANDARD
 0
TEXT
 8
001
 10
114.787783
 20
-49.626996
 40
4.500000
 1
9100
 41
1.200000
 7
STANDARD
 0
ENDSEC
 0
EOF
