  0
SECTION
  2
HEADER
  9
$ACADVER
  1
AC1021
  9
$ACADMAINTVER
 70
    25
  9
$DWGCODEPAGE
  3
ANSI_932
  9
$LASTSAVEDBY
  1
nakashinde
  9
$INSBASE
 10
0.0
 20
0.0
 30
0.0
  9
$EXTMIN
 10
5.0
 20
10.0
 30
0.0
  9
$EXTMAX
 10
410.0
 20
287.0
 30
0.0
  9
$LIMMIN
 10
4.998999999999997
 20
9.942766999999998
  9
$LIMMAX
 10
410.123528
 20
287.001
  9
$ORTHOMODE
 70
     1
  9
$REGENMODE
 70
     1
  9
$FILLMODE
 70
     1
  9
$QTEXTMODE
 70
     0
  9
$MIRRTEXT
 70
     0
  9
$LTSCALE
 40
6.752041999999997
  9
$ATTMODE
 70
     1
  9
$TEXTSIZE
 40
3.2
  9
$TRACEWID
 40
0.05
  9
$TEXTSTYLE
  7
高3.2
  9
$CLAYER
  8
0
  9
$CELTYPE
  6
CONTINUOUS
  9
$CECOLOR
 62
   256
  9
$CELTSCALE
 40
1.0
  9
$DISPSILH
 70
     0
  9
$DIMSCALE
 40
1.0
  9
$DIMASZ
 40
2.5
  9
$DIMEXO
 40
0.25
  9
$DIMDLI
 40
0.2
  9
$DIMRND
 40
0.0
  9
$DIMDLE
 40
0.0
  9
$DIMEXE
 40
1.25
  9
$DIMTP
 40
0.0
  9
$DIMTM
 40
0.0
  9
$DIMTXT
 40
3.0
  9
$DIMCEN
 40
0.0
  9
$DIMTSZ
 40
0.0
  9
$DIMTOL
 70
     0
  9
$DIMLIM
 70
     0
  9
$DIMTIH
 70
     0
  9
$DIMTOH
 70
     0
  9
$DIMSE1
 70
     0
  9
$DIMSE2
 70
     0
  9
$DIMTAD
 70
     3
  9
$DIMZIN
 70
     8
  9
$DIMBLK
  1
Open30
  9
$DIMASO
 70
     1
  9
$DIMSHO
 70
     1
  9
$DIMPOST
  1

  9
$DIMAPOST
  1

  9
$DIMALT
 70
     0
  9
$DIMALTD
 70
     3
  9
$DIMALTF
 40
0.03937007874016
  9
$DIMLFAC
 40
1.0
  9
$DIMTOFL
 70
     1
  9
$DIMTVP
 40
0.0
  9
$DIMTIX
 70
     0
  9
$DIMSOXD
 70
     0
  9
$DIMSAH
 70
     0
  9
$DIMBLK1
  1

  9
$DIMBLK2
  1

  9
$DIMSTYLE
  2
FREE
  9
$DIMCLRD
 70
     0
  9
$DIMCLRE
 70
     0
  9
$DIMCLRT
 70
     4
  9
$DIMTFAC
 40
1.0
  9
$DIMGAP
 40
0.625
  9
$DIMJUST
 70
     0
  9
$DIMSD1
 70
     0
  9
$DIMSD2
 70
     0
  9
$DIMTOLJ
 70
     0
  9
$DIMTZIN
 70
     8
  9
$DIMALTZ
 70
     0
  9
$DIMALTTZ
 70
     0
  9
$DIMUPT
 70
     1
  9
$DIMDEC
 70
     2
  9
$DIMTDEC
 70
     2
  9
$DIMALTU
 70
     2
  9
$DIMALTTD
 70
     3
  9
$DIMTXSTY
  7
STANDARD
  9
$DIMAUNIT
 70
     0
  9
$DIMADEC
 70
     1
  9
$DIMALTRND
 40
0.0
  9
$DIMAZIN
 70
     2
  9
$DIMDSEP
 70
    46
  9
$DIMATFIT
 70
     0
  9
$DIMFRAC
 70
     0
  9
$DIMLDRBLK
  1
Open30
  9
$DIMLUNIT
 70
     2
  9
$DIMLWD
 70
    -2
  9
$DIMLWE
 70
    -2
  9
$DIMTMOVE
 70
     0
  9
$DIMFXL
 40
1.0
  9
$DIMFXLON
 70
     0
  9
$DIMJOGANG
 40
0.7853981633974483
  9
$DIMTFILL
 70
     0
  9
$DIMTFILLCLR
 70
     0
  9
$DIMARCSYM
 70
     0
  9
$DIMLTYPE
  6

  9
$DIMLTEX1
  6

  9
$DIMLTEX2
  6

  9
$LUNITS
 70
     2
  9
$LUPREC
 70
     4
  9
$SKETCHINC
 40
0.1
  9
$FILLETRAD
 40
0.0
  9
$AUNITS
 70
     0
  9
$AUPREC
 70
     0
  9
$MENU
  1
.
  9
$ELEVATION
 40
0.0
  9
$PELEVATION
 40
0.0
  9
$THICKNESS
 40
0.0
  9
$LIMCHECK
 70
     0
  9
$CHAMFERA
 40
0.0
  9
$CHAMFERB
 40
0.0
  9
$CHAMFERC
 40
0.0
  9
$CHAMFERD
 40
0.0
  9
$SKPOLY
 70
     0
  9
$TDCREATE
 40
2455894.492834016
  9
$TDUCREATE
 40
2455894.117834016
  9
$TDUPDATE
 40
2458962.616459479
  9
$TDUUPDATE
 40
2458962.241459479
  9
$TDINDWG
 40
0.0191113542
  9
$TDUSRTIMER
 40
0.0191108912
  9
$USRTIMER
 70
     1
  9
$ANGBASE
 50
0.0
  9
$ANGDIR
 70
     0
  9
$PDMODE
 70
     0
  9
$PDSIZE
 40
0.0
  9
$PLINEWID
 40
0.0
  9
$SPLFRAME
 70
     0
  9
$SPLINETYPE
 70
     6
  9
$SPLINESEGS
 70
     8
  9
$HANDSEED
  5
132F
  9
$SURFTAB1
 70
     6
  9
$SURFTAB2
 70
     6
  9
$SURFTYPE
 70
     6
  9
$SURFU
 70
     6
  9
$SURFV
 70
     6
  9
$UCSBASE
  2

  9
$UCSNAME
  2

  9
$UCSORG
 10
0.0
 20
0.0
 30
0.0
  9
$UCSXDIR
 10
1.0
 20
0.0
 30
0.0
  9
$UCSYDIR
 10
0.0
 20
1.0
 30
0.0
  9
$UCSORTHOREF
  2

  9
$UCSORTHOVIEW
 70
     0
  9
$UCSORGTOP
 10
0.0
 20
0.0
 30
0.0
  9
$UCSORGBOTTOM
 10
0.0
 20
0.0
 30
0.0
  9
$UCSORGLEFT
 10
0.0
 20
0.0
 30
0.0
  9
$UCSORGRIGHT
 10
0.0
 20
0.0
 30
0.0
  9
$UCSORGFRONT
 10
0.0
 20
0.0
 30
0.0
  9
$UCSORGBACK
 10
0.0
 20
0.0
 30
0.0
  9
$PUCSBASE
  2

  9
$PUCSNAME
  2

  9
$PUCSORG
 10
0.0
 20
0.0
 30
0.0
  9
$PUCSXDIR
 10
1.0
 20
0.0
 30
0.0
  9
$PUCSYDIR
 10
0.0
 20
1.0
 30
0.0
  9
$PUCSORTHOREF
  2

  9
$PUCSORTHOVIEW
 70
     0
  9
$PUCSORGTOP
 10
0.0
 20
0.0
 30
0.0
  9
$PUCSORGBOTTOM
 10
0.0
 20
0.0
 30
0.0
  9
$PUCSORGLEFT
 10
0.0
 20
0.0
 30
0.0
  9
$PUCSORGRIGHT
 10
0.0
 20
0.0
 30
0.0
  9
$PUCSORGFRONT
 10
0.0
 20
0.0
 30
0.0
  9
$PUCSORGBACK
 10
0.0
 20
0.0
 30
0.0
  9
$USERI1
 70
     0
  9
$USERI2
 70
     0
  9
$USERI3
 70
     0
  9
$USERI4
 70
     0
  9
$USERI5
 70
     0
  9
$USERR1
 40
0.0
  9
$USERR2
 40
0.0
  9
$USERR3
 40
0.0
  9
$USERR4
 40
0.0
  9
$USERR5
 40
0.0
  9
$WORLDVIEW
 70
     1
  9
$SHADEDGE
 70
     3
  9
$SHADEDIF
 70
    70
  9
$TILEMODE
 70
     1
  9
$MAXACTVP
 70
    64
  9
$PINSBASE
 10
0.0
 20
0.0
 30
0.0
  9
$PLIMCHECK
 70
     0
  9
$PEXTMIN
 10
1.000000000000000E+20
 20
1.000000000000000E+20
 30
1.000000000000000E+20
  9
$PEXTMAX
 10
-1.000000000000000E+20
 20
-1.000000000000000E+20
 30
-1.000000000000000E+20
  9
$PLIMMIN
 10
0.0
 20
0.0
  9
$PLIMMAX
 10
12.0
 20
9.0
  9
$UNITMODE
 70
     0
  9
$VISRETAIN
 70
     1
  9
$PLINEGEN
 70
     0
  9
$PSLTSCALE
 70
     1
  9
$TREEDEPTH
 70
  3020
  9
$CMLSTYLE
  2
Standard
  9
$CMLJUST
 70
     0
  9
$CMLSCALE
 40
1.0
  9
$PROXYGRAPHICS
 70
     1
  9
$MEASUREMENT
 70
     0
  9
$CELWEIGHT
370
    -1
  9
$ENDCAPS
280
     0
  9
$JOINSTYLE
280
     0
  9
$LWDISPLAY
290
     0
  9
$INSUNITS
 70
     0
  9
$HYPERLINKBASE
  1

  9
$STYLESHEET
  1

  9
$XEDIT
290
     1
  9
$CEPSNTYPE
380
     0
  9
$PSTYLEMODE
290
     1
  9
$FINGERPRINTGUID
  2
{E1F3939B-889E-4F72-8440-852FAC9A7648}
  9
$VERSIONGUID
  2
{7B03942B-3180-419C-8DD1-23B1AE0B06DE}
  9
$EXTNAMES
290
     1
  9
$PSVPSCALE
 40
0.0
  9
$OLESTARTUP
290
     0
  9
$SORTENTS
280
   127
  9
$INDEXCTL
280
     0
  9
$HIDETEXT
280
     1
  9
$XCLIPFRAME
290
     0
  9
$HALOGAP
280
     0
  9
$OBSCOLOR
 70
   257
  9
$OBSLTYPE
280
     0
  9
$INTERSECTIONDISPLAY
280
     0
  9
$INTERSECTIONCOLOR
 70
   257
  9
$DIMASSOC
280
     1
  9
$PROJECTNAME
  1

  9
$CAMERADISPLAY
290
     0
  9
$LENSLENGTH
 40
50.0
  9
$CAMERAHEIGHT
 40
0.0
  9
$STEPSPERSEC
 40
2.0
  9
$STEPSIZE
 40
6.0
  9
$3DDWFPREC
 40
2.0
  9
$PSOLWIDTH
 40
0.25
  9
$PSOLHEIGHT
 40
4.0
  9
$LOFTANG1
 40
1.570796326794897
  9
$LOFTANG2
 40
1.570796326794897
  9
$LOFTMAG1
 40
0.0
  9
$LOFTMAG2
 40
0.0
  9
$LOFTPARAM
 70
     7
  9
$LOFTNORMALS
280
     1
  9
$LATITUDE
 40
37.795
  9
$LONGITUDE
 40
-122.394
  9
$NORTHDIRECTION
 40
0.0
  9
$TIMEZONE
 70
 -8000
  9
$LIGHTGLYPHDISPLAY
280
     1
  9
$TILEMODELIGHTSYNCH
280
     1
  9
$CMATERIAL
347
11
  9
$SOLIDHIST
280
     1
  9
$SHOWHIST
280
     1
  9
$DWFFRAME
280
     2
  9
$DGNFRAME
280
     0
  9
$REALWORLDSCALE
290
     1
  9
$INTERFERECOLOR
 62
   256
  9
$INTERFEREOBJVS
345
1E
  9
$INTERFEREVPVS
346
519
  9
$CSHADOW
280
     0
  9
$SHADOWPLANELOCATION
 40
0.0
  0
ENDSEC
  0
SECTION
  2
CLASSES
  0
CLASS
  1
ACDBDICTIONARYWDFLT
  2
AcDbDictionaryWithDefault
  3
ObjectDBX Classes
 90
        0
 91
        4
280
     0
281
     0
  0
CLASS
  1
MATERIAL
  2
AcDbMaterial
  3
ObjectDBX Classes
 90
     1153
 91
        4
280
     0
281
     0
  0
CLASS
  1
VISUALSTYLE
  2
AcDbVisualStyle
  3
ObjectDBX Classes
 90
     4095
 91
        4
280
     0
281
     0
  0
CLASS
  1
TABLESTYLE
  2
AcDbTableStyle
  3
ObjectDBX Classes
 90
     4095
 91
        4
280
     0
281
     0
  0
CLASS
  1
SORTENTSTABLE
  2
AcDbSortentsTable
  3
ObjectDBX Classes
 90
        0
 91
        4
280
     0
281
     0
  0
CLASS
  1
DICTIONARYVAR
  2
AcDbDictionaryVar
  3
ObjectDBX Classes
 90
        0
 91
        4
280
     0
281
     0
  0
CLASS
  1
ACDBPLACEHOLDER
  2
AcDbPlaceHolder
  3
ObjectDBX Classes
 90
        0
 91
        1
280
     0
281
     0
  0
CLASS
  1
LAYOUT
  2
AcDbLayout
  3
ObjectDBX Classes
 90
        0
 91
        1
280
     0
281
     0
  0
CLASS
  1
SCALE
  2
AcDbScale
  3
ObjectDBX Classes
 90
     1153
 91
        4
280
     0
281
     0
  0
CLASS
  1
MLEADERSTYLE
  2
AcDbMLeaderStyle
  3
ACDB_MLEADERSTYLE_CLASS
 90
     4095
 91
        4
280
     0
281
     0
  0
CLASS
  1
CELLSTYLEMAP
  2
AcDbCellStyleMap
  3
ObjectDBX Classes
 90
     1152
 91
        4
280
     0
281
     0
  0
ENDSEC
  0
SECTION
  2
TABLES
  0
TABLE
  2
VPORT
  5
8
330
0
100
AcDbSymbolTable
 70
     1
  0
VPORT
  5
56
330
8
100
AcDbSymbolTableRecord
100
AcDbViewportTableRecord
  2
*Active
 70
     0
 10
0.0
 20
0.0
 11
1.0
 21
1.0
 12
207.4999999999999
 22
148.5
 13
0.0
 23
0.0
 14
1.0
 24
1.0
 15
0.0
 25
0.0
 16
0.0
 26
0.0
 36
1.0
 17
0.0
 27
0.0
 37
0.0
 40
280.1566951566952
 41
1.756338028169014
 42
50.0
 43
0.0
 44
0.0
 50
0.0
 51
0.0
 71
     0
 72
   100
 73
     1
 74
     1
 75
     0
 76
     0
 77
     0
 78
     0
281
     0
 65
     1
110
0.0
120
0.0
130
0.0
111
1.0
121
0.0
131
0.0
112
0.0
122
1.0
132
0.0
 79
     0
146
0.0
348
1A
 60
     3
 61
     5
292
     1
282
     1
141
0.0
142
0.0
 63
   250
  0
ENDTAB
  0
TABLE
  2
LTYPE
  5
5
330
0
100
AcDbSymbolTable
 70
     2
  0
LTYPE
  5
28
330
5
100
AcDbSymbolTableRecord
100
AcDbLinetypeTableRecord
  2
ByBlock
 70
     0
  3

 72
    65
 73
     0
 40
0.0
  0
LTYPE
  5
29
330
5
100
AcDbSymbolTableRecord
100
AcDbLinetypeTableRecord
  2
ByLayer
 70
     0
  3

 72
    65
 73
     0
 40
0.0
  0
LTYPE
  5
2A
330
5
100
AcDbSymbolTableRecord
100
AcDbLinetypeTableRecord
  2
CONTINUOUS
 70
     0
  3
Solid-line
 72
    65
 73
     0
 40
0.0
  0
LTYPE
  5
3D
330
5
100
AcDbSymbolTableRecord
100
AcDbLinetypeTableRecord
  2
CENTER
 70
     0
  3
CENTER
 72
    65
 73
     4
 40
2.0
 49
1.25
 74
     0
 49
-0.25
 74
     0
 49
0.25
 74
     0
 49
-0.25
 74
     0
  0
ENDTAB
  0
TABLE
  2
LAYER
  5
2
102
{ACAD_XDICTIONARY
360
4AE
102
}
330
0
100
AcDbSymbolTable
 70
     2
  0
LAYER
  5
25
102
{ACAD_XDICTIONARY
360
EA3
102
}
330
2
100
AcDbSymbolTableRecord
100
AcDbLayerTableRecord
  2
0
 70
     0
 62
     7
  6
CONTINUOUS
370
    -3
390
F
347
13
  0
LAYER
  5
5C3
330
2
100
AcDbSymbolTableRecord
100
AcDbLayerTableRecord
  2
Defpoints
 70
     0
 62
     7
  6
CONTINUOUS
290
     0
370
    -3
390
F
347
13
  0
ENDTAB
  0
TABLE
  2
STYLE
  5
3
330
0
100
AcDbSymbolTable
 70
     6
  0
STYLE
  5
26
330
3
100
AcDbSymbolTableRecord
100
AcDbTextStyleTableRecord
  2
STANDARD
 70
     0
 40
0.0
 41
1.0
 50
0.0
 71
     0
 42
0.2
  3
TXT
  4
BIGFONT
  0
STYLE
  5
4A2
330
3
100
AcDbSymbolTableRecord
100
AcDbTextStyleTableRecord
  2
高2.5
 70
     0
 40
2.5
 41
1.0
 50
0.0
 71
     0
 42
2.5
  3
txt.shx
  4
extfont2.shx
  0
STYLE
  5
4A3
330
3
100
AcDbSymbolTableRecord
100
AcDbTextStyleTableRecord
  2
高2
 70
     0
 40
2.0
 41
1.0
 50
0.0
 71
     0
 42
6.299999999999998
  3
txt.shx
  4
bigfont.shx
  0
STYLE
  5
5C4
330
3
100
AcDbSymbolTableRecord
100
AcDbTextStyleTableRecord
  2
高3.2
 70
     0
 40
3.2
 41
1.0
 50
0.0
 71
     0
 42
3.2
  3
txt.shx
  4
bigfont.shx
  0
STYLE
  5
5C5
330
3
100
AcDbSymbolTableRecord
100
AcDbTextStyleTableRecord
  2
高6.3
 70
     0
 40
6.299999999999998
 41
1.0
 50
0.0
 71
     0
 42
6.299999999999998
  3
txt.shx
  4
bigfont.shx
  0
STYLE
  5
5C6
330
3
100
AcDbSymbolTableRecord
100
AcDbTextStyleTableRecord
  2
高4.5
 70
     0
 40
4.5
 41
1.0
 50
0.0
 71
     0
 42
6.299999999999998
  3
txt.shx
  4
bigfont.shx
  0
ENDTAB
  0
TABLE
  2
VIEW
  5
6
330
0
100
AcDbSymbolTable
 70
     0
  0
ENDTAB
  0
TABLE
  2
UCS
  5
7
330
0
100
AcDbSymbolTable
 70
     0
  0
ENDTAB
  0
TABLE
  2
APPID
  5
9
330
0
100
AcDbSymbolTable
 70
    10
  0
APPID
  5
27
330
9
100
AcDbSymbolTableRecord
100
AcDbRegAppTableRecord
  2
ACAD
 70
     0
  0
APPID
  5
4A9
330
9
100
AcDbSymbolTableRecord
100
AcDbRegAppTableRecord
  2
ACAD_DSTYLE_DIMJOGGED_JOGANGLE_SYMBOL
 70
     0
  0
APPID
  5
4AA
330
9
100
AcDbSymbolTableRecord
100
AcDbRegAppTableRecord
  2
ACAD_DSTYLE_DIMJAG
 70
     0
  0
APPID
  5
4AB
330
9
100
AcDbSymbolTableRecord
100
AcDbRegAppTableRecord
  2
ACAD_DSTYLE_DIMBREAK
 70
     0
  0
APPID
  5
4AC
330
9
100
AcDbSymbolTableRecord
100
AcDbRegAppTableRecord
  2
ACAD_DSTYLE_DIMTALN
 70
     0
  0
APPID
  5
4AD
330
9
100
AcDbSymbolTableRecord
100
AcDbRegAppTableRecord
  2
ACAD_PSEXT
 70
     0
  0
APPID
  5
513
330
9
100
AcDbSymbolTableRecord
100
AcDbRegAppTableRecord
  2
ACAD_DSTYLE_DIMARC_LENGTH_SYMBOL
 70
     0
  0
APPID
  5
514
330
9
100
AcDbSymbolTableRecord
100
AcDbRegAppTableRecord
  2
ACAD_DSTYLE_DIMEXT_LENGTH
 70
     0
  0
APPID
  5
E41
330
9
100
AcDbSymbolTableRecord
100
AcDbRegAppTableRecord
  2
ACAD_EXEMPT_FROM_CAD_STANDARDS
 70
     0
  0
APPID
  5
EEB
330
9
100
AcDbSymbolTableRecord
100
AcDbRegAppTableRecord
  2
ACAD_MLEADERVER
 70
     0
  0
ENDTAB
  0
TABLE
  2
DIMSTYLE
  5
A
330
0
100
AcDbSymbolTable
 70
    11
100
AcDbDimStyleTable
  0
DIMSTYLE
105
49A
330
A
100
AcDbSymbolTableRecord
100
AcDbDimStyleTableRecord
  2
Standard
 70
     0
178
     0
340
26
  0
DIMSTYLE
105
4A4
330
A
100
AcDbSymbolTableRecord
100
AcDbDimStyleTableRecord
  2
1：1
 70
     0
 41
2.5
 42
0.25
 43
0.2
 44
1.25
 49
1.25
 50
89.99999999999996
 90
        2
 73
     0
 74
     0
 77
     3
 78
     8
 79
     2
140
3.0
141
0.0
143
0.03937007874016
147
0.625
171
     3
172
     1
271
     2
178
     4
179
     1
271
     2
272
     2
274
     3
283
     0
284
     8
288
     1
289
     0
340
26
341
49C
342
49C
  0
DIMSTYLE
105
4A5
330
A
100
AcDbSymbolTableRecord
100
AcDbDimStyleTableRecord
  2
1／5
 70
     0
 41
2.5
 42
0.25
 43
0.2
 44
1.25
 49
1.25
 50
89.99999999999996
 90
        2
 73
     0
 74
     0
 77
     3
 78
     8
 79
     2
140
3.0
141
0.0
143
0.03937007874016
144
5.0
147
0.625
171
     3
172
     1
271
     2
178
     4
179
     1
271
     2
272
     2
274
     3
283
     0
284
     8
288
     1
289
     0
340
26
341
49C
342
49C
  0
DIMSTYLE
105
4A6
330
A
100
AcDbSymbolTableRecord
100
AcDbDimStyleTableRecord
  2
1／4
 70
     0
 41
2.5
 42
0.25
 43
0.2
 44
1.25
 49
1.25
 50
89.99999999999996
 90
        2
 73
     0
 74
     0
 77
     3
 78
     8
 79
     2
140
3.0
141
0.0
143
0.03937007874016
144
4.0
147
0.625
171
     3
172
     1
271
     2
178
     4
179
     1
271
     2
272
     2
274
     3
283
     0
284
     8
288
     1
289
     0
340
26
341
49C
342
49C
  0
DIMSTYLE
105
4A7
330
A
100
AcDbSymbolTableRecord
100
AcDbDimStyleTableRecord
  2
1／3
 70
     0
 41
2.5
 42
0.25
 43
0.2
 44
1.25
 49
1.25
 50
89.99999999999996
 90
        2
 73
     0
 74
     0
 77
     3
 78
     8
 79
     2
140
3.0
141
0.0
143
0.03937007874016
144
3.0
147
0.625
171
     3
172
     1
271
     2
178
     4
179
     1
271
     2
272
     2
274
     3
283
     0
284
     8
288
     1
289
     0
340
26
341
49C
342
49C
  0
DIMSTYLE
105
4A8
102
{ACAD_REACTORS
330
B8
330
B9
330
B5
330
B4
330
B3
330
B7
330
B6
102
}
330
A
100
AcDbSymbolTableRecord
100
AcDbDimStyleTableRecord
  2
FREE
 70
     0
 41
2.5
 42
0.25
 43
0.2
 44
1.25
 49
1.25
 50
89.99999999999996
 90
        2
 73
     0
 74
     0
 77
     3
 78
     8
 79
     2
140
3.0
141
0.0
143
0.03937007874016
147
0.625
171
     3
172
     1
271
     2
178
     4
179
     1
271
     2
272
     2
274
     3
283
     0
284
     8
288
     1
289
     0
340
26
341
49C
342
49C
1001
ACAD_DSTYLE_DIMBREAK
1070
   391
1040
3.75
1001
ACAD_DSTYLE_DIMJAG
1070
   388
1040
1.5
1001
ACAD_DSTYLE_DIMTALN
1070
   392
1070
     0
  0
DIMSTYLE
105
5C7
330
A
100
AcDbSymbolTableRecord
100
AcDbDimStyleTableRecord
  2
2：1
 70
     0
 41
2.5
 42
0.25
 43
0.2
 44
1.25
 49
1.25
 50
89.99999999999996
 90
        2
 73
     0
 74
     0
 77
     3
 78
     8
 79
     2
140
3.0
141
0.0
143
0.03937007874016
144
0.5
147
0.625
171
     3
172
     1
271
     2
178
     4
179
     1
271
     2
272
     2
274
     3
283
     0
284
     8
288
     1
289
     0
340
26
341
49C
342
49C
  0
DIMSTYLE
105
5C8
330
A
100
AcDbSymbolTableRecord
100
AcDbDimStyleTableRecord
  2
5：1
 70
     0
 41
2.5
 42
0.25
 43
0.2
 44
1.25
 49
1.25
 50
89.99999999999996
 90
        2
 73
     0
 74
     0
 77
     3
 78
     8
 79
     2
140
3.0
141
0.0
143
0.03937007874016
144
0.2
147
0.625
171
     3
172
     1
271
     2
178
     4
179
     1
271
     2
272
     2
274
     3
283
     0
284
     8
288
     1
289
     0
340
26
341
49C
342
49C
  0
DIMSTYLE
105
5C9
330
A
100
AcDbSymbolTableRecord
100
AcDbDimStyleTableRecord
  2
10：1
 70
     0
 41
2.5
 42
0.25
 43
0.2
 44
1.25
 49
1.25
 50
89.99999999999996
 90
        2
 73
     0
 74
     0
 77
     3
 78
     8
 79
     2
140
3.0
141
0.0
143
0.03937007874016
144
0.1
147
0.625
171
     3
172
     1
271
     2
178
     4
179
     1
271
     2
272
     2
274
     3
283
     0
284
     8
288
     1
289
     0
340
26
341
49C
342
49C
  0
DIMSTYLE
105
5CA
330
A
100
AcDbSymbolTableRecord
100
AcDbDimStyleTableRecord
  2
1／2
 70
     0
 41
2.5
 42
0.25
 43
0.2
 44
1.25
 49
1.25
 50
89.99999999999996
 90
        2
 73
     0
 74
     0
 77
     3
 78
     8
 79
     2
140
3.0
141
0.0
143
0.03937007874016
144
2.0
147
0.625
171
     3
172
     1
271
     2
178
     4
179
     1
271
     2
272
     2
274
     3
283
     0
284
     8
288
     1
289
     0
340
26
341
49C
342
49C
  0
DIMSTYLE
105
5CB
330
A
100
AcDbSymbolTableRecord
100
AcDbDimStyleTableRecord
  2
1／10
 70
     0
 41
2.5
 42
0.25
 43
0.2
 44
1.25
 49
1.25
 50
89.99999999999996
 90
        2
 73
     0
 74
     0
 77
     3
 78
     8
 79
     2
140
3.0
141
0.0
143
0.03937007874016
144
10.0
147
0.625
171
     3
172
     1
271
     2
178
     4
179
     1
271
     2
272
     2
274
     3
283
     0
284
     8
288
     1
289
     0
340
26
341
49C
342
49C
  0
ENDTAB
  0
TABLE
  2
BLOCK_RECORD
  5
1
330
0
100
AcDbSymbolTable
 70
    19
  0
BLOCK_RECORD
  5
36
102
{ACAD_XDICTIONARY
360
12EC
102
}
330
1
100
AcDbSymbolTableRecord
100
AcDbBlockTableRecord
  2
*Model_Space
340
39
 70
     0
280
     1
281
     0
  0
BLOCK_RECORD
  5
32
330
1
100
AcDbSymbolTableRecord
100
AcDbBlockTableRecord
  2
*Paper_Space
340
35
 70
     0
280
     1
281
     0
  0
BLOCK_RECORD
  5
49C
330
1
100
AcDbSymbolTableRecord
100
AcDbBlockTableRecord
  2
_Open30
340
0
102
{BLKREFS
331
120B
331
120C
331
1214
331
1215
331
121D
331
121E
331
1226
331
1227
331
122F
331
1230
331
1238
331
1239
331
1241
331
1242
331
1094
331
1095
331
109F
331
10A0
331
10AA
331
10AB
331
10B5
331
10B6
331
10C0
331
10C1
331
10CB
331
10CC
331
10D6
331
10D7
331
10E1
331
10E2
331
10EC
331
10ED
331
10F5
331
10F6
331
120B
331
120C
331
1214
331
1215
331
121D
331
121E
331
1226
331
1227
331
122F
331
1230
331
1238
331
1239
331
1241
331
1242
331
1094
331
1095
331
109F
331
10A0
331
10AA
331
10AB
331
10B5
331
10B6
331
10C0
331
10C1
331
10CB
331
10CC
331
10D6
331
10D7
331
10E1
331
10E2
331
10EC
331
10ED
331
10F5
331
10F6
102
}
 70
     0
280
     1
281
     0
  0
BLOCK_RECORD
  5
E4F
330
1
100
AcDbSymbolTableRecord
100
AcDbBlockTableRecord
  2
*D1
340
0
 70
     0
280
     1
281
     0
  0
BLOCK_RECORD
  5
E5B
330
1
100
AcDbSymbolTableRecord
100
AcDbBlockTableRecord
  2
*D2
340
0
 70
     0
280
     1
281
     0
  0
BLOCK_RECORD
  5
E67
330
1
100
AcDbSymbolTableRecord
100
AcDbBlockTableRecord
  2
*D3
340
0
 70
     0
280
     1
281
     0
  0
BLOCK_RECORD
  5
E73
330
1
100
AcDbSymbolTableRecord
100
AcDbBlockTableRecord
  2
*D4
340
0
 70
     0
280
     1
281
     0
  0
BLOCK_RECORD
  5
E7F
330
1
100
AcDbSymbolTableRecord
100
AcDbBlockTableRecord
  2
*D5
340
0
 70
     0
280
     1
281
     0
  0
BLOCK_RECORD
  5
E8B
330
1
100
AcDbSymbolTableRecord
100
AcDbBlockTableRecord
  2
*D6
340
0
 70
     0
280
     1
281
     0
  0
BLOCK_RECORD
  5
E97
330
1
100
AcDbSymbolTableRecord
100
AcDbBlockTableRecord
  2
*D7
340
0
 70
     0
280
     1
281
     0
  0
BLOCK_RECORD
  5
1005
330
1
100
AcDbSymbolTableRecord
100
AcDbBlockTableRecord
  2
*D8
340
0
 70
     0
280
     1
281
     0
  0
BLOCK_RECORD
  5
1013
330
1
100
AcDbSymbolTableRecord
100
AcDbBlockTableRecord
  2
*D9
340
0
 70
     0
280
     1
281
     0
  0
BLOCK_RECORD
  5
1021
330
1
100
AcDbSymbolTableRecord
100
AcDbBlockTableRecord
  2
*D10
340
0
 70
     0
280
     1
281
     0
  0
BLOCK_RECORD
  5
102F
330
1
100
AcDbSymbolTableRecord
100
AcDbBlockTableRecord
  2
*D11
340
0
 70
     0
280
     1
281
     0
  0
BLOCK_RECORD
  5
103D
330
1
100
AcDbSymbolTableRecord
100
AcDbBlockTableRecord
  2
*D12
340
0
 70
     0
280
     1
281
     0
  0
BLOCK_RECORD
  5
104B
330
1
100
AcDbSymbolTableRecord
100
AcDbBlockTableRecord
  2
*D13
340
0
 70
     0
280
     1
281
     0
  0
BLOCK_RECORD
  5
1059
330
1
100
AcDbSymbolTableRecord
100
AcDbBlockTableRecord
  2
*D14
340
0
 70
     0
280
     1
281
     0
  0
BLOCK_RECORD
  5
1067
330
1
100
AcDbSymbolTableRecord
100
AcDbBlockTableRecord
  2
*D15
340
0
 70
     0
280
     1
281
     0
  0
BLOCK_RECORD
  5
1075
330
1
100
AcDbSymbolTableRecord
100
AcDbBlockTableRecord
  2
*D16
340
0
 70
     0
280
     1
281
     0
  0
BLOCK_RECORD
  5
1083
330
1
100
AcDbSymbolTableRecord
100
AcDbBlockTableRecord
  2
*D17
340
0
 70
     0
280
     1
281
     0
  0
ENDTAB
  0
ENDSEC
  0
SECTION
  2
BLOCKS
  0
BLOCK
  5
37
330
36
100
AcDbEntity
  8
0
100
AcDbBlockBegin
  2
*Model_Space
 70
     0
 10
0.0
 20
0.0
 30
0.0
  3
*Model_Space
  1

  0
ENDBLK
  5
38
330
36
100
AcDbEntity
  8
0
100
AcDbBlockEnd
  0
BLOCK
  5
33
330
32
100
AcDbEntity
 67
     1
  8
0
100
AcDbBlockBegin
  2
*Paper_Space
 70
     0
 10
0.0
 20
0.0
 30
0.0
  3
*Paper_Space
  1

  0
ENDBLK
  5
34
330
32
100
AcDbEntity
 67
     1
  8
0
100
AcDbBlockEnd
  0
BLOCK
  5
49D
330
49C
100
AcDbEntity
  8
0
100
AcDbBlockBegin
  2
_Open30
 70
     0
 10
0.0
 20
0.0
 30
0.0
  3
_Open30
  1

  0
LINE
  5
49E
330
49C
100
AcDbEntity
  8
0
  6
ByBlock
 62
     0
370
    -2
100
AcDbLine
 10
-1.0
 20
0.267949
 30
0.0
 11
0.0
 21
0.0
 31
0.0
  0
LINE
  5
49F
330
49C
100
AcDbEntity
  8
0
  6
ByBlock
 62
     0
370
    -2
100
AcDbLine
 10
0.0
 20
0.0
 30
0.0
 11
-1.0
 21
-0.267949
 31
0.0
  0
LINE
  5
4A0
330
49C
100
AcDbEntity
  8
0
  6
ByBlock
 62
     0
370
    -2
100
AcDbLine
 10
0.0
 20
0.0
 30
0.0
 11
-1.0
 21
0.0
 31
0.0
  0
ENDBLK
  5
4A1
330
49C
100
AcDbEntity
  8
0
100
AcDbBlockEnd
  0
BLOCK
  5
E50
330
E4F
100
AcDbEntity
  8
0
100
AcDbBlockBegin
  2
*D1
 70
     1
 10
0.0
 20
0.0
 30
0.0
  3
*D1
  1

  0
LINE
  5
1208
330
E4F
100
AcDbEntity
  8
0
 62
     0
370
    -2
100
AcDbLine
 10
252.710373
 20
152.101089
 30
0.0
 11
252.710373
 21
131.799035
 31
0.0
  0
LINE
  5
1209
330
E4F
100
AcDbEntity
  8
0
 62
     0
370
    -2
100
AcDbLine
 10
302.705373
 20
160.337765
 30
0.0
 11
302.705373
 21
131.799035
 31
0.0
  0
LINE
  5
120A
330
E4F
100
AcDbEntity
  8
0
 62
     0
370
    -2
100
AcDbLine
 10
255.210373
 20
133.049035
 30
0.0
 11
300.205373
 21
133.049035
 31
0.0
  0
INSERT
  5
120B
330
E4F
100
AcDbEntity
  8
0
 62
     0
370
    -2
100
AcDbBlockReference
  2
_Open30
 10
252.710373
 20
133.049035
 30
0.0
 41
2.5
 42
2.5
 43
2.5
 50
180.0
  0
INSERT
  5
120C
330
E4F
100
AcDbEntity
  8
0
 62
     0
370
    -2
100
AcDbBlockReference
  2
_Open30
 10
302.705373
 20
133.049035
 30
0.0
 41
2.5
 42
2.5
 43
2.5
  0
MTEXT
  5
120D
330
E4F
100
AcDbEntity
  8
0
 62
     4
100
AcDbMText
 10
277.707873
 20
135.174035
 30
0.0
 40
3.0
 41
0.0
 46
0.0
 71
     5
 72
     1
  1
201
 73
     1
 44
1.0
  0
POINT
  5
120E
330
E4F
100
AcDbEntity
  8
Defpoints
 62
     0
100
AcDbPoint
 10
252.710373
 20
152.351089
 30
0.0
  0
POINT
  5
120F
330
E4F
100
AcDbEntity
  8
Defpoints
 62
     0
100
AcDbPoint
 10
302.705373
 20
160.587765
 30
0.0
  0
POINT
  5
1210
330
E4F
100
AcDbEntity
  8
Defpoints
 62
     0
100
AcDbPoint
 10
302.705373
 20
133.049035
 30
0.0
  0
ENDBLK
  5
E51
330
E4F
100
AcDbEntity
  8
0
100
AcDbBlockEnd
  0
BLOCK
  5
E5C
330
E5B
100
AcDbEntity
  8
0
100
AcDbBlockBegin
  2
*D2
 70
     1
 10
0.0
 20
0.0
 30
0.0
  3
*D2
  1

  0
LINE
  5
1211
330
E5B
100
AcDbEntity
  8
0
 62
     0
370
    -2
100
AcDbLine
 10
263.773946
 20
170.136785
 30
0.0
 11
263.773946
 21
139.855618
 31
0.0
  0
LINE
  5
1212
330
E5B
100
AcDbEntity
  8
0
 62
     0
370
    -2
100
AcDbLine
 10
293.770946
 20
170.136785
 30
0.0
 11
293.770946
 21
139.855618
 31
0.0
  0
LINE
  5
1213
330
E5B
100
AcDbEntity
  8
0
 62
     0
370
    -2
100
AcDbLine
 10
266.273946
 20
141.105618
 30
0.0
 11
291.270946
 21
141.105618
 31
0.0
  0
INSERT
  5
1214
330
E5B
100
AcDbEntity
  8
0
 62
     0
370
    -2
100
AcDbBlockReference
  2
_Open30
 10
263.773946
 20
141.105618
 30
0.0
 41
2.5
 42
2.5
 43
2.5
 50
180.0
  0
INSERT
  5
1215
330
E5B
100
AcDbEntity
  8
0
 62
     0
370
    -2
100
AcDbBlockReference
  2
_Open30
 10
293.770946
 20
141.105618
 30
0.0
 41
2.5
 42
2.5
 43
2.5
  0
MTEXT
  5
1216
330
E5B
100
AcDbEntity
  8
0
 62
     4
100
AcDbMText
 10
278.772446
 20
143.230618
 30
0.0
 40
3.0
 41
0.0
 46
0.0
 71
     5
 72
     1
  1
120
 73
     1
 44
1.0
  0
POINT
  5
1217
330
E5B
100
AcDbEntity
  8
Defpoints
 62
     0
100
AcDbPoint
 10
263.773946
 20
170.386785
 30
0.0
  0
POINT
  5
1218
330
E5B
100
AcDbEntity
  8
Defpoints
 62
     0
100
AcDbPoint
 10
293.770946
 20
170.386785
 30
0.0
  0
POINT
  5
1219
330
E5B
100
AcDbEntity
  8
Defpoints
 62
     0
100
AcDbPoint
 10
293.770946
 20
141.105618
 30
0.0
  0
ENDBLK
  5
E5D
330
E5B
100
AcDbEntity
  8
0
100
AcDbBlockEnd
  0
BLOCK
  5
E68
330
E67
100
AcDbEntity
  8
0
100
AcDbBlockBegin
  2
*D3
 70
     1
 10
0.0
 20
0.0
 30
0.0
  3
*D3
  1

  0
LINE
  5
121A
330
E67
100
AcDbEntity
  8
0
 62
     0
370
    -2
100
AcDbLine
 10
263.560991
 20
170.386785
 30
0.0
 11
246.904601
 21
170.386785
 31
0.0
  0
LINE
  5
121B
330
E67
100
AcDbEntity
  8
0
 62
     0
370
    -2
100
AcDbLine
 10
263.560991
 20
205.33329
 30
0.0
 11
246.904601
 21
205.33329
 31
0.0
  0
LINE
  5
121C
330
E67
100
AcDbEntity
  8
0
 62
     0
370
    -2
100
AcDbLine
 10
248.154601
 20
172.886785
 30
0.0
 11
248.154601
 21
202.83329
 31
0.0
  0
INSERT
  5
121D
330
E67
100
AcDbEntity
  8
0
 62
     0
370
    -2
100
AcDbBlockReference
  2
_Open30
 10
248.154601
 20
170.386785
 30
0.0
 41
2.5
 42
2.5
 43
2.5
 50
270.0
  0
INSERT
  5
121E
330
E67
100
AcDbEntity
  8
0
 62
     0
370
    -2
100
AcDbBlockReference
  2
_Open30
 10
248.154601
 20
205.33329
 30
0.0
 41
2.5
 42
2.5
 43
2.5
 50
90.0
  0
MTEXT
  5
121F
330
E67
100
AcDbEntity
  8
0
 62
     4
100
AcDbMText
 10
246.0296009999999
 20
187.8600375
 30
0.0
 40
3.0
 41
0.0
 46
0.0
 71
     5
 72
     1
  1
%%C135
 11
1.000000000000000E-16
 21
1.0
 31
0.0
 73
     1
 44
1.0
  0
POINT
  5
1220
330
E67
100
AcDbEntity
  8
Defpoints
 62
     0
100
AcDbPoint
 10
263.810991
 20
170.386785
 30
0.0
  0
POINT
  5
1221
330
E67
100
AcDbEntity
  8
Defpoints
 62
     0
100
AcDbPoint
 10
263.810991
 20
205.33329
 30
0.0
  0
POINT
  5
1222
330
E67
100
AcDbEntity
  8
Defpoints
 62
     0
100
AcDbPoint
 10
248.154601
 20
205.33329
 30
0.0
  0
ENDBLK
  5
E69
330
E67
100
AcDbEntity
  8
0
100
AcDbBlockEnd
  0
BLOCK
  5
E74
330
E73
100
AcDbEntity
  8
0
100
AcDbBlockBegin
  2
*D4
 70
     1
 10
0.0
 20
0.0
 30
0.0
  3
*D4
  1

  0
LINE
  5
1223
330
E73
100
AcDbEntity
  8
0
 62
     0
370
    -2
100
AcDbLine
 10
261.829482
 20
156.613163
 30
0.0
 11
235.987868
 21
156.613163
 31
0.0
  0
LINE
  5
1224
330
E73
100
AcDbEntity
  8
0
 62
     0
370
    -2
100
AcDbLine
 10
261.829482
 20
219.106913
 30
0.0
 11
235.987868
 21
219.106913
 31
0.0
  0
LINE
  5
1225
330
E73
100
AcDbEntity
  8
0
 62
     0
370
    -2
100
AcDbLine
 10
237.237868
 20
159.113163
 30
0.0
 11
237.237868
 21
216.606913
 31
0.0
  0
INSERT
  5
1226
330
E73
100
AcDbEntity
  8
0
 62
     0
370
    -2
100
AcDbBlockReference
  2
_Open30
 10
237.237868
 20
156.613163
 30
0.0
 41
2.5
 42
2.5
 43
2.5
 50
270.0
  0
INSERT
  5
1227
330
E73
100
AcDbEntity
  8
0
 62
     0
370
    -2
100
AcDbBlockReference
  2
_Open30
 10
237.237868
 20
219.106913
 30
0.0
 41
2.5
 42
2.5
 43
2.5
 50
90.0
  0
MTEXT
  5
1228
330
E73
100
AcDbEntity
  8
0
 62
     4
100
AcDbMText
 10
235.1128679999999
 20
187.860038
 30
0.0
 40
3.0
 41
0.0
 46
0.0
 71
     5
 72
     1
  1
%%C250
 11
1.000000000000000E-16
 21
1.0
 31
0.0
 73
     1
 44
1.0
  0
POINT
  5
1229
330
E73
100
AcDbEntity
  8
Defpoints
 62
     0
100
AcDbPoint
 10
262.079482
 20
156.613163
 30
0.0
  0
POINT
  5
122A
330
E73
100
AcDbEntity
  8
Defpoints
 62
     0
100
AcDbPoint
 10
262.079482
 20
219.106913
 30
0.0
  0
POINT
  5
122B
330
E73
100
AcDbEntity
  8
Defpoints
 62
     0
100
AcDbPoint
 10
237.237868
 20
219.106913
 30
0.0
  0
ENDBLK
  5
E75
330
E73
100
AcDbEntity
  8
0
100
AcDbBlockEnd
  0
BLOCK
  5
E80
330
E7F
100
AcDbEntity
  8
0
100
AcDbBlockBegin
  2
*D5
 70
     1
 10
0.0
 20
0.0
 30
0.0
  3
*D5
  1

  0
LINE
  5
122C
330
E7F
100
AcDbEntity
  8
0
 62
     0
370
    -2
100
AcDbLine
 10
191.044389
 20
149.991818
 30
0.0
 11
220.815572
 21
149.9918179999999
 31
0.0
  0
LINE
  5
122D
330
E7F
100
AcDbEntity
  8
0
 62
     0
370
    -2
100
AcDbLine
 10
165.551448
 20
228.243166
 30
0.0
 11
220.815572
 21
228.243166
 31
0.0
  0
LINE
  5
122E
330
E7F
100
AcDbEntity
  8
0
 62
     0
370
    -2
100
AcDbLine
 10
219.565572
 20
152.491818
 30
0.0
 11
219.565572
 21
225.743166
 31
0.0
  0
INSERT
  5
122F
330
E7F
100
AcDbEntity
  8
0
 62
     0
370
    -2
100
AcDbBlockReference
  2
_Open30
 10
219.565572
 20
149.9918179999999
 30
0.0
 41
2.5
 42
2.5
 43
2.5
 50
270.0
  0
INSERT
  5
1230
330
E7F
100
AcDbEntity
  8
0
 62
     0
370
    -2
100
AcDbBlockReference
  2
_Open30
 10
219.565572
 20
228.243166
 30
0.0
 41
2.5
 42
2.5
 43
2.5
 50
90.0
  0
MTEXT
  5
1231
330
E7F
100
AcDbEntity
  8
0
 62
     4
100
AcDbMText
 10
217.440572
 20
189.117492
 30
0.0
 40
3.0
 41
0.0
 46
0.0
 71
     5
 72
     1
  1
316
 11
1.000000000000000E-16
 21
1.0
 31
0.0
 73
     1
 44
1.0
  0
POINT
  5
1232
330
E7F
100
AcDbEntity
  8
Defpoints
 62
     0
100
AcDbPoint
 10
190.794389
 20
149.991818
 30
0.0
  0
POINT
  5
1233
330
E7F
100
AcDbEntity
  8
Defpoints
 62
     0
100
AcDbPoint
 10
165.301448
 20
228.243166
 30
0.0
  0
POINT
  5
1234
330
E7F
100
AcDbEntity
  8
Defpoints
 62
     0
100
AcDbPoint
 10
219.565572
 20
228.243166
 30
0.0
  0
ENDBLK
  5
E81
330
E7F
100
AcDbEntity
  8
0
100
AcDbBlockEnd
  0
BLOCK
  5
E8C
330
E8B
100
AcDbEntity
  8
0
100
AcDbBlockBegin
  2
*D6
 70
     1
 10
0.0
 20
0.0
 30
0.0
  3
*D6
  1

  0
LINE
  5
1235
330
E8B
100
AcDbEntity
  8
0
 62
     0
370
    -2
100
AcDbLine
 10
191.044389
 20
149.991818
 30
0.0
 11
209.222547
 21
149.9918179999999
 31
0.0
  0
LINE
  5
1236
330
E8B
100
AcDbEntity
  8
0
 62
     0
370
    -2
100
AcDbLine
 10
199.387244
 20
187.859704
 30
0.0
 11
209.222547
 21
187.859704
 31
0.0
  0
LINE
  5
1237
330
E8B
100
AcDbEntity
  8
0
 62
     0
370
    -2
100
AcDbLine
 10
207.972547
 20
152.491818
 30
0.0
 11
207.972547
 21
185.359704
 31
0.0
  0
INSERT
  5
1238
330
E8B
100
AcDbEntity
  8
0
 62
     0
370
    -2
100
AcDbBlockReference
  2
_Open30
 10
207.972547
 20
149.9918179999999
 30
0.0
 41
2.5
 42
2.5
 43
2.5
 50
270.0
  0
INSERT
  5
1239
330
E8B
100
AcDbEntity
  8
0
 62
     0
370
    -2
100
AcDbBlockReference
  2
_Open30
 10
207.972547
 20
187.859704
 30
0.0
 41
2.5
 42
2.5
 43
2.5
 50
90.0
  0
MTEXT
  5
123A
330
E8B
100
AcDbEntity
  8
0
 62
     4
100
AcDbMText
 10
205.847547
 20
168.925761
 30
0.0
 40
3.0
 41
0.0
 46
0.0
 71
     5
 72
     1
  1
152
 11
1.000000000000000E-16
 21
1.0
 31
0.0
 73
     1
 44
1.0
  0
POINT
  5
123B
330
E8B
100
AcDbEntity
  8
Defpoints
 62
     0
100
AcDbPoint
 10
190.794389
 20
149.991818
 30
0.0
  0
POINT
  5
123C
330
E8B
100
AcDbEntity
  8
Defpoints
 62
     0
100
AcDbPoint
 10
199.137244
 20
187.859704
 30
0.0
  0
POINT
  5
123D
330
E8B
100
AcDbEntity
  8
Defpoints
 62
     0
100
AcDbPoint
 10
207.972547
 20
187.859704
 30
0.0
  0
ENDBLK
  5
E8D
330
E8B
100
AcDbEntity
  8
0
100
AcDbBlockEnd
  0
BLOCK
  5
E98
330
E97
100
AcDbEntity
  8
0
100
AcDbBlockBegin
  2
*D7
 70
     1
 10
0.0
 20
0.0
 30
0.0
  3
*D7
  1

  0
LINE
  5
123E
330
E97
100
AcDbEntity
  8
0
 62
     0
370
    -2
100
AcDbLine
 10
137.804198
 20
152.100756
 30
0.0
 11
137.804198
 21
135.549868
 31
0.0
  0
LINE
  5
123F
330
E97
100
AcDbEntity
  8
0
 62
     0
370
    -2
100
AcDbLine
 10
192.798698
 20
152.100756
 30
0.0
 11
192.798698
 21
135.549868
 31
0.0
  0
LINE
  5
1240
330
E97
100
AcDbEntity
  8
0
 62
     0
370
    -2
100
AcDbLine
 10
140.304198
 20
136.799868
 30
0.0
 11
190.298698
 21
136.799868
 31
0.0
  0
INSERT
  5
1241
330
E97
100
AcDbEntity
  8
0
 62
     0
370
    -2
100
AcDbBlockReference
  2
_Open30
 10
137.804198
 20
136.799868
 30
0.0
 41
2.5
 42
2.5
 43
2.5
 50
180.0
  0
INSERT
  5
1242
330
E97
100
AcDbEntity
  8
0
 62
     0
370
    -2
100
AcDbBlockReference
  2
_Open30
 10
192.798698
 20
136.799868
 30
0.0
 41
2.5
 42
2.5
 43
2.5
  0
MTEXT
  5
1243
330
E97
100
AcDbEntity
  8
0
 62
     4
100
AcDbMText
 10
165.301448
 20
138.924868
 30
0.0
 40
3.0
 41
0.0
 46
0.0
 71
     5
 72
     1
  1
254
 73
     1
 44
1.0
  0
POINT
  5
1244
330
E97
100
AcDbEntity
  8
Defpoints
 62
     0
100
AcDbPoint
 10
137.804198
 20
152.350756
 30
0.0
  0
POINT
  5
1245
330
E97
100
AcDbEntity
  8
Defpoints
 62
     0
100
AcDbPoint
 10
192.798698
 20
152.350756
 30
0.0
  0
POINT
  5
1246
330
E97
100
AcDbEntity
  8
Defpoints
 62
     0
100
AcDbPoint
 10
192.798698
 20
136.799868
 30
0.0
  0
ENDBLK
  5
E99
330
E97
100
AcDbEntity
  8
0
100
AcDbBlockEnd
  0
BLOCK
  5
1006
330
1005
100
AcDbEntity
  8
0
100
AcDbBlockBegin
  2
*D8
 70
     1
 10
0.0
 20
0.0
 30
0.0
  3
*D8
  1

  0
LINE
  5
108F
330
1005
100
AcDbEntity
  8
0
 62
     0
370
    -2
100
AcDbLine
 10
718.7884205422262
 20
264.6871093792979
 30
0.0
 11
718.7884205422262
 21
261.777477957289
 31
0.0
  0
LINE
  5
1090
330
1005
100
AcDbEntity
  8
0
 62
     0
370
    -2
100
AcDbLine
 10
716.3312334881059
 20
264.6871093792979
 30
0.0
 11
716.3312334881059
 21
261.777477957289
 31
0.0
  0
LINE
  5
1091
330
1005
100
AcDbEntity
  8
0
 62
     0
370
    -2
100
AcDbLine
 10
721.2884205422263
 20
263.027477957289
 30
0.0
 11
723.7884205422262
 21
263.027477957289
 31
0.0
  0
LINE
  5
1092
330
1005
100
AcDbEntity
  8
0
 62
     0
370
    -2
100
AcDbLine
 10
713.8312334881057
 20
263.027477957289
 30
0.0
 11
701.0812334881059
 21
263.027477957289
 31
0.0
  0
LINE
  5
1093
330
1005
100
AcDbEntity
  8
0
 62
     0
370
    -2
100
AcDbLine
 10
718.7884205422262
 20
263.027477957289
 30
0.0
 11
716.3312334881059
 21
263.027477957289
 31
0.0
  0
INSERT
  5
1094
330
1005
100
AcDbEntity
  8
0
 62
     0
370
    -2
100
AcDbBlockReference
  2
_Open30
 10
718.7884205422262
 20
263.027477957289
 30
0.0
 41
2.5
 42
2.5
 43
2.5
 50
180.0
  0
INSERT
  5
1095
330
1005
100
AcDbEntity
  8
0
 62
     0
370
    -2
100
AcDbBlockReference
  2
_Open30
 10
716.3312334881059
 20
263.027477957289
 30
0.0
 41
2.5
 42
2.5
 43
2.5
  0
MTEXT
  5
1096
330
1005
100
AcDbEntity
  8
0
 62
     4
100
AcDbMText
 10
706.2062334881058
 20
265.152477957289
 30
0.0
 40
3.0
 41
0.0
 46
0.0
 71
     5
 72
     1
  1
2.46
 73
     1
 44
1.0
  0
POINT
  5
1097
330
1005
100
AcDbEntity
  8
Defpoints
 62
     0
100
AcDbPoint
 10
718.7884205422262
 20
264.9371093792979
 30
0.0
  0
POINT
  5
1098
330
1005
100
AcDbEntity
  8
Defpoints
 62
     0
100
AcDbPoint
 10
716.3312334881059
 20
264.9371093792979
 30
0.0
  0
POINT
  5
1099
330
1005
100
AcDbEntity
  8
Defpoints
 62
     0
100
AcDbPoint
 10
716.3312334881059
 20
263.027477957289
 30
0.0
  0
ENDBLK
  5
1007
330
1005
100
AcDbEntity
  8
0
100
AcDbBlockEnd
  0
BLOCK
  5
1014
330
1013
100
AcDbEntity
  8
0
100
AcDbBlockBegin
  2
*D9
 70
     1
 10
0.0
 20
0.0
 30
0.0
  3
*D9
  1

  0
LINE
  5
109A
330
1013
100
AcDbEntity
  8
0
 62
     0
370
    -2
100
AcDbLine
 10
720.4265454482995
 20
259.2310198065354
 30
0.0
 11
720.4265454482995
 21
256.6851277370721
 31
0.0
  0
LINE
  5
109B
330
1013
100
AcDbEntity
  8
0
 62
     0
370
    -2
100
AcDbLine
 10
717.3323096501563
 20
259.2310198065354
 30
0.0
 11
717.3323096501563
 21
256.6851277370721
 31
0.0
  0
LINE
  5
109C
330
1013
100
AcDbEntity
  8
0
 62
     0
370
    -2
100
AcDbLine
 10
722.9265454482995
 20
257.9351277370721
 30
0.0
 11
725.4265454482995
 21
257.9351277370721
 31
0.0
  0
LINE
  5
109D
330
1013
100
AcDbEntity
  8
0
 62
     0
370
    -2
100
AcDbLine
 10
714.8323096501565
 20
257.9351277370721
 30
0.0
 11
700.9989763168232
 21
257.9351277370721
 31
0.0
  0
LINE
  5
109E
330
1013
100
AcDbEntity
  8
0
 62
     0
370
    -2
100
AcDbLine
 10
720.4265454482995
 20
257.9351277370721
 30
0.0
 11
717.3323096501563
 21
257.9351277370721
 31
0.0
  0
INSERT
  5
109F
330
1013
100
AcDbEntity
  8
0
 62
     0
370
    -2
100
AcDbBlockReference
  2
_Open30
 10
720.4265454482995
 20
257.9351277370721
 30
0.0
 41
2.5
 42
2.5
 43
2.5
 50
180.0
  0
INSERT
  5
10A0
330
1013
100
AcDbEntity
  8
0
 62
     0
370
    -2
100
AcDbBlockReference
  2
_Open30
 10
717.3323096501563
 20
257.9351277370721
 30
0.0
 41
2.5
 42
2.5
 43
2.5
  0
MTEXT
  5
10A1
330
1013
100
AcDbEntity
  8
0
 62
     4
100
AcDbMText
 10
706.2073096501563
 20
259.8101277370721
 30
0.0
 40
2.5
 41
0.0
 46
0.0
 71
     5
 72
     1
  1
15.47
  7
高2.5
 73
     1
 44
1.0
  0
POINT
  5
10A2
330
1013
100
AcDbEntity
  8
Defpoints
 62
     0
100
AcDbPoint
 10
720.4265454482995
 20
259.4810198065354
 30
0.0
  0
POINT
  5
10A3
330
1013
100
AcDbEntity
  8
Defpoints
 62
     0
100
AcDbPoint
 10
717.3323096501563
 20
259.4810198065354
 30
0.0
  0
POINT
  5
10A4
330
1013
100
AcDbEntity
  8
Defpoints
 62
     0
100
AcDbPoint
 10
717.3323096501563
 20
257.9351277370721
 30
0.0
  0
ENDBLK
  5
1015
330
1013
100
AcDbEntity
  8
0
100
AcDbBlockEnd
  0
BLOCK
  5
1022
330
1021
100
AcDbEntity
  8
0
100
AcDbBlockBegin
  2
*D10
 70
     1
 10
0.0
 20
0.0
 30
0.0
  3
*D10
  1

  0
LINE
  5
10A5
330
1021
100
AcDbEntity
  8
0
 62
     0
370
    -2
100
AcDbLine
 10
722.155677056385
 20
253.7749300906889
 30
0.0
 11
722.155677056385
 21
251.5018424283216
 31
0.0
  0
LINE
  5
10A6
330
1021
100
AcDbEntity
  8
0
 62
     0
370
    -2
100
AcDbLine
 10
718.1513721031929
 20
253.7749300906889
 30
0.0
 11
718.1513721031929
 21
251.5018424283216
 31
0.0
  0
LINE
  5
10A7
330
1021
100
AcDbEntity
  8
0
 62
     0
370
    -2
100
AcDbLine
 10
724.655677056385
 20
252.7518424283217
 30
0.0
 11
727.155677056385
 21
252.7518424283217
 31
0.0
  0
LINE
  5
10A8
330
1021
100
AcDbEntity
  8
0
 62
     0
370
    -2
100
AcDbLine
 10
715.651372103193
 20
252.7518424283217
 30
0.0
 11
703.9013721031929
 21
252.7518424283217
 31
0.0
  0
LINE
  5
10A9
330
1021
100
AcDbEntity
  8
0
 62
     0
370
    -2
100
AcDbLine
 10
722.155677056385
 20
252.7518424283217
 30
0.0
 11
718.1513721031929
 21
252.7518424283217
 31
0.0
  0
INSERT
  5
10AA
330
1021
100
AcDbEntity
  8
0
 62
     0
370
    -2
100
AcDbBlockReference
  2
_Open30
 10
722.155677056385
 20
252.7518424283217
 30
0.0
 41
2.5
 42
2.5
 43
2.5
 50
180.0
  0
INSERT
  5
10AB
330
1021
100
AcDbEntity
  8
0
 62
     0
370
    -2
100
AcDbBlockReference
  2
_Open30
 10
718.1513721031929
 20
252.7518424283217
 30
0.0
 41
2.5
 42
2.5
 43
2.5
  0
MTEXT
  5
10AC
330
1021
100
AcDbEntity
  8
0
 62
     4
100
AcDbMText
 10
708.526372103193
 20
254.9768424283216
 30
0.0
 40
3.2
 41
0.0
 46
0.0
 71
     5
 72
     1
  1
8.01
  7
高3.2
 73
     1
 44
1.0
  0
POINT
  5
10AD
330
1021
100
AcDbEntity
  8
Defpoints
 62
     0
100
AcDbPoint
 10
722.155677056385
 20
254.0249300906889
 30
0.0
  0
POINT
  5
10AE
330
1021
100
AcDbEntity
  8
Defpoints
 62
     0
100
AcDbPoint
 10
718.1513721031929
 20
254.0249300906889
 30
0.0
  0
POINT
  5
10AF
330
1021
100
AcDbEntity
  8
Defpoints
 62
     0
100
AcDbPoint
 10
718.1513721031929
 20
252.7518424283217
 30
0.0
  0
ENDBLK
  5
1023
330
1021
100
AcDbEntity
  8
0
100
AcDbBlockEnd
  0
BLOCK
  5
1030
330
102F
100
AcDbEntity
  8
0
100
AcDbBlockBegin
  2
*D11
 70
     1
 10
0.0
 20
0.0
 30
0.0
  3
*D11
  1

  0
LINE
  5
10B0
330
102F
100
AcDbEntity
  8
0
 62
     0
370
    -2
100
AcDbLine
 10
722.0646703543727
 20
248.5007101226573
 30
0.0
 11
722.0646703543727
 21
246.6822966152009
 31
0.0
  0
LINE
  5
10B1
330
102F
100
AcDbEntity
  8
0
 62
     0
370
    -2
100
AcDbLine
 10
717.3323096501563
 20
248.5007101226573
 30
0.0
 11
717.3323096501563
 21
246.6822966152009
 31
0.0
  0
LINE
  5
10B2
330
102F
100
AcDbEntity
  8
0
 62
     0
370
    -2
100
AcDbLine
 10
724.5646703543727
 20
247.9322966152009
 30
0.0
 11
727.0646703543727
 21
247.9322966152009
 31
0.0
  0
LINE
  5
10B3
330
102F
100
AcDbEntity
  8
0
 62
     0
370
    -2
100
AcDbLine
 10
714.8323096501565
 20
247.9322966152009
 30
0.0
 11
693.0823096501565
 21
247.9322966152009
 31
0.0
  0
LINE
  5
10B4
330
102F
100
AcDbEntity
  8
0
 62
     0
370
    -2
100
AcDbLine
 10
722.0646703543727
 20
247.9322966152009
 30
0.0
 11
717.3323096501563
 21
247.9322966152009
 31
0.0
  0
INSERT
  5
10B5
330
102F
100
AcDbEntity
  8
0
 62
     0
370
    -2
100
AcDbBlockReference
  2
_Open30
 10
722.0646703543727
 20
247.9322966152009
 30
0.0
 41
2.5
 42
2.5
 43
2.5
 50
180.0
  0
INSERT
  5
10B6
330
102F
100
AcDbEntity
  8
0
 62
     0
370
    -2
100
AcDbBlockReference
  2
_Open30
 10
717.3323096501563
 20
247.9322966152009
 30
0.0
 41
2.5
 42
2.5
 43
2.5
  0
MTEXT
  5
10B7
330
102F
100
AcDbEntity
  8
0
 62
     4
100
AcDbMText
 10
702.7073096501565
 20
250.8072966152009
 30
0.0
 40
4.5
 41
0.0
 46
0.0
 71
     5
 72
     1
  1
47.32
  7
高4.5
 73
     1
 44
1.0
  0
POINT
  5
10B8
330
102F
100
AcDbEntity
  8
Defpoints
 62
     0
100
AcDbPoint
 10
722.0646703543727
 20
248.7507101226573
 30
0.0
  0
POINT
  5
10B9
330
102F
100
AcDbEntity
  8
Defpoints
 62
     0
100
AcDbPoint
 10
717.3323096501563
 20
248.7507101226573
 30
0.0
  0
POINT
  5
10BA
330
102F
100
AcDbEntity
  8
Defpoints
 62
     0
100
AcDbPoint
 10
717.3323096501563
 20
247.9322966152009
 30
0.0
  0
ENDBLK
  5
1031
330
102F
100
AcDbEntity
  8
0
100
AcDbBlockEnd
  0
BLOCK
  5
103E
330
103D
100
AcDbEntity
  8
0
100
AcDbBlockBegin
  2
*D12
 70
     1
 10
0.0
 20
0.0
 30
0.0
  3
*D12
  1

  0
LINE
  5
10BB
330
103D
100
AcDbEntity
  8
0
 62
     0
370
    -2
100
AcDbLine
 10
743.5423066223802
 20
264.6871093792979
 30
0.0
 11
743.5423066223802
 21
261.777477957289
 31
0.0
  0
LINE
  5
10BC
330
103D
100
AcDbEntity
  8
0
 62
     0
370
    -2
100
AcDbLine
 10
741.0851195682599
 20
264.6871093792979
 30
0.0
 11
741.0851195682599
 21
261.777477957289
 31
0.0
  0
LINE
  5
10BD
330
103D
100
AcDbEntity
  8
0
 62
     0
370
    -2
100
AcDbLine
 10
746.0423066223802
 20
263.027477957289
 30
0.0
 11
748.5423066223802
 21
263.027477957289
 31
0.0
  0
LINE
  5
10BE
330
103D
100
AcDbEntity
  8
0
 62
     0
370
    -2
100
AcDbLine
 10
738.5851195682598
 20
263.027477957289
 30
0.0
 11
716.9851195682597
 21
263.027477957289
 31
0.0
  0
LINE
  5
10BF
330
103D
100
AcDbEntity
  8
0
 62
     0
370
    -2
100
AcDbLine
 10
743.5423066223802
 20
263.027477957289
 30
0.0
 11
741.0851195682599
 21
263.027477957289
 31
0.0
  0
INSERT
  5
10C0
330
103D
100
AcDbEntity
  8
0
 62
     0
370
    -2
100
AcDbBlockReference
  2
_Open30
 10
743.5423066223802
 20
263.027477957289
 30
0.0
 41
2.5
 42
2.5
 43
2.5
 50
180.0
  0
INSERT
  5
10C1
330
103D
100
AcDbEntity
  8
0
 62
     0
370
    -2
100
AcDbBlockReference
  2
_Open30
 10
741.0851195682599
 20
263.027477957289
 30
0.0
 41
2.5
 42
2.5
 43
2.5
  0
MTEXT
  5
10C2
330
103D
100
AcDbEntity
  8
0
 62
     4
100
AcDbMText
 10
726.5351195682597
 20
266.8024779572889
 30
0.0
 40
6.299999999999998
 41
0.0
 46
0.0
 71
     5
 72
     1
  1
0.25
  7
高6.3
 73
     1
 44
1.0
  0
POINT
  5
10C3
330
103D
100
AcDbEntity
  8
Defpoints
 62
     0
100
AcDbPoint
 10
743.5423066223802
 20
264.9371093792979
 30
0.0
  0
POINT
  5
10C4
330
103D
100
AcDbEntity
  8
Defpoints
 62
     0
100
AcDbPoint
 10
741.0851195682599
 20
264.9371093792979
 30
0.0
  0
POINT
  5
10C5
330
103D
100
AcDbEntity
  8
Defpoints
 62
     0
100
AcDbPoint
 10
741.0851195682599
 20
263.027477957289
 30
0.0
  0
ENDBLK
  5
103F
330
103D
100
AcDbEntity
  8
0
100
AcDbBlockEnd
  0
BLOCK
  5
104C
330
104B
100
AcDbEntity
  8
0
100
AcDbBlockBegin
  2
*D13
 70
     1
 10
0.0
 20
0.0
 30
0.0
  3
*D13
  1

  0
LINE
  5
10C6
330
104B
100
AcDbEntity
  8
0
 62
     0
370
    -2
100
AcDbLine
 10
745.1804315284533
 20
259.2310198065354
 30
0.0
 11
745.1804315284533
 21
256.6851277370721
 31
0.0
  0
LINE
  5
10C7
330
104B
100
AcDbEntity
  8
0
 62
     0
370
    -2
100
AcDbLine
 10
742.0861957303102
 20
259.2310198065354
 30
0.0
 11
742.0861957303102
 21
256.6851277370721
 31
0.0
  0
LINE
  5
10C8
330
104B
100
AcDbEntity
  8
0
 62
     0
370
    -2
100
AcDbLine
 10
747.6804315284534
 20
257.9351277370721
 30
0.0
 11
750.1804315284533
 21
257.9351277370721
 31
0.0
  0
LINE
  5
10C9
330
104B
100
AcDbEntity
  8
0
 62
     0
370
    -2
100
AcDbLine
 10
739.5861957303102
 20
257.9351277370721
 30
0.0
 11
727.5861957303105
 21
257.9351277370721
 31
0.0
  0
LINE
  5
10CA
330
104B
100
AcDbEntity
  8
0
 62
     0
370
    -2
100
AcDbLine
 10
745.1804315284533
 20
257.9351277370721
 30
0.0
 11
742.0861957303102
 21
257.9351277370721
 31
0.0
  0
INSERT
  5
10CB
330
104B
100
AcDbEntity
  8
0
 62
     0
370
    -2
100
AcDbBlockReference
  2
_Open30
 10
745.1804315284533
 20
257.9351277370721
 30
0.0
 41
2.5
 42
2.5
 43
2.5
 50
180.0
  0
INSERT
  5
10CC
330
104B
100
AcDbEntity
  8
0
 62
     0
370
    -2
100
AcDbBlockReference
  2
_Open30
 10
742.0861957303102
 20
257.9351277370721
 30
0.0
 41
2.5
 42
2.5
 43
2.5
  0
MTEXT
  5
10CD
330
104B
100
AcDbEntity
  8
0
 62
     4
100
AcDbMText
 10
732.2111957303102
 20
260.0601277370721
 30
0.0
 40
3.0
 41
0.0
 46
0.0
 71
     5
 72
     1
  1
1.55
 73
     1
 44
1.0
  0
POINT
  5
10CE
330
104B
100
AcDbEntity
  8
Defpoints
 62
     0
100
AcDbPoint
 10
745.1804315284533
 20
259.4810198065354
 30
0.0
  0
POINT
  5
10CF
330
104B
100
AcDbEntity
  8
Defpoints
 62
     0
100
AcDbPoint
 10
742.0861957303102
 20
259.4810198065354
 30
0.0
  0
POINT
  5
10D0
330
104B
100
AcDbEntity
  8
Defpoints
 62
     0
100
AcDbPoint
 10
742.0861957303102
 20
257.9351277370721
 30
0.0
  0
ENDBLK
  5
104D
330
104B
100
AcDbEntity
  8
0
100
AcDbBlockEnd
  0
BLOCK
  5
105A
330
1059
100
AcDbEntity
  8
0
100
AcDbBlockBegin
  2
*D14
 70
     1
 10
0.0
 20
0.0
 30
0.0
  3
*D14
  1

  0
LINE
  5
10D1
330
1059
100
AcDbEntity
  8
0
 62
     0
370
    -2
100
AcDbLine
 10
746.9095631365387
 20
253.7749300906889
 30
0.0
 11
746.9095631365387
 21
251.5018424283216
 31
0.0
  0
LINE
  5
10D2
330
1059
100
AcDbEntity
  8
0
 62
     0
370
    -2
100
AcDbLine
 10
742.9052581833467
 20
253.7749300906889
 30
0.0
 11
742.9052581833467
 21
251.5018424283216
 31
0.0
  0
LINE
  5
10D3
330
1059
100
AcDbEntity
  8
0
 62
     0
370
    -2
100
AcDbLine
 10
749.4095631365388
 20
252.7518424283217
 30
0.0
 11
751.9095631365387
 21
252.7518424283217
 31
0.0
  0
LINE
  5
10D4
330
1059
100
AcDbEntity
  8
0
 62
     0
370
    -2
100
AcDbLine
 10
740.4052581833473
 20
252.7518424283217
 30
0.0
 11
732.0719248500137
 21
252.7518424283217
 31
0.0
  0
LINE
  5
10D5
330
1059
100
AcDbEntity
  8
0
 62
     0
370
    -2
100
AcDbLine
 10
746.9095631365387
 20
252.7518424283217
 30
0.0
 11
742.9052581833467
 21
252.7518424283217
 31
0.0
  0
INSERT
  5
10D6
330
1059
100
AcDbEntity
  8
0
 62
     0
370
    -2
100
AcDbBlockReference
  2
_Open30
 10
746.9095631365387
 20
252.7518424283217
 30
0.0
 41
2.5
 42
2.5
 43
2.5
 50
180.0
  0
INSERT
  5
10D7
330
1059
100
AcDbEntity
  8
0
 62
     0
370
    -2
100
AcDbBlockReference
  2
_Open30
 10
742.9052581833467
 20
252.7518424283217
 30
0.0
 41
2.5
 42
2.5
 43
2.5
  0
MTEXT
  5
10D8
330
1059
100
AcDbEntity
  8
0
 62
     4
100
AcDbMText
 10
734.5302581833473
 20
254.3768424283217
 30
0.0
 40
2.0
 41
0.0
 46
0.0
 71
     5
 72
     1
  1
0.8
  7
高2
 73
     1
 44
1.0
  0
POINT
  5
10D9
330
1059
100
AcDbEntity
  8
Defpoints
 62
     0
100
AcDbPoint
 10
746.9095631365387
 20
254.0249300906889
 30
0.0
  0
POINT
  5
10DA
330
1059
100
AcDbEntity
  8
Defpoints
 62
     0
100
AcDbPoint
 10
742.9052581833467
 20
254.0249300906889
 30
0.0
  0
POINT
  5
10DB
330
1059
100
AcDbEntity
  8
Defpoints
 62
     0
100
AcDbPoint
 10
742.9052581833467
 20
252.7518424283217
 30
0.0
  0
ENDBLK
  5
105B
330
1059
100
AcDbEntity
  8
0
100
AcDbBlockEnd
  0
BLOCK
  5
1068
330
1067
100
AcDbEntity
  8
0
100
AcDbBlockBegin
  2
*D15
 70
     1
 10
0.0
 20
0.0
 30
0.0
  3
*D15
  1

  0
LINE
  5
10DC
330
1067
100
AcDbEntity
  8
0
 62
     0
370
    -2
100
AcDbLine
 10
746.8185564345262
 20
248.5007101226573
 30
0.0
 11
746.8185564345262
 21
246.6822966152009
 31
0.0
  0
LINE
  5
10DD
330
1067
100
AcDbEntity
  8
0
 62
     0
370
    -2
100
AcDbLine
 10
742.0861957303102
 20
248.5007101226573
 30
0.0
 11
742.0861957303102
 21
246.6822966152009
 31
0.0
  0
LINE
  5
10DE
330
1067
100
AcDbEntity
  8
0
 62
     0
370
    -2
100
AcDbLine
 10
749.3185564345265
 20
247.9322966152009
 30
0.0
 11
751.8185564345265
 21
247.9322966152009
 31
0.0
  0
LINE
  5
10DF
330
1067
100
AcDbEntity
  8
0
 62
     0
370
    -2
100
AcDbLine
 10
739.5861957303102
 20
247.9322966152009
 30
0.0
 11
724.8361957303102
 21
247.9322966152009
 31
0.0
  0
LINE
  5
10E0
330
1067
100
AcDbEntity
  8
0
 62
     0
370
    -2
100
AcDbLine
 10
746.8185564345262
 20
247.9322966152009
 30
0.0
 11
742.0861957303102
 21
247.9322966152009
 31
0.0
  0
INSERT
  5
10E1
330
1067
100
AcDbEntity
  8
0
 62
     0
370
    -2
100
AcDbBlockReference
  2
_Open30
 10
746.8185564345262
 20
247.9322966152009
 30
0.0
 41
2.5
 42
2.5
 43
2.5
 50
180.0
  0
INSERT
  5
10E2
330
1067
100
AcDbEntity
  8
0
 62
     0
370
    -2
100
AcDbBlockReference
  2
_Open30
 10
742.0861957303102
 20
247.9322966152009
 30
0.0
 41
2.5
 42
2.5
 43
2.5
  0
MTEXT
  5
10E3
330
1067
100
AcDbEntity
  8
0
 62
     4
100
AcDbMText
 10
730.9611957303102
 20
250.0572966152009
 30
0.0
 40
3.0
 41
0.0
 46
0.0
 71
     5
 72
     1
  1
18.93
 73
     1
 44
1.0
  0
POINT
  5
10E4
330
1067
100
AcDbEntity
  8
Defpoints
 62
     0
100
AcDbPoint
 10
746.8185564345262
 20
248.7507101226573
 30
0.0
  0
POINT
  5
10E5
330
1067
100
AcDbEntity
  8
Defpoints
 62
     0
100
AcDbPoint
 10
742.0861957303102
 20
248.7507101226573
 30
0.0
  0
POINT
  5
10E6
330
1067
100
AcDbEntity
  8
Defpoints
 62
     0
100
AcDbPoint
 10
742.0861957303102
 20
247.9322966152009
 30
0.0
  0
ENDBLK
  5
1069
330
1067
100
AcDbEntity
  8
0
100
AcDbBlockEnd
  0
BLOCK
  5
1076
330
1075
100
AcDbEntity
  8
0
100
AcDbBlockBegin
  2
*D16
 70
     1
 10
0.0
 20
0.0
 30
0.0
  3
*D16
  1

  0
LINE
  5
10E7
330
1075
100
AcDbEntity
  8
0
 62
     0
370
    -2
100
AcDbLine
 10
744.0141295833882
 20
243.4448699160675
 30
0.0
 11
744.0141295833882
 21
241.134948839192
 31
0.0
  0
LINE
  5
10E8
330
1075
100
AcDbEntity
  8
0
 62
     0
370
    -2
100
AcDbLine
 10
739.4254543812402
 20
243.4448699160675
 30
0.0
 11
739.4254543812402
 21
241.134948839192
 31
0.0
  0
LINE
  5
10E9
330
1075
100
AcDbEntity
  8
0
 62
     0
370
    -2
100
AcDbLine
 10
746.5141295833882
 20
242.384948839192
 30
0.0
 11
749.0141295833882
 21
242.384948839192
 31
0.0
  0
LINE
  5
10EA
330
1075
100
AcDbEntity
  8
0
 62
     0
370
    -2
100
AcDbLine
 10
736.9254543812402
 20
242.384948839192
 30
0.0
 11
722.1754543812402
 21
242.384948839192
 31
0.0
  0
LINE
  5
10EB
330
1075
100
AcDbEntity
  8
0
 62
     0
370
    -2
100
AcDbLine
 10
744.0141295833882
 20
242.384948839192
 30
0.0
 11
739.4254543812402
 21
242.384948839192
 31
0.0
  0
INSERT
  5
10EC
330
1075
100
AcDbEntity
  8
0
 62
     0
370
    -2
100
AcDbBlockReference
  2
_Open30
 10
744.0141295833882
 20
242.384948839192
 30
0.0
 41
2.5
 42
2.5
 43
2.5
 50
180.0
  0
INSERT
  5
10ED
330
1075
100
AcDbEntity
  8
0
 62
     0
370
    -2
100
AcDbBlockReference
  2
_Open30
 10
739.4254543812402
 20
242.384948839192
 30
0.0
 41
2.5
 42
2.5
 43
2.5
  0
MTEXT
  5
10EE
330
1075
100
AcDbEntity
  8
0
 62
     4
100
AcDbMText
 10
728.3004543812402
 20
244.509948839192
 30
0.0
 40
3.0
 41
0.0
 46
0.0
 71
     5
 72
     1
  1
13.77
 73
     1
 44
1.0
  0
POINT
  5
10EF
330
1075
100
AcDbEntity
  8
Defpoints
 62
     0
100
AcDbPoint
 10
744.0141295833882
 20
243.6948699160676
 30
0.0
  0
POINT
  5
10F0
330
1075
100
AcDbEntity
  8
Defpoints
 62
     0
100
AcDbPoint
 10
739.4254543812402
 20
243.6948699160676
 30
0.0
  0
POINT
  5
10F1
330
1075
100
AcDbEntity
  8
Defpoints
 62
     0
100
AcDbPoint
 10
739.4254543812402
 20
242.384948839192
 30
0.0
  0
ENDBLK
  5
1077
330
1075
100
AcDbEntity
  8
0
100
AcDbBlockEnd
  0
BLOCK
  5
1084
330
1083
100
AcDbEntity
  8
0
100
AcDbBlockBegin
  2
*D17
 70
     1
 10
0.0
 20
0.0
 30
0.0
  3
*D17
  1

  0
LINE
  5
10F2
330
1083
100
AcDbEntity
  8
0
 62
     0
370
    -2
100
AcDbLine
 10
736.9178467502379
 20
274.3743612343419
 30
0.0
 11
736.9178467502379
 21
281.7708947122796
 31
0.0
  0
LINE
  5
10F3
330
1083
100
AcDbEntity
  8
0
 62
     0
370
    -2
100
AcDbLine
 10
726.9793723807477
 20
274.3743612343419
 30
0.0
 11
726.9793723807477
 21
281.7708947122796
 31
0.0
  0
LINE
  5
10F4
330
1083
100
AcDbEntity
  8
0
 62
     0
370
    -2
100
AcDbLine
 10
734.4178467502379
 20
280.5208947122796
 30
0.0
 11
729.4793723807477
 21
280.5208947122796
 31
0.0
  0
INSERT
  5
10F5
330
1083
100
AcDbEntity
  8
0
 62
     0
370
    -2
100
AcDbBlockReference
  2
_Open30
 10
736.9178467502379
 20
280.5208947122796
 30
0.0
 41
2.5
 42
2.5
 43
2.5
  0
INSERT
  5
10F6
330
1083
100
AcDbEntity
  8
0
 62
     0
370
    -2
100
AcDbBlockReference
  2
_Open30
 10
726.9793723807477
 20
280.5208947122796
 30
0.0
 41
2.5
 42
2.5
 43
2.5
 50
180.0
  0
MTEXT
  5
10F7
330
1083
100
AcDbEntity
  8
0
 62
     4
100
AcDbMText
 10
731.9486095654927
 20
283.5958947122796
 30
0.0
 40
3.0
 41
0.0
 46
0.0
 71
     5
 72
     1
  1
9.94\H0.7X;\S+0^ -0.02;
 73
     1
 44
1.0
  0
POINT
  5
10F8
330
1083
100
AcDbEntity
  8
Defpoints
 62
     0
100
AcDbPoint
 10
736.9178467502379
 20
274.1243612343419
 30
0.0
  0
POINT
  5
10F9
330
1083
100
AcDbEntity
  8
Defpoints
 62
     0
100
AcDbPoint
 10
726.9793723807477
 20
274.1243612343419
 30
0.0
  0
POINT
  5
10FA
330
1083
100
AcDbEntity
  8
Defpoints
 62
     0
100
AcDbPoint
 10
726.9793723807477
 20
280.5208947122796
 30
0.0
  0
ENDBLK
  5
1085
330
1083
100
AcDbEntity
  8
0
100
AcDbBlockEnd
  0
ENDSEC
  0
SECTION
  2
ENTITIES
  0
DIMENSION
  5
B3
330
36
100
AcDbEntity
  8
0
100
AcDbDimension
  2
*D5
 10
219.565572
 20
228.243166
 30
0.0
 11
217.440572
 21
189.117492
 31
0.0
 70
    32
  1
316
 71
     5
 42
78.251348
 73
     0
 74
     0
 75
     0
  3
FREE
100
AcDbAlignedDimension
 13
190.794389
 23
149.991818
 33
0.0
 14
165.301448
 24
228.243166
 34
0.0
 50
90.0
100
AcDbRotatedDimension
  0
DIMENSION
  5
B4
330
36
100
AcDbEntity
  8
0
100
AcDbDimension
  2
*D4
 10
237.237868
 20
219.106913
 30
0.0
 11
235.1128679999999
 21
187.860038
 31
0.0
 70
    32
  1
%%C250
 71
     5
 42
62.49375
 73
     0
 74
     0
 75
     0
  3
FREE
100
AcDbAlignedDimension
 13
262.079482
 23
156.613163
 33
0.0
 14
262.079482
 24
219.106913
 34
0.0
 50
90.0
100
AcDbRotatedDimension
  0
DIMENSION
  5
B5
330
36
100
AcDbEntity
  8
0
100
AcDbDimension
  2
*D3
 10
248.154601
 20
205.33329
 30
0.0
 11
246.0296009999999
 21
187.8600375
 31
0.0
 70
    32
  1
%%C135
 71
     5
 42
34.94650499999997
 73
     0
 74
     0
 75
     0
  3
FREE
100
AcDbAlignedDimension
 13
263.810991
 23
170.386785
 33
0.0
 14
263.810991
 24
205.33329
 34
0.0
 50
90.0
100
AcDbRotatedDimension
  0
DIMENSION
  5
B6
330
36
100
AcDbEntity
  8
0
100
AcDbDimension
  2
*D7
 10
192.798698
 20
136.799868
 30
0.0
 11
165.301448
 21
138.924868
 31
0.0
 70
    32
  1
254
 71
     5
 42
54.99450000000002
 73
     0
 74
     0
 75
     0
  3
FREE
100
AcDbAlignedDimension
 13
137.804198
 23
152.350756
 33
0.0
 14
192.798698
 24
152.350756
 34
0.0
100
AcDbRotatedDimension
  0
DIMENSION
  5
B7
330
36
100
AcDbEntity
  8
0
100
AcDbDimension
  2
*D6
 10
207.972547
 20
187.859704
 30
0.0
 11
205.847547
 21
168.925761
 31
0.0
 70
    32
  1
152
 71
     5
 42
37.86788600000003
 73
     0
 74
     0
 75
     0
  3
FREE
100
AcDbAlignedDimension
 13
190.794389
 23
149.991818
 33
0.0
 14
199.137244
 24
187.859704
 34
0.0
 50
90.0
100
AcDbRotatedDimension
  0
DIMENSION
  5
B8
330
36
100
AcDbEntity
  8
0
100
AcDbDimension
  2
*D1
 10
302.705373
 20
133.049035
 30
0.0
 11
277.707873
 21
135.174035
 31
0.0
 70
    32
  1
201
 71
     5
 42
49.99500000000001
 73
     0
 74
     0
 75
     0
  3
FREE
100
AcDbAlignedDimension
 13
252.710373
 23
152.351089
 33
0.0
 14
302.705373
 24
160.587765
 34
0.0
100
AcDbRotatedDimension
  0
DIMENSION
  5
B9
330
36
100
AcDbEntity
  8
0
100
AcDbDimension
  2
*D2
 10
293.770946
 20
141.105618
 30
0.0
 11
278.772446
 21
143.230618
 31
0.0
 70
    32
  1
120
 71
     5
 42
29.99699999999996
 73
     0
 74
     0
 75
     0
  3
FREE
100
AcDbAlignedDimension
 13
263.773946
 23
170.386785
 33
0.0
 14
293.770946
 24
170.386785
 34
0.0
100
AcDbRotatedDimension
  0
LWPOLYLINE
  5
DB
330
36
100
AcDbEntity
  8
0
100
AcDbPolyline
 90
        3
 70
     0
 43
0.0
 10
361.498462
 20
208.235114
 10
363.432503
 20
207.495741
 10
362.127261
 20
209.103077
  0
LINE
  5
E0
330
36
100
AcDbEntity
  8
0
100
AcDbLine
 10
363.432503
 20
207.495741
 30
0.0
 11
346.030906
 21
220.102391
 31
0.0
  0
CIRCLE
  5
E1
330
36
100
AcDbEntity
  8
0
100
AcDbCircle
 10
341.981803
 20
223.035778
 30
0.0
 40
5.0
  0
TEXT
  5
E2
330
36
100
AcDbEntity
  8
0
 62
     4
100
AcDbText
 10
338.7897044913903
 20
220.8423871050373
 30
0.0
 40
4.5
  1
09
  7
高4.5
100
AcDbText
  0
ARC
  5
E6
330
36
100
AcDbEntity
  8
0
 62
     3
100
AcDbCircle
 10
79.10179599999998
 20
161.636593
 30
0.0
 40
1.0
100
AcDbArc
 50
4.459399999999995
 51
81.86506899999998
  0
ARC
  5
E7
330
36
100
AcDbEntity
  8
0
 62
     3
100
AcDbCircle
 10
75.815089
 20
138.643492
 30
0.0
 40
24.22682
100
AcDbArc
 50
81.86506899999998
 51
98.13493100000002
  0
ARC
  5
E8
330
36
100
AcDbEntity
  8
0
 62
     3
100
AcDbCircle
 10
8.858840999999998
 20
156.158432
 30
0.0
 40
71.456248
100
AcDbArc
 50
355.5406
 51
4.459399999999995
  0
ARC
  5
E9
330
36
100
AcDbEntity
  8
0
 62
     3
100
AcDbCircle
 10
72.52838299999998
 20
161.636593
 30
0.0
 40
1.0
100
AcDbArc
 50
98.13493100000002
 51
175.5406
  0
ARC
  5
EA
330
36
100
AcDbEntity
  8
0
 62
     3
100
AcDbCircle
 10
142.771338
 20
156.158432
 30
0.0
 40
71.456248
100
AcDbArc
 50
175.5406
 51
184.4594
  0
ARC
  5
EB
330
36
100
AcDbEntity
  8
0
 62
     3
100
AcDbCircle
 10
72.52838299999998
 20
150.680271
 30
0.0
 40
1.0
100
AcDbArc
 50
184.4594
 51
261.865069
  0
ARC
  5
EC
330
36
100
AcDbEntity
  8
0
 62
     3
100
AcDbCircle
 10
75.815089
 20
173.673373
 30
0.0
 40
24.22682
100
AcDbArc
 50
261.865069
 51
278.134931
  0
ARC
  5
ED
330
36
100
AcDbEntity
  8
0
 62
     3
100
AcDbCircle
 10
79.10179599999998
 20
150.680271
 30
0.0
 40
1.0
100
AcDbArc
 50
278.134931
 51
355.5406
  0
LINE
  5
EE
330
36
100
AcDbEntity
  8
0
 62
     3
100
AcDbLine
 10
372.032503
 20
175.690489
 30
0.0
 11
371.032503
 21
172.690489
 31
0.0
  0
LINE
  5
EF
330
36
100
AcDbEntity
  8
0
 62
     3
100
AcDbLine
 10
372.032503
 20
176.690489
 30
0.0
 11
372.032503
 21
175.690489
 31
0.0
  0
LINE
  5
F0
330
36
100
AcDbEntity
  8
0
 62
     3
100
AcDbLine
 10
360.032503
 20
175.690489
 30
0.0
 11
361.032503
 21
172.690489
 31
0.0
  0
LINE
  5
F1
330
36
100
AcDbEntity
  8
0
 62
     3
100
AcDbLine
 10
369.532503
 20
181.690489
 30
0.0
 11
369.532503
 21
176.690489
 31
0.0
  0
LINE
  5
F2
330
36
100
AcDbEntity
  8
0
 62
     3
100
AcDbLine
 10
362.5325029999999
 20
181.690489
 30
0.0
 11
362.5325029999999
 21
176.690489
 31
0.0
  0
ARC
  5
F3
330
36
100
AcDbEntity
  8
0
 62
     3
100
AcDbCircle
 10
362.032503
 20
182.190489
 30
0.0
 40
0.5
100
AcDbArc
 50
180.0
 51
270.0
  0
ARC
  5
F4
330
36
100
AcDbEntity
  8
0
 62
     3
100
AcDbCircle
 10
362.032503
 20
182.190489
 30
0.0
 40
0.5
100
AcDbArc
 50
90.0
 51
180.0
  0
ARC
  5
F5
330
36
100
AcDbEntity
  8
0
 62
     3
100
AcDbCircle
 10
370.032503
 20
182.190489
 30
0.0
 40
0.5
100
AcDbArc
 50
0.0
 51
90.0
  0
ARC
  5
F6
330
36
100
AcDbEntity
  8
0
 62
     3
100
AcDbCircle
 10
370.032503
 20
182.190489
 30
0.0
 40
0.5
100
AcDbArc
 50
270.0
 51
0.0
  0
LINE
  5
F7
330
36
100
AcDbEntity
  8
0
 62
     3
100
AcDbLine
 10
369.532503
 20
185.690489
 30
0.0
 11
369.532503
 21
182.6904889999999
 31
0.0
  0
ARC
  5
F8
330
36
100
AcDbEntity
  8
0
 62
     3
100
AcDbCircle
 10
370.032503
 20
186.190489
 30
0.0
 40
0.5
100
AcDbArc
 50
270.0
 51
0.0
  0
ARC
  5
F9
330
36
100
AcDbEntity
  8
0
 62
     3
100
AcDbCircle
 10
370.032503
 20
186.190489
 30
0.0
 40
0.5
100
AcDbArc
 50
0.0
 51
90.0
  0
LINE
  5
FA
330
36
100
AcDbEntity
  8
0
 62
     3
100
AcDbLine
 10
369.532503
 20
189.690489
 30
0.0
 11
369.532503
 21
186.6904889999999
 31
0.0
  0
LINE
  5
FB
330
36
100
AcDbEntity
  8
0
 62
     3
100
AcDbLine
 10
362.5325029999999
 20
189.690489
 30
0.0
 11
362.5325029999999
 21
186.6904889999999
 31
0.0
  0
ARC
  5
FC
330
36
100
AcDbEntity
  8
0
 62
     3
100
AcDbCircle
 10
362.032503
 20
186.190489
 30
0.0
 40
0.5
100
AcDbArc
 50
90.0
 51
180.0
  0
ARC
  5
FD
330
36
100
AcDbEntity
  8
0
 62
     3
100
AcDbCircle
 10
362.032503
 20
186.190489
 30
0.0
 40
0.5
100
AcDbArc
 50
180.0
 51
270.0
  0
LINE
  5
FE
330
36
100
AcDbEntity
  8
0
 62
     3
100
AcDbLine
 10
362.5325029999999
 20
185.690489
 30
0.0
 11
362.5325029999999
 21
182.6904889999999
 31
0.0
  0
LINE
  5
FF
330
36
100
AcDbEntity
  8
0
 62
     3
100
AcDbLine
 10
360.032503
 20
176.690489
 30
0.0
 11
372.032503
 21
176.690489
 31
0.0
  0
LINE
  5
100
330
36
100
AcDbEntity
  8
0
 62
     3
100
AcDbLine
 10
360.032503
 20
176.690489
 30
0.0
 11
360.032503
 21
175.690489
 31
0.0
  0
ARC
  5
101
330
36
100
AcDbEntity
  8
0
 62
     3
100
AcDbCircle
 10
362.032503
 20
190.190489
 30
0.0
 40
0.5
100
AcDbArc
 50
180.0
 51
270.0
  0
ARC
  5
102
330
36
100
AcDbEntity
  8
0
 62
     3
100
AcDbCircle
 10
362.032503
 20
190.190489
 30
0.0
 40
0.5
100
AcDbArc
 50
90.0
 51
180.0
  0
ARC
  5
103
330
36
100
AcDbEntity
  8
0
 62
     3
100
AcDbCircle
 10
370.032503
 20
190.190489
 30
0.0
 40
0.5
100
AcDbArc
 50
270.0
 51
0.0
  0
ARC
  5
104
330
36
100
AcDbEntity
  8
0
 62
     3
100
AcDbCircle
 10
370.032503
 20
190.190489
 30
0.0
 40
0.5
100
AcDbArc
 50
0.0
 51
90.0
  0
LINE
  5
105
330
36
100
AcDbEntity
  8
0
 62
     3
100
AcDbLine
 10
363.432503
 20
225.709638
 30
0.0
 11
363.432503
 21
190.690489
 31
0.0
  0
LINE
  5
106
330
36
100
AcDbEntity
  8
0
 62
     3
100
AcDbLine
 10
368.632503
 20
225.709638
 30
0.0
 11
368.632503
 21
190.690489
 31
0.0
  0
LINE
  5
107
330
36
100
AcDbEntity
  8
0
 62
     3
100
AcDbLine
 10
358.032503
 20
161.6904889999999
 30
0.0
 11
358.032503
 21
159.690489
 31
0.0
  0
LINE
  5
108
330
36
100
AcDbEntity
  8
0
 62
     3
100
AcDbLine
 10
358.032503
 20
159.690489
 30
0.0
 11
374.032503
 21
159.690489
 31
0.0
  0
LINE
  5
109
330
36
100
AcDbEntity
  8
0
 62
     3
100
AcDbLine
 10
374.032503
 20
161.6904889999999
 30
0.0
 11
374.032503
 21
159.690489
 31
0.0
  0
ARC
  5
10A
330
36
100
AcDbEntity
  8
0
 62
     3
100
AcDbCircle
 10
276.213022
 20
140.921539
 30
0.0
 40
100.0
100
AcDbArc
 50
11.986985
 51
18.523253
  0
ARC
  5
10B
330
36
100
AcDbEntity
  8
0
 62
     3
100
AcDbCircle
 10
455.851983
 20
140.921539
 30
0.0
 40
100.0
100
AcDbArc
 50
161.476747
 51
168.013015
  0
LINE
  5
10C
330
36
100
AcDbEntity
  8
0
100
AcDbLine
 10
362.032503
 20
150.690489
 30
0.0
 11
363.032503
 21
150.690489
 31
0.0
  0
LINE
  5
10D
330
36
100
AcDbEntity
  8
0
100
AcDbLine
 10
369.032503
 20
150.690489
 30
0.0
 11
370.032503
 21
150.690489
 31
0.0
  0
LINE
  5
10E
330
36
100
AcDbEntity
  8
0
100
AcDbLine
 10
362.032503
 20
159.690489
 30
0.0
 11
362.032503
 21
150.690489
 31
0.0
  0
LINE
  5
10F
330
36
100
AcDbEntity
  8
0
100
AcDbLine
 10
363.032503
 20
159.690489
 30
0.0
 11
363.032503
 21
150.690489
 31
0.0
  0
LINE
  5
110
330
36
100
AcDbEntity
  8
0
100
AcDbLine
 10
363.032503
 20
150.690489
 30
0.0
 11
362.782503
 21
149.690489
 31
0.0
  0
LINE
  5
111
330
36
100
AcDbEntity
  8
0
100
AcDbLine
 10
362.032503
 20
150.690489
 30
0.0
 11
362.282503
 21
149.690489
 31
0.0
  0
LINE
  5
112
330
36
100
AcDbEntity
  8
0
100
AcDbLine
 10
362.282503
 20
149.690489
 30
0.0
 11
362.782503
 21
149.690489
 31
0.0
  0
LINE
  5
113
330
36
100
AcDbEntity
  8
0
100
AcDbLine
 10
369.282503
 20
149.690489
 30
0.0
 11
369.782503
 21
149.690489
 31
0.0
  0
LINE
  5
114
330
36
100
AcDbEntity
  8
0
100
AcDbLine
 10
369.032503
 20
150.690489
 30
0.0
 11
369.282503
 21
149.690489
 31
0.0
  0
LINE
  5
115
330
36
100
AcDbEntity
  8
0
100
AcDbLine
 10
369.032503
 20
159.690489
 30
0.0
 11
369.032503
 21
150.690489
 31
0.0
  0
LINE
  5
116
330
36
100
AcDbEntity
  8
0
100
AcDbLine
 10
370.032503
 20
159.690489
 30
0.0
 11
370.032503
 21
150.690489
 31
0.0
  0
LINE
  5
117
330
36
100
AcDbEntity
  8
0
100
AcDbLine
 10
370.032503
 20
150.690489
 30
0.0
 11
369.782503
 21
149.690489
 31
0.0
  0
LINE
  5
118
330
36
100
AcDbEntity
  8
0
100
AcDbLine
 10
363.432503
 20
188.690489
 30
0.0
 11
368.632503
 21
188.690489
 31
0.0
  0
LINE
  5
119
330
36
100
AcDbEntity
  8
0
100
AcDbLine
 10
363.432503
 20
187.690489
 30
0.0
 11
368.632503
 21
187.690489
 31
0.0
  0
LINE
  5
11A
330
36
100
AcDbEntity
  8
0
100
AcDbLine
 10
363.432503
 20
184.690489
 30
0.0
 11
368.632503
 21
184.690489
 31
0.0
  0
LINE
  5
11B
330
36
100
AcDbEntity
  8
0
100
AcDbLine
 10
363.432503
 20
183.6904889999999
 30
0.0
 11
368.632503
 21
183.6904889999999
 31
0.0
  0
LINE
  5
11C
330
36
100
AcDbEntity
  8
0
100
AcDbLine
 10
363.432503
 20
178.690489
 30
0.0
 11
368.632503
 21
178.690489
 31
0.0
  0
LINE
  5
11D
330
36
100
AcDbEntity
  8
0
100
AcDbLine
 10
363.432503
 20
179.690489
 30
0.0
 11
368.632503
 21
179.690489
 31
0.0
  0
LINE
  5
11E
330
36
100
AcDbEntity
  8
0
100
AcDbLine
 10
362.032503
 20
181.690489
 30
0.0
 11
370.032503
 21
181.690489
 31
0.0
  0
LINE
  5
11F
330
36
100
AcDbEntity
  8
0
100
AcDbLine
 10
362.032503
 20
182.6904889999999
 30
0.0
 11
370.032503
 21
182.6904889999999
 31
0.0
  0
LINE
  5
120
330
36
100
AcDbEntity
  8
0
100
AcDbLine
 10
370.032503
 20
185.690489
 30
0.0
 11
362.032503
 21
185.690489
 31
0.0
  0
LINE
  5
121
330
36
100
AcDbEntity
  8
0
100
AcDbLine
 10
370.032503
 20
186.6904889999999
 30
0.0
 11
362.032503
 21
186.6904889999999
 31
0.0
  0
LINE
  5
122
330
36
100
AcDbEntity
  8
0
100
AcDbLine
 10
370.032503
 20
189.690489
 30
0.0
 11
362.032503
 21
189.690489
 31
0.0
  0
LINE
  5
123
330
36
100
AcDbEntity
  8
0
100
AcDbLine
 10
363.432503
 20
184.690489
 30
0.0
 11
363.432503
 21
183.6904889999999
 31
0.0
  0
LINE
  5
124
330
36
100
AcDbEntity
  8
0
100
AcDbLine
 10
363.432503
 20
188.690489
 30
0.0
 11
363.432503
 21
187.690489
 31
0.0
  0
LINE
  5
125
330
36
100
AcDbEntity
  8
0
100
AcDbLine
 10
368.632503
 20
188.690489
 30
0.0
 11
368.632503
 21
187.690489
 31
0.0
  0
LINE
  5
126
330
36
100
AcDbEntity
  8
0
100
AcDbLine
 10
368.632503
 20
184.690489
 30
0.0
 11
368.632503
 21
183.6904889999999
 31
0.0
  0
LINE
  5
127
330
36
100
AcDbEntity
  8
0
100
AcDbLine
 10
363.432503
 20
179.690489
 30
0.0
 11
363.432503
 21
178.690489
 31
0.0
  0
LINE
  5
128
330
36
100
AcDbEntity
  8
0
100
AcDbLine
 10
368.632503
 20
179.690489
 30
0.0
 11
368.632503
 21
178.690489
 31
0.0
  0
LINE
  5
129
330
36
100
AcDbEntity
  8
0
100
AcDbLine
 10
360.032503
 20
175.690489
 30
0.0
 11
372.032503
 21
175.690489
 31
0.0
  0
LINE
  5
12A
330
36
100
AcDbEntity
  8
0
  6
CENTER
100
AcDbLine
 10
165.301448
 20
232.497814
 30
0.0
 11
165.301448
 21
154.501733
 31
0.0
  0
LINE
  5
12B
330
36
100
AcDbEntity
  8
0
 62
     3
100
AcDbLine
 10
253.210323
 20
220.994224
 30
0.0
 11
252.960348
 21
220.994224
 31
0.0
  0
LINE
  5
12C
330
36
100
AcDbEntity
  8
0
 62
     3
100
AcDbLine
 10
276.473795
 20
224.046765
 30
0.0
 11
276.473795
 21
228.046365
 31
0.0
  0
LINE
  5
12D
330
36
100
AcDbEntity
  8
0
 62
     3
100
AcDbLine
 10
252.960348
 20
228.243499
 30
0.0
 11
276.208023
 21
228.243499
 31
0.0
  0
ARC
  5
12E
330
36
100
AcDbEntity
  8
0
 62
     3
100
AcDbCircle
 10
259.03474
 20
223.86692
 30
0.0
 40
1.499849999999999
100
AcDbArc
 50
234.62346
 51
305.37654
  0
ARC
  5
12F
330
36
100
AcDbEntity
  8
0
 62
     3
100
AcDbCircle
 10
261.784465
 20
219.994324
 30
0.0
 40
3.249674999999998
100
AcDbArc
 50
54.62346
 51
125.37654
  0
ARC
  5
130
330
36
100
AcDbEntity
  8
0
 62
     3
100
AcDbCircle
 10
264.549987
 20
223.919761
 30
0.0
 40
1.499849999999999
100
AcDbArc
 50
234.62346
 51
305.37654
  0
ARC
  5
131
330
36
100
AcDbEntity
  8
0
 62
     3
100
AcDbCircle
 10
267.299712
 20
220.047165
 30
0.0
 40
3.249674999999998
100
AcDbArc
 50
54.62346
 51
125.37654
  0
ARC
  5
132
330
36
100
AcDbEntity
  8
0
 62
     3
100
AcDbCircle
 10
270.049437
 20
223.919761
 30
0.0
 40
1.499849999999999
100
AcDbArc
 50
234.62346
 51
305.37654
  0
ARC
  5
133
330
36
100
AcDbEntity
  8
0
 62
     3
100
AcDbCircle
 10
272.799162
 20
220.047165
 30
0.0
 40
3.249674999999998
100
AcDbArc
 50
57.363102
 51
125.37654
  0
ARC
  5
134
330
36
100
AcDbEntity
  8
0
 62
     3
100
AcDbCircle
 10
275.360644
 20
224.046765
 30
0.0
 40
1.499849999999999
100
AcDbArc
 50
237.363102
 51
262.593242
  0
ARC
  5
135
330
36
100
AcDbEntity
  8
0
 62
     3
100
AcDbCircle
 10
274.973945
 20
224.046765
 30
0.0
 40
1.499849999999999
100
AcDbArc
 50
277.406758
 51
0.0
  0
ARC
  5
136
330
36
100
AcDbEntity
  8
0
 62
     3
100
AcDbCircle
 10
252.960348
 20
221.244199
 30
0.0
 40
0.249975
100
AcDbArc
 50
180.0
 51
270.0
  0
ARC
  5
137
330
36
100
AcDbEntity
  8
0
 62
     3
100
AcDbCircle
 10
252.960348
 20
227.993524
 30
0.0
 40
0.249975
100
AcDbArc
 50
90.0
 51
180.0
  0
ARC
  5
138
330
36
100
AcDbEntity
  8
0
 62
     3
100
AcDbCircle
 10
276.22382
 20
228.046365
 30
0.0
 40
0.249975
100
AcDbArc
 50
0.0
 51
90.0
  0
LINE
  5
139
330
36
100
AcDbEntity
  8
0
 62
     3
100
AcDbLine
 10
262.499073
 20
184.626238
 30
0.0
 11
262.499073
 21
191.093837
 31
0.0
  0
LINE
  5
13A
330
36
100
AcDbEntity
  8
0
 62
     3
100
AcDbLine
 10
163.09366
 20
190.244251
 30
0.0
 11
163.270561
 21
190.06735
 31
0.0
  0
LINE
  5
13B
330
36
100
AcDbEntity
  8
0
 62
     3
100
AcDbLine
 10
167.509094
 20
185.828818
 30
0.0
 11
167.685994
 21
185.651917
 31
0.0
  0
LINE
  5
13C
330
36
100
AcDbEntity
  8
0
 62
     3
100
AcDbLine
 10
167.332335
 20
185.652059
 30
0.0
 11
167.509235
 21
185.475158
 31
0.0
  0
LINE
  5
13D
330
36
100
AcDbEntity
  8
0
 62
     3
100
AcDbLine
 10
162.916901
 20
190.067492
 30
0.0
 11
163.093802
 21
189.890591
 31
0.0
  0
LINE
  5
13E
330
36
100
AcDbEntity
  8
0
 62
     3
100
AcDbLine
 10
163.003581
 20
190.157572
 30
0.0
 11
163.18034
 21
189.980813
 31
0.0
  0
LINE
  5
13F
330
36
100
AcDbEntity
  8
0
 62
     3
100
AcDbLine
 10
167.422556
 20
185.738596
 30
0.0
 11
167.599315
 21
185.561837
 31
0.0
  0
LINE
  5
140
330
36
100
AcDbEntity
  8
0
 62
     3
100
AcDbLine
 10
163.270561
 20
185.652059
 30
0.0
 11
163.09366
 21
185.475158
 31
0.0
  0
LINE
  5
141
330
36
100
AcDbEntity
  8
0
 62
     3
100
AcDbLine
 10
163.18034
 20
185.738596
 30
0.0
 11
163.003581
 21
185.561837
 31
0.0
  0
LINE
  5
142
330
36
100
AcDbEntity
  8
0
 62
     3
100
AcDbLine
 10
163.093802
 20
185.828818
 30
0.0
 11
162.916901
 21
185.651917
 31
0.0
  0
LINE
  5
143
330
36
100
AcDbEntity
  8
0
 62
     3
100
AcDbLine
 10
167.685994
 20
190.067492
 30
0.0
 11
167.509094
 21
189.890591
 31
0.0
  0
LINE
  5
144
330
36
100
AcDbEntity
  8
0
 62
     3
100
AcDbLine
 10
167.599315
 20
190.157572
 30
0.0
 11
167.422556
 21
189.980813
 31
0.0
  0
LINE
  5
145
330
36
100
AcDbEntity
  8
0
 62
     3
100
AcDbLine
 10
167.509235
 20
190.244251
 30
0.0
 11
167.332335
 21
190.06735
 31
0.0
  0
LINE
  5
146
330
36
100
AcDbEntity
  8
0
  6
CENTER
100
AcDbLine
 10
168.298543
 20
187.984692
 30
0.0
 11
168.5487179999999
 21
187.984692
 31
0.0
  0
LINE
  5
147
330
36
100
AcDbEntity
  8
0
  6
CENTER
100
AcDbLine
 10
168.298543
 20
187.734717
 30
0.0
 11
168.5487179999999
 21
187.734717
 31
0.0
  0
LINE
  5
148
330
36
100
AcDbEntity
  8
0
  6
CENTER
100
AcDbLine
 10
165.426435
 20
191.106975
 30
0.0
 11
165.426435
 21
190.856799
 31
0.0
  0
LINE
  5
149
330
36
100
AcDbEntity
  8
0
  6
CENTER
100
AcDbLine
 10
165.17646
 20
191.106975
 30
0.0
 11
165.17646
 21
190.856799
 31
0.0
  0
LINE
  5
14A
330
36
100
AcDbEntity
  8
0
  6
CENTER
100
AcDbLine
 10
162.054177
 20
187.984692
 30
0.0
 11
162.304353
 21
187.984692
 31
0.0
  0
LINE
  5
14B
330
36
100
AcDbEntity
  8
0
  6
CENTER
100
AcDbLine
 10
162.054177
 20
187.734717
 30
0.0
 11
162.304353
 21
187.734717
 31
0.0
  0
LINE
  5
14C
330
36
100
AcDbEntity
  8
0
  6
CENTER
100
AcDbLine
 10
165.17646
 20
184.862609
 30
0.0
 11
165.17646
 21
184.612434
 31
0.0
  0
LINE
  5
14D
330
36
100
AcDbEntity
  8
0
  6
CENTER
100
AcDbLine
 10
165.426435
 20
184.862609
 30
0.0
 11
165.426435
 21
184.612434
 31
0.0
  0
ARC
  5
14E
330
36
100
AcDbEntity
  8
0
 62
     3
100
AcDbCircle
 10
165.301448
 20
187.859704
 30
0.0
 40
3.249674999999998
100
AcDbArc
 50
357.795772
 51
2.204228
  0
ARC
  5
14F
330
36
100
AcDbEntity
  8
0
 62
     3
100
AcDbCircle
 10
165.301448
 20
187.859704
 30
0.0
 40
3.249674999999998
100
AcDbArc
 50
312.795772
 51
317.204228
  0
ARC
  5
150
330
36
100
AcDbEntity
  8
0
 62
     3
100
AcDbCircle
 10
165.301448
 20
187.859704
 30
0.0
 40
3.249674999999998
100
AcDbArc
 50
42.79577200000001
 51
47.204228
  0
ARC
  5
151
330
36
100
AcDbEntity
  8
0
 62
     3
100
AcDbCircle
 10
165.301448
 20
187.859704
 30
0.0
 40
3.249674999999998
100
AcDbArc
 50
87.795772
 51
92.20422799999999
  0
ARC
  5
152
330
36
100
AcDbEntity
  8
0
 62
     3
100
AcDbCircle
 10
165.301448
 20
187.859704
 30
0.0
 40
3.249674999999998
100
AcDbArc
 50
132.795772
 51
137.204228
  0
ARC
  5
153
330
36
100
AcDbEntity
  8
0
 62
     3
100
AcDbCircle
 10
165.301448
 20
187.859704
 30
0.0
 40
3.249674999999998
100
AcDbArc
 50
177.795772
 51
182.204228
  0
ARC
  5
154
330
36
100
AcDbEntity
  8
0
 62
     3
100
AcDbCircle
 10
165.301448
 20
187.859704
 30
0.0
 40
3.249674999999998
100
AcDbArc
 50
222.795772
 51
227.204228
  0
ARC
  5
155
330
36
100
AcDbEntity
  8
0
 62
     3
100
AcDbCircle
 10
165.301448
 20
187.859704
 30
0.0
 40
3.249674999999998
100
AcDbArc
 50
267.795772
 51
272.204228
  0
LINE
  5
156
330
36
100
AcDbEntity
  8
0
 62
     3
100
AcDbLine
 10
258.197004
 20
154.33839
 30
0.0
 11
258.197004
 21
150.363788
 31
0.0
  0
CIRCLE
  5
157
330
36
100
AcDbEntity
  8
0
 62
     3
100
AcDbCircle
 10
178.800098
 20
164.479357
 30
0.0
 40
2.464983
  0
LINE
  5
158
330
36
100
AcDbEntity
  8
0
 62
     3
100
AcDbLine
 10
167.288749
 20
228.243166
 30
0.0
 11
163.314147
 21
228.243166
 31
0.0
  0
ARC
  5
159
330
36
100
AcDbEntity
  8
0
 62
     3
100
AcDbCircle
 10
163.314147
 20
225.868403
 30
0.0
 40
2.374763
100
AcDbArc
 50
90.0
 51
180.0
  0
LINE
  5
15A
330
36
100
AcDbEntity
  8
0
 62
     3
100
AcDbLine
 10
160.939384
 20
225.868403
 30
0.0
 11
160.939384
 21
223.3686529999999
 31
0.0
  0
ARC
  5
15B
330
36
100
AcDbEntity
  8
0
 62
     3
100
AcDbCircle
 10
163.314147
 20
223.3686529999999
 30
0.0
 40
2.374763
100
AcDbArc
 50
180.0
 51
270.0
  0
LINE
  5
15C
330
36
100
AcDbEntity
  8
0
 62
     3
100
AcDbLine
 10
163.741803
 20
220.993891
 30
0.0
 11
163.113398
 21
219.029877
 31
0.0
  0
LINE
  5
15D
330
36
100
AcDbEntity
  8
0
 62
     3
100
AcDbLine
 10
160.939384
 20
224.657432
 30
0.0
 11
158.954948
 21
218.455278
 31
0.0
  0
ARC
  5
15E
330
36
100
AcDbEntity
  8
0
 62
     3
100
AcDbCircle
 10
167.288749
 20
223.3686529999999
 30
0.0
 40
2.374763
100
AcDbArc
 50
270.0
 51
0.0
  0
LINE
  5
15F
330
36
100
AcDbEntity
  8
0
 62
     3
100
AcDbLine
 10
169.663512
 20
225.868403
 30
0.0
 11
169.663512
 21
223.3686529999999
 31
0.0
  0
LINE
  5
160
330
36
100
AcDbEntity
  8
0
 62
     3
100
AcDbLine
 10
169.663512
 20
224.657432
 30
0.0
 11
171.647948
 21
218.455278
 31
0.0
  0
LINE
  5
161
330
36
100
AcDbEntity
  8
0
 62
     3
100
AcDbLine
 10
166.861093
 20
220.993891
 30
0.0
 11
167.489497
 21
219.029877
 31
0.0
  0
LINE
  5
162
330
36
100
AcDbEntity
  8
0
 62
     3
100
AcDbLine
 10
167.288749
 20
220.993891
 30
0.0
 11
163.314147
 21
220.993891
 31
0.0
  0
ARC
  5
163
330
36
100
AcDbEntity
  8
0
 62
     3
100
AcDbCircle
 10
167.288749
 20
225.868403
 30
0.0
 40
2.374763
100
AcDbArc
 50
0.0
 51
90.0
  0
CIRCLE
  5
164
330
36
100
AcDbEntity
  8
0
 62
     3
100
AcDbCircle
 10
165.301448
 20
187.859704
 30
0.0
 40
2.999699999999998
  0
CIRCLE
  5
165
330
36
100
AcDbEntity
  8
0
 62
     3
100
AcDbCircle
 10
165.301448
 20
187.859704
 30
0.0
 40
1.9998
  0
LINE
  5
166
330
36
100
AcDbEntity
  8
0
 62
     3
100
AcDbLine
 10
138.433476
 20
154.317502
 30
0.0
 11
142.373243
 21
166.630842
 31
0.0
  0
LINE
  5
167
330
36
100
AcDbEntity
  8
0
 62
     3
100
AcDbLine
 10
142.032034
 20
153.142211
 30
0.0
 11
145.42578
 21
163.749021
 31
0.0
  0
LINE
  5
168
330
36
100
AcDbEntity
  8
0
 62
     3
100
AcDbLine
 10
188.560884
 20
153.173396
 30
0.0
 11
185.177115
 21
163.749021
 31
0.0
  0
LINE
  5
169
330
36
100
AcDbEntity
  8
0
 62
     3
100
AcDbLine
 10
192.175529
 20
154.298406
 30
0.0
 11
188.229653
 21
166.630842
 31
0.0
  0
LINE
  5
16A
330
36
100
AcDbEntity
  8
0
 62
     3
100
AcDbLine
 10
256.561121
 20
162.504828
 30
0.0
 11
256.561121
 21
162.598943
 31
0.0
  0
ARC
  5
16B
330
36
100
AcDbEntity
  8
0
 62
     3
100
AcDbCircle
 10
260.890234
 20
163.042575
 30
0.0
 40
0.855452
100
AcDbArc
 50
245.810011
 51
280.91675
  0
ARC
  5
16C
330
36
100
AcDbEntity
  8
0
 62
     3
100
AcDbCircle
 10
258.479713
 20
158.242493
 30
0.0
 40
4.516848
100
AcDbArc
 50
62.86634200000001
 51
81.175563
  0
ARC
  5
16D
330
36
100
AcDbEntity
  8
0
 62
     3
100
AcDbCircle
 10
258.226555
 20
154.362226
 30
0.0
 40
8.397115
100
AcDbArc
 50
83.53094200000004
 51
100.883254
  0
ARC
  5
16E
330
36
100
AcDbEntity
  8
0
 62
     3
100
AcDbCircle
 10
256.668052
 20
162.504828
 30
0.0
 40
0.106931
100
AcDbArc
 50
97.077178
 51
180.0
  0
LINE
  5
16F
330
36
100
AcDbEntity
  8
0
 62
     3
100
AcDbLine
 10
256.561121
 20
162.331615
 30
0.0
 11
256.561121
 21
162.504828
 31
0.0
  0
LINE
  5
170
330
36
100
AcDbEntity
  8
0
 62
     3
100
AcDbLine
 10
256.561121
 20
162.331615
 30
0.0
 11
256.561121
 21
160.88804
 31
0.0
  0
LINE
  5
171
330
36
100
AcDbEntity
  8
0
 62
     3
100
AcDbLine
 10
256.561121
 20
159.271252
 30
0.0
 11
256.561121
 21
160.88804
 31
0.0
  0
ARC
  5
172
330
36
100
AcDbEntity
  8
0
 62
     3
100
AcDbCircle
 10
256.668052
 20
159.271252
 30
0.0
 40
0.106931
100
AcDbArc
 50
180.0
 51
262.922822
  0
ARC
  5
173
330
36
100
AcDbEntity
  8
0
 62
     3
100
AcDbCircle
 10
258.226555
 20
167.413854
 30
0.0
 40
8.397115
100
AcDbArc
 50
259.116746
 51
276.4690580000001
  0
ARC
  5
174
330
36
100
AcDbEntity
  8
0
 62
     3
100
AcDbCircle
 10
258.479713
 20
163.533587
 30
0.0
 40
4.516848
100
AcDbArc
 50
278.824437
 51
297.133658
  0
ARC
  5
175
330
36
100
AcDbEntity
  8
0
 62
     3
100
AcDbCircle
 10
260.890234
 20
158.733505
 30
0.0
 40
0.855452
100
AcDbArc
 50
79.08325000000002
 51
114.1899889999999
  0
LINE
  5
176
330
36
100
AcDbEntity
  8
0
 62
     3
100
AcDbLine
 10
261.20457
 20
157.488075
 30
0.0
 11
261.20457
 21
162.323163
 31
0.0
  0
LINE
  5
177
330
36
100
AcDbEntity
  8
0
 62
     3
100
AcDbLine
 10
262.124111
 20
190.609763
 30
0.0
 11
262.124111
 21
185.110313
 31
0.0
  0
ARC
  5
178
330
36
100
AcDbEntity
  8
0
 62
     3
100
AcDbCircle
 10
262.624061
 20
185.110313
 30
0.0
 40
0.4999500000000002
100
AcDbArc
 50
180.0
 51
270.0
  0
ARC
  5
179
330
36
100
AcDbEntity
  8
0
 62
     3
100
AcDbCircle
 10
262.624061
 20
190.609763
 30
0.0
 40
0.4999500000000002
100
AcDbArc
 50
90.0
 51
180.0
  0
LINE
  5
17A
330
36
100
AcDbEntity
  8
0
 62
     3
100
AcDbLine
 10
264.123911
 20
191.109713
 30
0.0
 11
262.624061
 21
191.109713
 31
0.0
  0
LINE
  5
17B
330
36
100
AcDbEntity
  8
0
 62
     3
100
AcDbLine
 10
264.123911
 20
184.6103629999999
 30
0.0
 11
262.624061
 21
184.6103629999999
 31
0.0
  0
LINE
  5
17C
330
36
100
AcDbEntity
  8
0
 62
     3
100
AcDbLine
 10
252.710373
 20
221.244199
 30
0.0
 11
252.710373
 21
227.993524
 31
0.0
  0
ARC
  5
17D
330
36
100
AcDbEntity
  8
0
 62
     3
100
AcDbCircle
 10
256.285015
 20
219.994324
 30
0.0
 40
3.249674999999998
100
AcDbArc
 50
54.62346
 51
161.112118
  0
ARC
  5
17E
330
36
100
AcDbEntity
  8
0
 62
     3
100
AcDbCircle
 10
276.9727759999999
 20
211.83264
 30
0.0
 40
1.29987
100
AcDbArc
 50
0.0
 51
179.99999
  0
ARC
  5
17F
330
36
100
AcDbEntity
  8
0
 62
     3
100
AcDbCircle
 10
274.373036
 20
211.83264
 30
0.0
 40
1.29987
100
AcDbArc
 50
0.0
 51
179.99999
  0
ARC
  5
180
330
36
100
AcDbEntity
  8
0
 62
     3
100
AcDbCircle
 10
271.773296
 20
211.83264
 30
0.0
 40
1.29987
100
AcDbArc
 50
0.0
 51
179.99999
  0
ARC
  5
181
330
36
100
AcDbEntity
  8
0
 62
     3
100
AcDbCircle
 10
269.173556
 20
211.83264
 30
0.0
 40
1.29987
100
AcDbArc
 50
0.0
 51
179.99999
  0
ARC
  5
182
330
36
100
AcDbEntity
  8
0
 62
     3
100
AcDbCircle
 10
266.573816
 20
211.83264
 30
0.0
 40
1.29987
100
AcDbArc
 50
0.0
 51
179.99999
  0
ARC
  5
183
330
36
100
AcDbEntity
  8
0
 62
     3
100
AcDbCircle
 10
279.572516
 20
211.83264
 30
0.0
 40
1.29987
100
AcDbArc
 50
0.0
 51
179.99999
  0
ARC
  5
184
330
36
100
AcDbEntity
  8
0
 62
     3
100
AcDbCircle
 10
282.172256
 20
211.83264
 30
0.0
 40
1.29987
100
AcDbArc
 50
0.0
 51
179.99999
  0
ARC
  5
185
330
36
100
AcDbEntity
  8
0
 62
     3
100
AcDbCircle
 10
284.771996
 20
211.83264
 30
0.0
 40
1.29987
100
AcDbArc
 50
0.0
 51
179.99999
  0
ARC
  5
186
330
36
100
AcDbEntity
  8
0
 62
     3
100
AcDbCircle
 10
287.371736
 20
211.83264
 30
0.0
 40
1.29987
100
AcDbArc
 50
0.0
 51
179.99999
  0
ARC
  5
187
330
36
100
AcDbEntity
  8
0
 62
     3
100
AcDbCircle
 10
289.971476
 20
211.83264
 30
0.0
 40
1.29987
100
AcDbArc
 50
0.0
 51
179.99999
  0
ARC
  5
188
330
36
100
AcDbEntity
  8
0
 62
     3
100
AcDbCircle
 10
292.571216
 20
211.83264
 30
0.0
 40
1.29987
100
AcDbArc
 50
0.0
 51
180.000007
  0
ARC
  5
189
330
36
100
AcDbEntity
  8
0
 62
     3
100
AcDbCircle
 10
291.071216
 20
163.887435
 30
0.0
 40
1.29987
100
AcDbArc
 50
179.999993
 51
0.0
  0
ARC
  5
18A
330
36
100
AcDbEntity
  8
0
 62
     3
100
AcDbCircle
 10
288.471476
 20
163.887435
 30
0.0
 40
1.29987
100
AcDbArc
 50
180.00001
 51
0.0
  0
ARC
  5
18B
330
36
100
AcDbEntity
  8
0
 62
     3
100
AcDbCircle
 10
275.472776
 20
163.887435
 30
0.0
 40
1.29987
100
AcDbArc
 50
180.00001
 51
0.0
  0
ARC
  5
18C
330
36
100
AcDbEntity
  8
0
 62
     3
100
AcDbCircle
 10
272.873036
 20
163.887435
 30
0.0
 40
1.29987
100
AcDbArc
 50
180.00001
 51
0.0
  0
ARC
  5
18D
330
36
100
AcDbEntity
  8
0
 62
     3
100
AcDbCircle
 10
270.273296
 20
163.887435
 30
0.0
 40
1.29987
100
AcDbArc
 50
180.00001
 51
0.0
  0
ARC
  5
18E
330
36
100
AcDbEntity
  8
0
 62
     3
100
AcDbCircle
 10
267.673556
 20
163.887435
 30
0.0
 40
1.29987
100
AcDbArc
 50
180.00001
 51
0.0
  0
ARC
  5
18F
330
36
100
AcDbEntity
  8
0
 62
     3
100
AcDbCircle
 10
278.072516
 20
163.887435
 30
0.0
 40
1.29987
100
AcDbArc
 50
180.00001
 51
0.0
  0
ARC
  5
190
330
36
100
AcDbEntity
  8
0
 62
     3
100
AcDbCircle
 10
280.672256
 20
163.887435
 30
0.0
 40
1.29987
100
AcDbArc
 50
180.00001
 51
0.0
  0
ARC
  5
191
330
36
100
AcDbEntity
  8
0
 62
     3
100
AcDbCircle
 10
283.271996
 20
163.887435
 30
0.0
 40
1.29987
100
AcDbArc
 50
180.00001
 51
0.0
  0
ARC
  5
192
330
36
100
AcDbEntity
  8
0
 62
     3
100
AcDbCircle
 10
285.871736
 20
163.887435
 30
0.0
 40
1.29987
100
AcDbArc
 50
180.00001
 51
0.0
  0
ARC
  5
193
330
36
100
AcDbEntity
  8
0
 62
     3
100
AcDbCircle
 10
265.073816
 20
163.887435
 30
0.0
 40
1.29987
100
AcDbArc
 50
180.00001
 51
0.0
  0
LWPOLYLINE
  5
194
330
36
100
AcDbEntity
  8
0
100
AcDbPolyline
 90
       27
 70
     0
 43
0.0
 10
297.626323
 20
207.945271
 10
295.242322
 20
207.721743
 10
292.8696720000001
 20
207.374409
 10
290.519725
 20
206.779463
 10
288.161052
 20
205.796196
 10
286.039385
 20
204.412467
 10
284.355439
 20
202.623629
 10
283.394602
 20
200.879514
 10
282.66731
 20
198.980793
 10
281.981457
 20
197.046049
 10
281.144936
 20
195.193867
 10
279.891713
 20
193.25933
 10
278.67741
 20
191.300792
 10
277.941111
 20
189.273563
 10
277.636823
 20
187.097896
 10
277.747875
 20
184.890642
 10
278.257598
 20
182.768647
 10
279.337165
 20
180.466697
 10
280.785529
 20
178.356093
 10
282.171547
 20
176.701575
 10
283.720209
 20
175.225689
 10
285.457822
 20
174.040187
 10
288.186776
 20
172.978108
 10
291.105649
 20
172.3549
 10
293.170368
 20
172.012922
 10
295.223138
 20
171.7043929999999
 10
297.269936
 20
171.412588
  0
LINE
  5
1B1
330
36
100
AcDbEntity
  8
0
 62
     3
100
AcDbLine
 10
278.272646
 20
211.83264
 30
0.0
 11
276.772646
 21
163.887435
 31
0.0
  0
LINE
  5
1B2
330
36
100
AcDbEntity
  8
0
 62
     3
100
AcDbLine
 10
275.672906
 20
211.83264
 30
0.0
 11
274.172906
 21
163.887435
 31
0.0
  0
LINE
  5
1B3
330
36
100
AcDbEntity
  8
0
 62
     3
100
AcDbLine
 10
273.073166
 20
211.83264
 30
0.0
 11
271.573166
 21
163.887435
 31
0.0
  0
LINE
  5
1B4
330
36
100
AcDbEntity
  8
0
 62
     3
100
AcDbLine
 10
270.4734259999999
 20
211.83264
 30
0.0
 11
268.973426
 21
163.887435
 31
0.0
  0
LINE
  5
1B5
330
36
100
AcDbEntity
  8
0
 62
     3
100
AcDbLine
 10
267.873686
 20
211.83264
 30
0.0
 11
266.373686
 21
163.887435
 31
0.0
  0
LINE
  5
1B6
330
36
100
AcDbEntity
  8
0
 62
     3
100
AcDbLine
 10
265.273946
 20
211.83264
 30
0.0
 11
264.123911
 21
171.961628
 31
0.0
  0
LINE
  5
1B7
330
36
100
AcDbEntity
  8
0
 62
     3
100
AcDbLine
 10
291.118975
 20
206.962333
 30
0.0
 11
291.271346
 21
211.83264
 31
0.0
  0
LINE
  5
1B8
330
36
100
AcDbEntity
  8
0
 62
     3
100
AcDbLine
 10
290.042389
 20
172.550927
 30
0.0
 11
289.771346
 21
163.887435
 31
0.0
  0
LINE
  5
1B9
330
36
100
AcDbEntity
  8
0
 62
     3
100
AcDbLine
 10
288.487906
 20
205.960941
 30
0.0
 11
288.671606
 21
211.83264
 31
0.0
  0
LINE
  5
1BA
330
36
100
AcDbEntity
  8
0
 62
     3
100
AcDbLine
 10
287.462774
 20
173.194174
 30
0.0
 11
287.171606
 21
163.887435
 31
0.0
  0
LINE
  5
1BB
330
36
100
AcDbEntity
  8
0
 62
     3
100
AcDbLine
 10
285.834329
 20
204.24014
 30
0.0
 11
286.071866
 21
211.83264
 31
0.0
  0
LINE
  5
1BC
330
36
100
AcDbEntity
  8
0
 62
     3
100
AcDbLine
 10
284.89977
 20
174.368383
 30
0.0
 11
284.571866
 21
163.887435
 31
0.0
  0
LINE
  5
1BD
330
36
100
AcDbEntity
  8
0
 62
     3
100
AcDbLine
 10
283.107778
 20
200.186826
 30
0.0
 11
283.472126
 21
211.83264
 31
0.0
  0
LINE
  5
1BE
330
36
100
AcDbEntity
  8
0
 62
     3
100
AcDbLine
 10
282.36652
 20
176.493647
 30
0.0
 11
281.972126
 21
163.887435
 31
0.0
  0
LINE
  5
1BF
330
36
100
AcDbEntity
  8
0
 62
     3
100
AcDbLine
 10
280.310265
 20
193.865307
 30
0.0
 11
280.872386
 21
211.83264
 31
0.0
  0
LINE
  5
1C0
330
36
100
AcDbEntity
  8
0
 62
     3
100
AcDbLine
 10
279.864909
 20
179.630175
 30
0.0
 11
279.372386
 21
163.887435
 31
0.0
  0
LINE
  5
1C1
330
36
100
AcDbEntity
  8
0
 62
     3
100
AcDbLine
 10
293.736279
 20
207.52376
 30
0.0
 11
293.871086
 21
211.83264
 31
0.0
  0
LINE
  5
1C2
330
36
100
AcDbEntity
  8
0
 62
     3
100
AcDbLine
 10
292.627992
 20
172.09906
 30
0.0
 11
292.371086
 21
163.887435
 31
0.0
  0
LINE
  5
1C3
330
36
100
AcDbEntity
  8
0
 62
     3
100
AcDbLine
 10
306.948241
 20
181.239155
 30
0.0
 11
306.948241
 21
169.057343
 31
0.0
  0
LINE
  5
1C4
330
36
100
AcDbEntity
  8
0
 62
     3
100
AcDbLine
 10
309.558796
 20
181.389832
 30
0.0
 11
309.558796
 21
169.208022
 31
0.0
  0
ARC
  5
1CF
330
36
100
AcDbEntity
  8
0
100
AcDbCircle
 10
165.301448
 20
187.859704
 30
0.0
 40
22.248492
100
AcDbArc
 50
253.817409
 51
286.182591
  0
LINE
  5
1D0
330
36
100
AcDbEntity
  8
0
100
AcDbLine
 10
159.100809
 20
166.492733
 30
0.0
 11
157.361273
 21
160.498415
 31
0.0
  0
ARC
  5
1D1
330
36
100
AcDbEntity
  8
0
100
AcDbCircle
 10
165.301448
 20
187.859704
 30
0.0
 40
28.490113
100
AcDbArc
 50
253.817409
 51
286.182591
  0
LINE
  5
1D2
330
36
100
AcDbEntity
  8
0
100
AcDbLine
 10
171.502087
 20
166.492733
 30
0.0
 11
173.241623
 21
160.498415
 31
0.0
  0
LWPOLYLINE
  5
1D3
330
36
100
AcDbEntity
  8
0
100
AcDbPolyline
 90
        3
 70
     0
 43
0.0
 10
162.465191
 20
159.377345
 10
163.006987
 20
161.375756
 10
161.538573
 20
159.915979
  0
LINE
  5
1D8
330
36
100
AcDbEntity
  8
0
100
AcDbLine
 10
163.006987
 20
161.375756
 30
0.0
 11
154.340889
 21
146.467373
 31
0.0
  0
LINE
  5
1D9
330
36
100
AcDbEntity
  8
0
100
AcDbLine
 10
154.340889
 20
146.467373
 30
0.0
 11
173.5908889999999
 21
146.467373
 31
0.0
  0
TEXT
  5
1DA
330
36
100
AcDbEntity
  8
0
 62
     4
100
AcDbText
 10
157.090889
 20
147.467373
 30
0.0
 40
3.2
  1
型式ラベル
 41
0.716146
100
AcDbText
  0
LINE
  5
21B
330
36
100
AcDbEntity
  8
0
 62
     3
100
AcDbLine
 10
292.481395
 20
227.856038
 30
0.0
 11
276.473795
 21
227.856038
 31
0.0
  0
LINE
  5
21C
330
36
100
AcDbEntity
  8
0
 62
     3
100
AcDbLine
 10
262.796806
 20
168.611963
 30
0.0
 11
263.777465
 21
166.89581
 31
0.0
  0
LINE
  5
21D
330
36
100
AcDbEntity
  8
0
 62
     3
100
AcDbLine
 10
262.796806
 20
168.611963
 30
0.0
 11
263.773946
 21
170.321957
 31
0.0
  0
ARC
  5
21E
330
36
100
AcDbEntity
  8
0
 62
     3
100
AcDbCircle
 10
262.891463
 20
161.9787409999999
 30
0.0
 40
0.213863
100
AcDbArc
 50
0.0
 51
90.0
  0
ARC
  5
21F
330
36
100
AcDbEntity
  8
0
 62
     3
100
AcDbCircle
 10
262.891463
 20
159.797339
 30
0.0
 40
0.213863
100
AcDbArc
 50
270.0
 51
0.0
  0
LINE
  5
220
330
36
100
AcDbEntity
  8
0
 62
     3
100
AcDbLine
 10
262.891463
 20
159.583476
 30
0.0
 11
262.763145
 21
159.583476
 31
0.0
  0
LINE
  5
221
330
36
100
AcDbEntity
  8
0
 62
     3
100
AcDbLine
 10
262.763145
 20
162.192604
 30
0.0
 11
262.891463
 21
162.192604
 31
0.0
  0
LWPOLYLINE
  5
222
330
36
100
AcDbEntity
  8
0
 62
     3
100
AcDbPolyline
 90
        5
 70
     0
 43
0.0
 10
314.452004
 20
161.567734
 10
313.902683
 20
161.594995
 10
313.359628
 20
161.656691
 10
313.174866
 20
161.689046
 10
312.990995
 20
161.726941
  0
LINE
  5
230
330
36
100
AcDbEntity
  8
0
 62
     3
100
AcDbLine
 10
370.032503
 20
190.690489
 30
0.0
 11
362.032503
 21
190.690489
 31
0.0
  0
LINE
  5
231
330
36
100
AcDbEntity
  8
0
100
AcDbLine
 10
358.032503
 20
161.6904889999999
 30
0.0
 11
374.032503
 21
161.6904889999999
 31
0.0
  0
LINE
  5
232
330
36
100
AcDbEntity
  8
0
100
AcDbLine
 10
361.032503
 20
172.690489
 30
0.0
 11
371.032503
 21
172.690489
 31
0.0
  0
LWPOLYLINE
  5
233
330
36
100
AcDbEntity
  8
0
 62
     3
100
AcDbPolyline
 90
        5
 70
     0
 43
0.0
 10
311.968537
 20
164.756755
 10
312.85274
 20
164.453569
 10
313.754522
 20
164.238985
 10
314.059281
 20
164.200505
 10
314.365964
 20
164.171721
  0
LWPOLYLINE
  5
23A
330
36
100
AcDbEntity
  8
0
 62
     3
100
AcDbPolyline
 90
        5
 70
     0
 43
0.0
 10
312.312677
 20
161.90286
 10
312.833831
 20
161.765021
 10
313.359628
 20
161.656691
 10
313.903405
 20
161.596891
 10
314.452004
 20
161.567734
  0
LWPOLYLINE
  5
241
330
36
100
AcDbEntity
  8
0
 62
     3
100
AcDbPolyline
 90
        5
 70
     0
 43
0.0
 10
304.194359
 20
188.544317
 10
303.673297
 20
188.682415
 10
303.147409
 20
188.790486
 10
302.668925
 20
188.844842
 10
302.186559
 20
188.875046
  0
LWPOLYLINE
  5
248
330
36
100
AcDbEntity
  8
0
 62
     3
100
AcDbPolyline
 90
        5
 70
     0
 43
0.0
 10
304.5385
 20
185.690422
 10
303.654374
 20
185.993473
 10
302.752514
 20
186.208192
 10
302.4768180000001
 20
186.243833
 10
302.199532
 20
186.271561
  0
LINE
  5
24F
330
36
100
AcDbEntity
  8
0
100
AcDbLine
 10
275.72387
 20
222.747857
 30
0.0
 11
275.72387
 21
228.421327
 31
0.0
  0
ARC
  5
250
330
36
100
AcDbEntity
  8
0
100
AcDbCircle
 10
256.285015
 20
219.994324
 30
0.0
 40
5.874412999999997
100
AcDbArc
 50
68.106572
 51
121.56088
  0
ARC
  5
251
330
36
100
AcDbEntity
  8
0
100
AcDbCircle
 10
261.784465
 20
219.994324
 30
0.0
 40
5.874412999999997
100
AcDbArc
 50
68.106572
 51
111.893428
  0
ARC
  5
252
330
36
100
AcDbEntity
  8
0
100
AcDbCircle
 10
267.299712
 20
220.047165
 30
0.0
 40
5.874412999999997
100
AcDbArc
 50
68.106572
 51
111.893428
  0
ARC
  5
253
330
36
100
AcDbEntity
  8
0
100
AcDbCircle
 10
272.799162
 20
220.047165
 30
0.0
 40
5.874412999999997
100
AcDbArc
 50
60.14066500000001
 51
111.893428
  0
ARC
  5
254
330
36
100
AcDbEntity
  8
0
100
AcDbCircle
 10
259.03474
 20
226.836747
 30
0.0
 40
1.499849999999999
100
AcDbArc
 50
248.106572
 51
291.893428
  0
ARC
  5
255
330
36
100
AcDbEntity
  8
0
100
AcDbCircle
 10
264.549987
 20
226.889589
 30
0.0
 40
1.499849999999999
100
AcDbArc
 50
248.106572
 51
291.893428
  0
ARC
  5
256
330
36
100
AcDbEntity
  8
0
100
AcDbCircle
 10
270.049437
 20
226.889589
 30
0.0
 40
1.499849999999999
100
AcDbArc
 50
248.106572
 51
291.893428
  0
LINE
  5
257
330
36
100
AcDbEntity
  8
0
100
AcDbLine
 10
253.210323
 20
220.994224
 30
0.0
 11
253.210323
 21
228.368486
 31
0.0
  0
LINE
  5
258
330
36
100
AcDbEntity
  8
0
100
AcDbLine
 10
294.920831
 20
191.109713
 30
0.0
 11
294.920831
 21
207.108113
 31
0.0
  0
LINE
  5
259
330
36
100
AcDbEntity
  8
0
100
AcDbLine
 10
294.77904
 20
207.356246
 30
0.0
 11
294.77904
 21
217.357088
 31
0.0
  0
LINE
  5
25A
330
36
100
AcDbEntity
  8
0
100
AcDbLine
 10
262.765852
 20
207.356246
 30
0.0
 11
262.765852
 21
217.357088
 31
0.0
  0
LINE
  5
25B
330
36
100
AcDbEntity
  8
0
100
AcDbLine
 10
262.624061
 20
191.109713
 30
0.0
 11
262.624061
 21
207.108113
 31
0.0
  0
LINE
  5
25C
330
36
100
AcDbEntity
  8
0
100
AcDbLine
 10
294.920831
 20
168.611963
 30
0.0
 11
294.920831
 21
184.6103629999999
 31
0.0
  0
LINE
  5
25D
330
36
100
AcDbEntity
  8
0
100
AcDbLine
 10
262.624061
 20
168.611963
 30
0.0
 11
262.624061
 21
184.6103629999999
 31
0.0
  0
LINE
  5
25E
330
36
100
AcDbEntity
  8
0
100
AcDbLine
 10
264.123911
 20
186.110213
 30
0.0
 11
262.499073
 21
186.110213
 31
0.0
  0
LINE
  5
25F
330
36
100
AcDbEntity
  8
0
100
AcDbLine
 10
264.123911
 20
188.110013
 30
0.0
 11
262.499073
 21
188.110013
 31
0.0
  0
LINE
  5
260
330
36
100
AcDbEntity
  8
0
100
AcDbLine
 10
264.123911
 20
187.610063
 30
0.0
 11
262.499073
 21
187.610063
 31
0.0
  0
LINE
  5
261
330
36
100
AcDbEntity
  8
0
100
AcDbLine
 10
264.123911
 20
189.609863
 30
0.0
 11
262.499073
 21
189.609863
 31
0.0
  0
LINE
  5
262
330
36
100
AcDbEntity
  8
0
100
AcDbLine
 10
292.297213
 20
197.983934
 30
0.0
 11
293.297104
 21
197.983934
 31
0.0
  0
ARC
  5
263
330
36
100
AcDbEntity
  8
0
100
AcDbCircle
 10
292.953391
 20
198.608866
 30
0.0
 40
0.906151
100
AcDbArc
 50
136.397181
 51
223.6028189999999
  0
LINE
  5
264
330
36
100
AcDbEntity
  8
0
100
AcDbLine
 10
292.297213
 20
199.233798
 30
0.0
 11
293.297104
 21
199.233798
 31
0.0
  0
LINE
  5
265
330
36
100
AcDbEntity
  8
0
100
AcDbLine
 10
287.347753
 20
199.233798
 30
0.0
 11
292.04724
 21
199.233798
 31
0.0
  0
LINE
  5
266
330
36
100
AcDbEntity
  8
0
100
AcDbLine
 10
287.347753
 20
197.983934
 30
0.0
 11
292.04724
 21
197.983934
 31
0.0
  0
LINE
  5
267
330
36
100
AcDbEntity
  8
0
100
AcDbLine
 10
292.04724
 20
197.674951
 30
0.0
 11
292.04724
 21
199.542781
 31
0.0
  0
ARC
  5
268
330
36
100
AcDbEntity
  8
0
100
AcDbCircle
 10
292.363189
 20
199.542781
 30
0.0
 40
0.315949
100
AcDbArc
 50
90.0
 51
257.946895
  0
LINE
  5
269
330
36
100
AcDbEntity
  8
0
100
AcDbLine
 10
292.363189
 20
199.85873
 30
0.0
 11
293.297104
 21
199.85873
 31
0.0
  0
LINE
  5
26A
330
36
100
AcDbEntity
  8
0
100
AcDbLine
 10
292.363189
 20
197.359002
 30
0.0
 11
293.297104
 21
197.359002
 31
0.0
  0
ARC
  5
26B
330
36
100
AcDbEntity
  8
0
100
AcDbCircle
 10
292.363189
 20
197.674951
 30
0.0
 40
0.315949
100
AcDbArc
 50
102.053105
 51
270.0
  0
LINE
  5
26C
330
36
100
AcDbEntity
  8
0
100
AcDbLine
 10
285.347971
 20
197.983934
 30
0.0
 11
284.098108
 21
197.983934
 31
0.0
  0
LINE
  5
26D
330
36
100
AcDbEntity
  8
0
100
AcDbLine
 10
285.347971
 20
199.233798
 30
0.0
 11
284.098108
 21
199.233798
 31
0.0
  0
LINE
  5
26E
330
36
100
AcDbEntity
  8
0
100
AcDbLine
 10
284.098108
 20
199.233798
 30
0.0
 11
284.098108
 21
197.983934
 31
0.0
  0
LINE
  5
26F
330
36
100
AcDbEntity
  8
0
100
AcDbLine
 10
287.347753
 20
177.736141
 30
0.0
 11
292.04724
 21
177.736141
 31
0.0
  0
LINE
  5
270
330
36
100
AcDbEntity
  8
0
100
AcDbLine
 10
287.347753
 20
176.486277
 30
0.0
 11
292.04724
 21
176.486277
 31
0.0
  0
LINE
  5
271
330
36
100
AcDbEntity
  8
0
100
AcDbLine
 10
292.04724
 20
176.177294
 30
0.0
 11
292.04724
 21
178.045125
 31
0.0
  0
ARC
  5
272
330
36
100
AcDbEntity
  8
0
100
AcDbCircle
 10
292.953391
 20
177.111209
 30
0.0
 40
0.906151
100
AcDbArc
 50
136.397181
 51
223.6028189999999
  0
LINE
  5
273
330
36
100
AcDbEntity
  8
0
100
AcDbLine
 10
292.297213
 20
177.736141
 30
0.0
 11
293.297104
 21
177.736141
 31
0.0
  0
LINE
  5
274
330
36
100
AcDbEntity
  8
0
100
AcDbLine
 10
292.297213
 20
176.486277
 30
0.0
 11
293.297104
 21
176.486277
 31
0.0
  0
ARC
  5
275
330
36
100
AcDbEntity
  8
0
100
AcDbCircle
 10
292.363189
 20
176.177294
 30
0.0
 40
0.315949
100
AcDbArc
 50
102.053105
 51
270.0
  0
LINE
  5
276
330
36
100
AcDbEntity
  8
0
100
AcDbLine
 10
292.363189
 20
175.861346
 30
0.0
 11
293.297104
 21
175.861346
 31
0.0
  0
ARC
  5
277
330
36
100
AcDbEntity
  8
0
100
AcDbCircle
 10
292.363189
 20
178.045125
 30
0.0
 40
0.315949
100
AcDbArc
 50
90.0
 51
257.946895
  0
LINE
  5
278
330
36
100
AcDbEntity
  8
0
100
AcDbLine
 10
292.363189
 20
178.361073
 30
0.0
 11
293.297104
 21
178.361073
 31
0.0
  0
LINE
  5
279
330
36
100
AcDbEntity
  8
0
100
AcDbLine
 10
285.347971
 20
176.486277
 30
0.0
 11
284.098108
 21
176.486277
 31
0.0
  0
LINE
  5
27A
330
36
100
AcDbEntity
  8
0
100
AcDbLine
 10
284.098108
 20
177.736141
 30
0.0
 11
284.098108
 21
176.486277
 31
0.0
  0
LINE
  5
27B
330
36
100
AcDbEntity
  8
0
100
AcDbLine
 10
285.347971
 20
177.736141
 30
0.0
 11
284.098108
 21
177.736141
 31
0.0
  0
LINE
  5
27C
330
36
100
AcDbEntity
  8
0
100
AcDbLine
 10
286.554624
 20
204.809286
 30
0.0
 11
293.770946
 21
204.83334
 31
0.0
  0
LINE
  5
27D
330
36
100
AcDbEntity
  8
0
100
AcDbLine
 10
287.341242
 20
205.33329
 30
0.0
 11
293.770946
 21
205.33329
 31
0.0
  0
LINE
  5
27E
330
36
100
AcDbEntity
  8
0
100
AcDbLine
 10
294.77904
 20
158.362988
 30
0.0
 11
294.77904
 21
168.363829
 31
0.0
  0
LINE
  5
27F
330
36
100
AcDbEntity
  8
0
100
AcDbLine
 10
262.765852
 20
158.362988
 30
0.0
 11
262.765852
 21
168.363829
 31
0.0
  0
ARC
  5
280
330
36
100
AcDbEntity
  8
0
100
AcDbCircle
 10
258.194528
 20
169.98021
 30
0.0
 40
8.397115
100
AcDbArc
 50
259.116746
 51
276.4690580000001
  0
ARC
  5
281
330
36
100
AcDbEntity
  8
0
100
AcDbCircle
 10
258.194528
 20
153.506774
 30
0.0
 40
8.397115
100
AcDbArc
 50
83.53094200000004
 51
100.883254
  0
ARC
  5
282
330
36
100
AcDbEntity
  8
0
100
AcDbCircle
 10
258.194528
 20
151.795871
 30
0.0
 40
8.397115
100
AcDbArc
 50
83.53094200000004
 51
100.883254
  0
ARC
  5
283
330
36
100
AcDbEntity
  8
0
100
AcDbCircle
 10
258.194528
 20
168.269306
 30
0.0
 40
8.397115
100
AcDbArc
 50
259.116746
 51
276.4690580000001
  0
ARC
  5
284
330
36
100
AcDbEntity
  8
0
100
AcDbCircle
 10
258.4476850000001
 20
155.676138
 30
0.0
 40
4.516848
100
AcDbArc
 50
74.470606
 51
81.175563
  0
ARC
  5
285
330
36
100
AcDbEntity
  8
0
100
AcDbCircle
 10
258.4476850000001
 20
164.389039
 30
0.0
 40
4.516848
100
AcDbArc
 50
278.824437
 51
285.529394
  0
ARC
  5
286
330
36
100
AcDbEntity
  8
0
100
AcDbCircle
 10
258.4476850000001
 20
157.387041
 30
0.0
 40
4.516848
100
AcDbArc
 50
74.470606
 51
81.175563
  0
ARC
  5
287
330
36
100
AcDbEntity
  8
0
100
AcDbCircle
 10
258.4476850000001
 20
166.099942
 30
0.0
 40
4.516848
100
AcDbArc
 50
278.824437
 51
285.529394
  0
LINE
  5
288
330
36
100
AcDbEntity
  8
0
100
AcDbLine
 10
263.105326
 20
161.422697
 30
0.0
 11
263.42612
 21
161.422697
 31
0.0
  0
LINE
  5
289
330
36
100
AcDbEntity
  8
0
100
AcDbLine
 10
263.105326
 20
160.353383
 30
0.0
 11
263.42612
 21
160.353383
 31
0.0
  0
LINE
  5
28A
330
36
100
AcDbEntity
  8
0
100
AcDbLine
 10
263.105326
 20
160.460314
 30
0.0
 11
263.533052
 21
160.460314
 31
0.0
  0
LINE
  5
28B
330
36
100
AcDbEntity
  8
0
100
AcDbLine
 10
263.42612
 20
161.422697
 30
0.0
 11
263.42612
 21
160.353383
 31
0.0
  0
LINE
  5
28C
330
36
100
AcDbEntity
  8
0
100
AcDbLine
 10
263.533052
 20
160.460314
 30
0.0
 11
263.533052
 21
161.315766
 31
0.0
  0
LINE
  5
28D
330
36
100
AcDbEntity
  8
0
100
AcDbLine
 10
263.533052
 20
160.460314
 30
0.0
 11
263.42612
 21
160.353383
 31
0.0
  0
LINE
  5
28E
330
36
100
AcDbEntity
  8
0
100
AcDbLine
 10
263.105326
 20
161.315766
 30
0.0
 11
263.533052
 21
161.315766
 31
0.0
  0
ARC
  5
28F
330
36
100
AcDbEntity
  8
0
100
AcDbCircle
 10
165.301448
 20
187.859704
 30
0.0
 40
15.748425
100
AcDbArc
 50
217.398142
 51
322.601858
  0
CIRCLE
  5
290
330
36
100
AcDbEntity
  8
0
100
AcDbCircle
 10
178.723499
 20
180.110479
 30
0.0
 40
0.6249380000000003
  0
ARC
  5
291
330
36
100
AcDbEntity
  8
0
100
AcDbCircle
 10
177.613948
 20
178.446719
 30
0.0
 40
0.249975
100
AcDbArc
 50
322.601858
 51
56.30092900000002
  0
ARC
  5
292
330
36
100
AcDbEntity
  8
0
100
AcDbCircle
 10
178.723499
 20
180.110479
 30
0.0
 40
1.749824999999999
100
AcDbArc
 50
63.69907099999997
 51
236.300929
  0
ARC
  5
293
330
36
100
AcDbEntity
  8
0
100
AcDbCircle
 10
165.301448
 20
187.859704
 30
0.0
 40
15.748425
100
AcDbArc
 50
337.398142
 51
82.601858
  0
ARC
  5
294
330
36
100
AcDbEntity
  8
0
100
AcDbCircle
 10
179.609582
 20
181.903258
 30
0.0
 40
0.249975
100
AcDbArc
 50
243.6990709999999
 51
337.398142
  0
ARC
  5
295
330
36
100
AcDbEntity
  8
0
100
AcDbCircle
 10
167.297082
 20
203.229135
 30
0.0
 40
0.249975
100
AcDbArc
 50
82.601858
 51
176.300929
  0
ARC
  5
296
330
36
100
AcDbEntity
  8
0
100
AcDbCircle
 10
165.301448
 20
203.358154
 30
0.0
 40
1.749824999999999
100
AcDbArc
 50
183.699071
 51
356.3009290000001
  0
CIRCLE
  5
297
330
36
100
AcDbEntity
  8
0
100
AcDbCircle
 10
165.301448
 20
203.358154
 30
0.0
 40
0.6249380000000003
  0
ARC
  5
298
330
36
100
AcDbEntity
  8
0
100
AcDbCircle
 10
163.305814
 20
203.229135
 30
0.0
 40
0.249975
100
AcDbArc
 50
3.699070999999998
 51
97.398142
  0
ARC
  5
299
330
36
100
AcDbEntity
  8
0
100
AcDbCircle
 10
165.301448
 20
187.859704
 30
0.0
 40
15.748425
100
AcDbArc
 50
97.398142
 51
202.6018580000001
  0
ARC
  5
29A
330
36
100
AcDbEntity
  8
0
100
AcDbCircle
 10
150.993314
 20
181.903258
 30
0.0
 40
0.249975
100
AcDbArc
 50
202.6018580000001
 51
296.3009289999999
  0
ARC
  5
29B
330
36
100
AcDbEntity
  8
0
100
AcDbCircle
 10
151.879396
 20
180.110479
 30
0.0
 40
1.749824999999999
100
AcDbArc
 50
303.699071
 51
116.300929
  0
CIRCLE
  5
29C
330
36
100
AcDbEntity
  8
0
100
AcDbCircle
 10
151.879396
 20
180.110479
 30
0.0
 40
0.6249380000000003
  0
ARC
  5
29D
330
36
100
AcDbEntity
  8
0
100
AcDbCircle
 10
152.988947
 20
178.446719
 30
0.0
 40
0.249975
100
AcDbArc
 50
123.6990709999999
 51
217.398142
  0
CIRCLE
  5
29E
330
36
100
AcDbEntity
  8
0
100
AcDbCircle
 10
178.800098
 20
164.479357
 30
0.0
 40
1.028912999999997
  0
CIRCLE
  5
29F
330
36
100
AcDbEntity
  8
0
100
AcDbCircle
 10
178.800098
 20
164.479357
 30
0.0
 40
1.731456
  0
LINE
  5
2F7
330
36
100
AcDbEntity
  8
0
 62
     3
100
AcDbLine
 10
7.598075999999998
 20
148.5
 30
0.0
 11
5.0
 21
147.0
 31
0.0
  0
LINE
  5
2F8
330
36
100
AcDbEntity
  8
0
 62
     3
100
AcDbLine
 10
7.598075999999998
 20
148.5
 30
0.0
 11
5.0
 21
150.0
 31
0.0
  0
LINE
  5
2F9
330
36
100
AcDbEntity
  8
0
 62
     3
100
AcDbLine
 10
5.0
 20
147.0
 30
0.0
 11
5.0
 21
150.0
 31
0.0
  0
LINE
  5
2FA
330
36
100
AcDbEntity
  8
0
  6
CENTER
100
AcDbLine
 10
199.137244
 20
187.859704
 30
0.0
 11
131.053626
 21
187.859704
 31
0.0
  0
LINE
  5
2FB
330
36
100
AcDbEntity
  8
0
 62
     3
100
AcDbLine
 10
258.197004
 20
154.33839
 30
0.0
 11
292.481395
 21
154.33839
 31
0.0
  0
LINE
  5
2FC
330
36
100
AcDbEntity
  8
0
 62
     3
100
AcDbLine
 10
292.481395
 20
150.363788
 30
0.0
 11
258.197004
 21
150.363788
 31
0.0
  0
CIRCLE
  5
2FD
330
36
100
AcDbEntity
  8
0
 62
     3
100
AcDbCircle
 10
165.301448
 20
187.859704
 30
0.0
 40
29.49705
  0
LINE
  5
2FE
330
36
100
AcDbEntity
  8
0
 62
     3
100
AcDbLine
 10
263.773946
 20
203.758448
 30
0.0
 11
264.273896
 21
203.758448
 31
0.0
  0
LINE
  5
2FF
330
36
100
AcDbEntity
  8
0
 62
     3
100
AcDbLine
 10
262.079482
 20
158.362988
 30
0.0
 11
262.765852
 21
158.362988
 31
0.0
  0
LINE
  5
300
330
36
100
AcDbEntity
  8
0
 62
     3
100
AcDbLine
 10
263.623961
 20
172.1116129999999
 30
0.0
 11
264.123911
 21
172.1116129999999
 31
0.0
  0
LINE
  5
301
330
36
100
AcDbEntity
  8
0
 62
     3
100
AcDbLine
 10
263.623961
 20
172.1116129999999
 30
0.0
 11
263.623961
 21
170.361788
 31
0.0
  0
LINE
  5
302
330
36
100
AcDbEntity
  8
0
 62
     3
100
AcDbLine
 10
263.773946
 20
171.961628
 30
0.0
 11
264.273896
 21
171.961628
 31
0.0
  0
ARC
  5
303
330
36
100
AcDbEntity
  8
0
 62
     3
100
AcDbCircle
 10
262.788758
 20
158.462978
 30
0.0
 40
0.249975
100
AcDbArc
 50
270.0
 51
355.0
  0
ARC
  5
304
330
36
100
AcDbEntity
  8
0
 62
     3
100
AcDbCircle
 10
262.765852
 20
158.487975
 30
0.0
 40
0.124988
100
AcDbArc
 50
270.0
 51
355.0
  0
LINE
  5
305
330
36
100
AcDbEntity
  8
0
 62
     3
100
AcDbLine
 10
295.46541
 20
217.357088
 30
0.0
 11
294.77904
 21
217.357088
 31
0.0
  0
LINE
  5
306
330
36
100
AcDbEntity
  8
0
 62
     3
100
AcDbLine
 10
293.920931
 20
203.608463
 30
0.0
 11
293.420981
 21
203.608463
 31
0.0
  0
LINE
  5
307
330
36
100
AcDbEntity
  8
0
 62
     3
100
AcDbLine
 10
293.920931
 20
203.608463
 30
0.0
 11
293.920931
 21
205.358288
 31
0.0
  0
LINE
  5
308
330
36
100
AcDbEntity
  8
0
 62
     3
100
AcDbLine
 10
294.920831
 20
207.108113
 30
0.0
 11
293.920931
 21
205.358288
 31
0.0
  0
LINE
  5
309
330
36
100
AcDbEntity
  8
0
 62
     3
100
AcDbLine
 10
294.920831
 20
207.108113
 30
0.0
 11
293.920931
 21
208.857938
 31
0.0
  0
LINE
  5
30A
330
36
100
AcDbEntity
  8
0
 62
     3
100
AcDbLine
 10
293.920931
 20
208.857938
 30
0.0
 11
294.654528
 21
217.242993
 31
0.0
  0
ARC
  5
30B
330
36
100
AcDbEntity
  8
0
 62
     3
100
AcDbCircle
 10
294.77904
 20
217.2321
 30
0.0
 40
0.124988
100
AcDbArc
 50
90.0
 51
175.0
  0
ARC
  5
30C
330
36
100
AcDbEntity
  8
0
 62
     3
100
AcDbCircle
 10
295.46541
 20
218.232
 30
0.0
 40
0.8749129999999999
100
AcDbArc
 50
270.0
 51
235.952268
  0
LINE
  5
30D
330
36
100
AcDbEntity
  8
0
 62
     3
100
AcDbLine
 10
293.420981
 20
190.284795
 30
0.0
 11
292.521071
 21
190.284795
 31
0.0
  0
LINE
  5
30E
330
36
100
AcDbEntity
  8
0
 62
     3
100
AcDbLine
 10
295.46541
 20
158.362988
 30
0.0
 11
294.77904
 21
158.362988
 31
0.0
  0
LINE
  5
30F
330
36
100
AcDbEntity
  8
0
 62
     3
100
AcDbLine
 10
293.920931
 20
172.1116129999999
 30
0.0
 11
293.420981
 21
172.1116129999999
 31
0.0
  0
LINE
  5
310
330
36
100
AcDbEntity
  8
0
 62
     3
100
AcDbLine
 10
293.920931
 20
172.1116129999999
 30
0.0
 11
293.920931
 21
170.361788
 31
0.0
  0
LINE
  5
311
330
36
100
AcDbEntity
  8
0
 62
     3
100
AcDbLine
 10
294.920831
 20
168.611963
 30
0.0
 11
293.920931
 21
170.361788
 31
0.0
  0
LINE
  5
312
330
36
100
AcDbEntity
  8
0
 62
     3
100
AcDbLine
 10
294.920831
 20
168.611963
 30
0.0
 11
293.920931
 21
166.862138
 31
0.0
  0
LINE
  5
313
330
36
100
AcDbEntity
  8
0
 62
     3
100
AcDbLine
 10
293.920931
 20
166.862138
 30
0.0
 11
294.654528
 21
158.477082
 31
0.0
  0
ARC
  5
314
330
36
100
AcDbEntity
  8
0
 62
     3
100
AcDbCircle
 10
294.77904
 20
158.487975
 30
0.0
 40
0.124988
100
AcDbArc
 50
185.0
 51
270.0
  0
ARC
  5
315
330
36
100
AcDbEntity
  8
0
 62
     3
100
AcDbCircle
 10
295.46541
 20
157.488075
 30
0.0
 40
0.8749129999999999
100
AcDbArc
 50
124.047732
 51
90.0
  0
LINE
  5
316
330
36
100
AcDbEntity
  8
0
 62
     3
100
AcDbLine
 10
264.123911
 20
203.608463
 30
0.0
 11
264.123911
 21
172.1116129999999
 31
0.0
  0
LINE
  5
317
330
36
100
AcDbEntity
  8
0
 62
     3
100
AcDbLine
 10
253.460298
 20
154.725851
 30
0.0
 11
257.709873
 21
154.725851
 31
0.0
  0
ARC
  5
318
330
36
100
AcDbEntity
  8
0
 62
     3
100
AcDbCircle
 10
253.460298
 20
153.975926
 30
0.0
 40
0.749925
100
AcDbArc
 50
90.0
 51
180.0
  0
LINE
  5
319
330
36
100
AcDbEntity
  8
0
 62
     3
100
AcDbLine
 10
252.710373
 20
150.726251
 30
0.0
 11
252.710373
 21
153.975926
 31
0.0
  0
ARC
  5
31A
330
36
100
AcDbEntity
  8
0
 62
     3
100
AcDbCircle
 10
253.460298
 20
150.726251
 30
0.0
 40
0.749925
100
AcDbArc
 50
180.0
 51
270.0
  0
LINE
  5
31B
330
36
100
AcDbEntity
  8
0
 62
     3
100
AcDbLine
 10
253.460298
 20
149.976326
 30
0.0
 11
257.709873
 21
149.976326
 31
0.0
  0
ARC
  5
31C
330
36
100
AcDbEntity
  8
0
 62
     3
100
AcDbCircle
 10
257.709873
 20
150.476276
 30
0.0
 40
0.4999500000000002
100
AcDbArc
 50
270.0
 51
0.0
  0
ARC
  5
31D
330
36
100
AcDbEntity
  8
0
 62
     3
100
AcDbCircle
 10
257.709873
 20
154.225901
 30
0.0
 40
0.4999500000000002
100
AcDbArc
 50
0.0
 51
90.0
  0
ARC
  5
31E
330
36
100
AcDbEntity
  8
0
 62
     3
100
AcDbCircle
 10
279.89855
 20
187.860038
 30
0.0
 40
1.749824999999999
100
AcDbArc
 50
90.0
 51
270.0
  0
ARC
  5
31F
330
36
100
AcDbEntity
  8
0
 62
     3
100
AcDbCircle
 10
280.89845
 20
187.860038
 30
0.0
 40
1.749824999999999
100
AcDbArc
 50
270.0
 51
90.0
  0
LINE
  5
320
330
36
100
AcDbEntity
  8
0
 62
     3
100
AcDbLine
 10
279.89855
 20
189.609863
 30
0.0
 11
280.89845
 21
189.609863
 31
0.0
  0
LINE
  5
321
330
36
100
AcDbEntity
  8
0
 62
     3
100
AcDbLine
 10
280.89845
 20
186.110213
 30
0.0
 11
279.89855
 21
186.110213
 31
0.0
  0
LINE
  5
322
330
36
100
AcDbEntity
  8
0
 62
     3
100
AcDbLine
 10
280.348516
 20
185.472776
 30
0.0
 11
277.678868
 21
185.472776
 31
0.0
  0
LINE
  5
323
330
36
100
AcDbEntity
  8
0
 62
     3
100
AcDbLine
 10
280.348516
 20
190.247299
 30
0.0
 11
278.23069
 21
190.247299
 31
0.0
  0
CIRCLE
  5
324
330
36
100
AcDbEntity
  8
0
 62
     3
100
AcDbCircle
 10
165.301448
 20
187.859704
 30
0.0
 40
31.246875
  0
CIRCLE
  5
325
330
36
100
AcDbEntity
  8
0
 62
     3
100
AcDbCircle
 10
139.787509
 20
152.36658
 30
0.0
 40
2.374763
  0
CIRCLE
  5
326
330
36
100
AcDbEntity
  8
0
 62
     3
100
AcDbCircle
 10
190.794389
 20
152.36658
 30
0.0
 40
2.374763
  0
ARC
  5
327
330
36
100
AcDbEntity
  8
0
 62
     3
100
AcDbCircle
 10
262.079482
 20
157.488075
 30
0.0
 40
0.8749129999999999
100
AcDbArc
 50
90.0
 51
55.95226800000001
  0
LINE
  5
328
330
36
100
AcDbEntity
  8
0
 62
     3
100
AcDbLine
 10
263.777465
 20
166.89581
 30
0.0
 11
263.037781
 21
158.441191
 31
0.0
  0
LINE
  5
329
330
36
100
AcDbEntity
  8
0
 62
     3
100
AcDbLine
 10
262.079482
 20
217.357088
 30
0.0
 11
262.765852
 21
217.357088
 31
0.0
  0
ARC
  5
32A
330
36
100
AcDbEntity
  8
0
 62
     3
100
AcDbCircle
 10
262.788758
 20
217.257098
 30
0.0
 40
0.249975
100
AcDbArc
 50
5.0
 51
90.0
  0
ARC
  5
32B
330
36
100
AcDbEntity
  8
0
 62
     3
100
AcDbCircle
 10
262.765852
 20
217.2321
 30
0.0
 40
0.124988
100
AcDbArc
 50
5.0
 51
90.0
  0
ARC
  5
32C
330
36
100
AcDbEntity
  8
0
 62
     3
100
AcDbCircle
 10
262.079482
 20
218.232
 30
0.0
 40
0.8749129999999999
100
AcDbArc
 50
304.047732
 51
270.0
  0
LINE
  5
32D
330
36
100
AcDbEntity
  8
0
 62
     3
100
AcDbLine
 10
263.777465
 20
208.824265
 30
0.0
 11
263.037781
 21
217.278884
 31
0.0
  0
LINE
  5
32E
330
36
100
AcDbEntity
  8
0
 62
     3
100
AcDbLine
 10
276.473795
 20
223.881435
 30
0.0
 11
292.481395
 21
223.881435
 31
0.0
  0
LINE
  5
32F
330
36
100
AcDbEntity
  8
0
 62
     3
100
AcDbLine
 10
262.796806
 20
207.108113
 30
0.0
 11
263.777465
 21
208.824265
 31
0.0
  0
LINE
  5
330
330
36
100
AcDbEntity
  8
0
 62
     3
100
AcDbLine
 10
262.796806
 20
207.108113
 30
0.0
 11
263.773946
 21
205.398118
 31
0.0
  0
LINE
  5
331
330
36
100
AcDbEntity
  8
0
 62
     3
100
AcDbLine
 10
263.773946
 20
203.758448
 30
0.0
 11
263.773946
 21
205.398118
 31
0.0
  0
LINE
  5
332
330
36
100
AcDbEntity
  8
0
 62
     3
100
AcDbLine
 10
290.587383
 20
190.247299
 30
0.0
 11
293.420981
 21
190.247299
 31
0.0
  0
LINE
  5
333
330
36
100
AcDbEntity
  8
0
 62
     3
100
AcDbLine
 10
293.420981
 20
185.43528
 30
0.0
 11
292.521071
 21
185.43528
 31
0.0
  0
LINE
  5
334
330
36
100
AcDbEntity
  8
0
 62
     3
100
AcDbLine
 10
297.172871
 20
183.8604379999999
 30
0.0
 11
298.268064
 21
183.8604379999999
 31
0.0
  0
LINE
  5
335
330
36
100
AcDbEntity
  8
0
 62
     3
100
AcDbLine
 10
290.587383
 20
185.472776
 30
0.0
 11
293.420981
 21
185.472776
 31
0.0
  0
LINE
  5
336
330
36
100
AcDbEntity
  8
0
 62
     3
100
AcDbLine
 10
297.170606
 20
191.859638
 30
0.0
 11
298.263274
 21
191.859638
 31
0.0
  0
LINE
  5
337
330
36
100
AcDbEntity
  8
0
 62
     3
100
AcDbLine
 10
293.420981
 20
203.608463
 30
0.0
 11
293.420981
 21
171.973879
 31
0.0
  0
LINE
  5
338
330
36
100
AcDbEntity
  8
0
 62
     3
100
AcDbLine
 10
302.168247
 20
187.860038
 30
0.0
 11
302.705373
 21
160.587765
 31
0.0
  0
LINE
  5
339
330
36
100
AcDbEntity
  8
0
 62
     3
100
AcDbLine
 10
298.192952
 20
187.860038
 30
0.0
 11
298.731463
 21
160.513579
 31
0.0
  0
LINE
  5
33A
330
36
100
AcDbEntity
  8
0
 62
     3
100
AcDbLine
 10
298.193039
 20
187.860038
 30
0.0
 11
298.731376
 21
217.7014259999999
 31
0.0
  0
LINE
  5
33B
330
36
100
AcDbEntity
  8
0
 62
     3
100
AcDbLine
 10
302.168247
 20
187.860038
 30
0.0
 11
302.705373
 21
217.63206
 31
0.0
  0
ARC
  5
33C
330
36
100
AcDbEntity
  8
0
 62
     3
100
AcDbCircle
 10
292.481395
 20
217.63206
 30
0.0
 40
10.223978
100
AcDbArc
 50
0.0
 51
90.0
  0
ARC
  5
33D
330
36
100
AcDbEntity
  8
0
 62
     3
100
AcDbCircle
 10
292.481395
 20
217.63206
 30
0.0
 40
6.249374999999997
100
AcDbArc
 50
0.0
 51
90.0
  0
ARC
  5
33E
330
36
100
AcDbEntity
  8
0
 62
     3
100
AcDbCircle
 10
292.481395
 20
160.587765
 30
0.0
 40
6.249374999999997
100
AcDbArc
 50
270.0
 51
0.0
  0
ARC
  5
33F
330
36
100
AcDbEntity
  8
0
 62
     3
100
AcDbCircle
 10
292.481395
 20
160.587765
 30
0.0
 40
10.223978
100
AcDbArc
 50
270.0
 51
0.0
  0
LINE
  5
340
330
36
100
AcDbEntity
  8
0
  6
CENTER
100
AcDbLine
 10
260.208805
 20
187.860038
 30
0.0
 11
299.081411
 21
187.860038
 31
0.0
  0
LINE
  5
343
330
36
100
AcDbEntity
  8
0
100
AcDbLine
 10
73.640089
 20
153.533432
 30
0.0
 11
77.990089
 21
153.533432
 31
0.0
  0
LINE
  5
344
330
36
100
AcDbEntity
  8
0
100
AcDbLine
 10
77.990089
 20
152.433432
 30
0.0
 11
73.640089
 21
152.433432
 31
0.0
  0
LINE
  5
345
330
36
100
AcDbEntity
  8
0
100
AcDbLine
 10
73.640089
 20
153.533432
 30
0.0
 11
73.640089
 21
152.433432
 31
0.0
  0
LINE
  5
346
330
36
100
AcDbEntity
  8
0
100
AcDbLine
 10
77.990089
 20
153.533432
 30
0.0
 11
77.990089
 21
152.433432
 31
0.0
  0
LINE
  5
347
330
36
100
AcDbEntity
  8
0
100
AcDbLine
 10
78.490089
 20
151.933432
 30
0.0
 11
73.140089
 21
151.933432
 31
0.0
  0
LINE
  5
348
330
36
100
AcDbEntity
  8
0
100
AcDbLine
 10
73.640089
 20
152.433432
 30
0.0
 11
73.140089
 21
151.933432
 31
0.0
  0
LINE
  5
349
330
36
100
AcDbEntity
  8
0
100
AcDbLine
 10
73.140089
 20
154.033432
 30
0.0
 11
73.140089
 21
151.933432
 31
0.0
  0
LINE
  5
34A
330
36
100
AcDbEntity
  8
0
100
AcDbLine
 10
73.640089
 20
153.533432
 30
0.0
 11
73.140089
 21
154.033432
 31
0.0
  0
LINE
  5
34B
330
36
100
AcDbEntity
  8
0
100
AcDbLine
 10
73.140089
 20
154.033432
 30
0.0
 11
78.490089
 21
154.033432
 31
0.0
  0
LINE
  5
34C
330
36
100
AcDbEntity
  8
0
100
AcDbLine
 10
77.990089
 20
153.533432
 30
0.0
 11
78.490089
 21
154.033432
 31
0.0
  0
LINE
  5
34D
330
36
100
AcDbEntity
  8
0
100
AcDbLine
 10
78.490089
 20
154.033432
 30
0.0
 11
78.490089
 21
151.933432
 31
0.0
  0
LINE
  5
34E
330
36
100
AcDbEntity
  8
0
100
AcDbLine
 10
77.990089
 20
152.433432
 30
0.0
 11
78.490089
 21
151.933432
 31
0.0
  0
LINE
  5
34F
330
36
100
AcDbEntity
  8
0
100
AcDbLine
 10
73.640089
 20
158.783432
 30
0.0
 11
77.990089
 21
158.783432
 31
0.0
  0
LINE
  5
350
330
36
100
AcDbEntity
  8
0
100
AcDbLine
 10
77.990089
 20
159.883432
 30
0.0
 11
73.640089
 21
159.883432
 31
0.0
  0
LINE
  5
351
330
36
100
AcDbEntity
  8
0
100
AcDbLine
 10
77.990089
 20
158.783432
 30
0.0
 11
77.990089
 21
159.883432
 31
0.0
  0
LINE
  5
352
330
36
100
AcDbEntity
  8
0
100
AcDbLine
 10
78.490089
 20
160.383432
 30
0.0
 11
73.140089
 21
160.383432
 31
0.0
  0
LINE
  5
353
330
36
100
AcDbEntity
  8
0
100
AcDbLine
 10
73.140089
 20
158.283432
 30
0.0
 11
78.490089
 21
158.283432
 31
0.0
  0
LINE
  5
354
330
36
100
AcDbEntity
  8
0
100
AcDbLine
 10
77.990089
 20
158.783432
 30
0.0
 11
78.490089
 21
158.283432
 31
0.0
  0
LINE
  5
355
330
36
100
AcDbEntity
  8
0
100
AcDbLine
 10
78.490089
 20
158.283432
 30
0.0
 11
78.490089
 21
160.383432
 31
0.0
  0
LINE
  5
356
330
36
100
AcDbEntity
  8
0
100
AcDbLine
 10
77.990089
 20
159.883432
 30
0.0
 11
78.490089
 21
160.383432
 31
0.0
  0
LINE
  5
357
330
36
100
AcDbEntity
  8
0
100
AcDbLine
 10
73.640089
 20
158.783432
 30
0.0
 11
73.640089
 21
159.883432
 31
0.0
  0
LINE
  5
358
330
36
100
AcDbEntity
  8
0
100
AcDbLine
 10
73.640089
 20
159.883432
 30
0.0
 11
73.140089
 21
160.383432
 31
0.0
  0
LINE
  5
359
330
36
100
AcDbEntity
  8
0
100
AcDbLine
 10
73.140089
 20
158.283432
 30
0.0
 11
73.140089
 21
160.383432
 31
0.0
  0
LINE
  5
35A
330
36
100
AcDbEntity
  8
0
100
AcDbLine
 10
73.640089
 20
158.783432
 30
0.0
 11
73.140089
 21
158.283432
 31
0.0
  0
CIRCLE
  5
35B
330
36
100
AcDbEntity
  8
0
 62
     3
100
AcDbCircle
 10
86.815089
 20
216.392417
 30
0.0
 40
4.5
  0
LINE
  5
35C
330
36
100
AcDbEntity
  8
0
 62
     3
100
AcDbLine
 10
82.49218499999996
 20
217.642417
 30
0.0
 11
79.315089
 21
217.642417
 31
0.0
  0
LINE
  5
35D
330
36
100
AcDbEntity
  8
0
 62
     3
100
AcDbLine
 10
82.49218499999996
 20
215.142417
 30
0.0
 11
79.315089
 21
215.142417
 31
0.0
  0
LINE
  5
35E
330
36
100
AcDbEntity
  8
0
 62
     3
100
AcDbLine
 10
73.21508900000002
 20
236.178534
 30
0.0
 11
73.21508900000002
 21
220.142417
 31
0.0
  0
LINE
  5
35F
330
36
100
AcDbEntity
  8
0
 62
     3
100
AcDbLine
 10
78.415089
 20
236.585883
 30
0.0
 11
78.415089
 21
220.142417
 31
0.0
  0
LINE
  5
360
330
36
100
AcDbEntity
  8
0
 62
     3
100
AcDbLine
 10
79.315089
 20
220.142417
 30
0.0
 11
72.315089
 21
220.142417
 31
0.0
  0
LINE
  5
361
330
36
100
AcDbEntity
  8
0
 62
     3
100
AcDbLine
 10
79.315089
 20
220.142417
 30
0.0
 11
79.315089
 21
212.642417
 31
0.0
  0
LINE
  5
362
330
36
100
AcDbEntity
  8
0
 62
     3
100
AcDbLine
 10
72.315089
 20
220.142417
 30
0.0
 11
72.315089
 21
212.642417
 31
0.0
  0
LINE
  5
363
330
36
100
AcDbEntity
  8
0
 62
     3
100
AcDbLine
 10
79.315089
 20
212.642417
 30
0.0
 11
72.315089
 21
212.642417
 31
0.0
  0
LINE
  5
364
330
36
100
AcDbEntity
  8
0
 62
     3
100
AcDbLine
 10
73.21508900000002
 20
212.642417
 30
0.0
 11
73.21508900000002
 21
208.142417
 31
0.0
  0
LINE
  5
365
330
36
100
AcDbEntity
  8
0
 62
     3
100
AcDbLine
 10
78.415089
 20
212.642417
 30
0.0
 11
78.415089
 21
208.142417
 31
0.0
  0
LINE
  5
366
330
36
100
AcDbEntity
  8
0
 62
     3
100
AcDbLine
 10
79.315089
 20
208.142417
 30
0.0
 11
72.315089
 21
208.142417
 31
0.0
  0
LINE
  5
367
330
36
100
AcDbEntity
  8
0
 62
     3
100
AcDbLine
 10
72.315089
 20
208.142417
 30
0.0
 11
72.065089
 21
195.642417
 31
0.0
  0
LINE
  5
368
330
36
100
AcDbEntity
  8
0
 62
     3
100
AcDbLine
 10
79.315089
 20
208.142417
 30
0.0
 11
79.565089
 21
195.642417
 31
0.0
  0
LINE
  5
369
330
36
100
AcDbEntity
  8
0
 62
     3
100
AcDbLine
 10
71.440089
 20
195.642417
 30
0.0
 11
70.940089
 21
195.142417
 31
0.0
  0
LINE
  5
36A
330
36
100
AcDbEntity
  8
0
 62
     3
100
AcDbLine
 10
70.940089
 20
195.142417
 30
0.0
 11
70.940089
 21
194.642417
 31
0.0
  0
LINE
  5
36B
330
36
100
AcDbEntity
  8
0
 62
     3
100
AcDbLine
 10
80.690089
 20
194.642417
 30
0.0
 11
70.940089
 21
194.642417
 31
0.0
  0
LINE
  5
36C
330
36
100
AcDbEntity
  8
0
 62
     3
100
AcDbLine
 10
80.690089
 20
195.142417
 30
0.0
 11
80.690089
 21
194.642417
 31
0.0
  0
LINE
  5
36D
330
36
100
AcDbEntity
  8
0
 62
     3
100
AcDbLine
 10
80.19008900000001
 20
195.642417
 30
0.0
 11
80.690089
 21
195.142417
 31
0.0
  0
ARC
  5
36E
330
36
100
AcDbEntity
  8
0
 62
     3
100
AcDbCircle
 10
84.315089
 20
192.642417
 30
0.0
 40
4.5
100
AcDbArc
 50
180.0
 51
270.0
  0
LINE
  5
36F
330
36
100
AcDbEntity
  8
0
 62
     3
100
AcDbLine
 10
79.815089
 20
192.642417
 30
0.0
 11
79.815089
 21
194.642417
 31
0.0
  0
LINE
  5
370
330
36
100
AcDbEntity
  8
0
 62
     3
100
AcDbLine
 10
89.065089
 20
188.142417
 30
0.0
 11
84.315089
 21
188.142417
 31
0.0
  0
ARC
  5
371
330
36
100
AcDbEntity
  8
0
 62
     3
100
AcDbCircle
 10
67.315089
 20
192.642417
 30
0.0
 40
4.5
100
AcDbArc
 50
270.0
 51
0.0
  0
LINE
  5
372
330
36
100
AcDbEntity
  8
0
 62
     3
100
AcDbLine
 10
71.815089
 20
192.642417
 30
0.0
 11
71.815089
 21
194.642417
 31
0.0
  0
LINE
  5
373
330
36
100
AcDbEntity
  8
0
 62
     3
100
AcDbLine
 10
62.565089
 20
188.142417
 30
0.0
 11
67.315089
 21
188.142417
 31
0.0
  0
LINE
  5
374
330
36
100
AcDbEntity
  8
0
 62
     3
100
AcDbLine
 10
62.315089
 20
188.392417
 30
0.0
 11
62.565089
 21
188.142417
 31
0.0
  0
LINE
  5
375
330
36
100
AcDbEntity
  8
0
 62
     3
100
AcDbLine
 10
60.815089
 20
188.642417
 30
0.0
 11
62.315089
 21
188.642417
 31
0.0
  0
LINE
  5
376
330
36
100
AcDbEntity
  8
0
 62
     3
100
AcDbLine
 10
60.815089
 20
188.642417
 30
0.0
 11
60.815089
 21
179.642417
 31
0.0
  0
LINE
  5
377
330
36
100
AcDbEntity
  8
0
 62
     3
100
AcDbLine
 10
62.315089
 20
179.642417
 30
0.0
 11
60.815089
 21
179.642417
 31
0.0
  0
LINE
  5
378
330
36
100
AcDbEntity
  8
0
 62
     3
100
AcDbLine
 10
62.565089
 20
180.142417
 30
0.0
 11
62.315089
 21
179.892417
 31
0.0
  0
LINE
  5
379
330
36
100
AcDbEntity
  8
0
 62
     3
100
AcDbLine
 10
62.565089
 20
180.142417
 30
0.0
 11
67.315089
 21
180.142417
 31
0.0
  0
ARC
  5
37A
330
36
100
AcDbEntity
  8
0
 62
     3
100
AcDbCircle
 10
67.315089
 20
175.642417
 30
0.0
 40
4.5
100
AcDbArc
 50
0.0
 51
90.0
  0
LINE
  5
37B
330
36
100
AcDbEntity
  8
0
 62
     3
100
AcDbLine
 10
71.815089
 20
171.392417
 30
0.0
 11
71.815089
 21
175.642417
 31
0.0
  0
LINE
  5
37C
330
36
100
AcDbEntity
  8
0
 62
     3
100
AcDbLine
 10
71.315089
 20
171.142417
 30
0.0
 11
71.315089
 21
169.642417
 31
0.0
  0
LINE
  5
37D
330
36
100
AcDbEntity
  8
0
 62
     3
100
AcDbLine
 10
71.815089
 20
171.392417
 30
0.0
 11
71.565089
 21
171.142417
 31
0.0
  0
LINE
  5
37E
330
36
100
AcDbEntity
  8
0
 62
     3
100
AcDbLine
 10
71.315089
 20
169.642417
 30
0.0
 11
80.315089
 21
169.642417
 31
0.0
  0
LINE
  5
37F
330
36
100
AcDbEntity
  8
0
 62
     3
100
AcDbLine
 10
80.315089
 20
171.142417
 30
0.0
 11
80.315089
 21
169.642417
 31
0.0
  0
LINE
  5
380
330
36
100
AcDbEntity
  8
0
 62
     3
100
AcDbLine
 10
79.815089
 20
171.392417
 30
0.0
 11
80.065089
 21
171.142417
 31
0.0
  0
LINE
  5
381
330
36
100
AcDbEntity
  8
0
 62
     3
100
AcDbLine
 10
79.815089
 20
171.392417
 30
0.0
 11
79.815089
 21
175.642417
 31
0.0
  0
ARC
  5
382
330
36
100
AcDbEntity
  8
0
 62
     3
100
AcDbCircle
 10
84.315089
 20
175.642417
 30
0.0
 40
4.5
100
AcDbArc
 50
90.0
 51
180.0
  0
LINE
  5
383
330
36
100
AcDbEntity
  8
0
 62
     3
100
AcDbLine
 10
89.065089
 20
180.142417
 30
0.0
 11
84.315089
 21
180.142417
 31
0.0
  0
LINE
  5
384
330
36
100
AcDbEntity
  8
0
 62
     3
100
AcDbLine
 10
90.81508900000001
 20
179.642417
 30
0.0
 11
89.315089
 21
179.642417
 31
0.0
  0
LINE
  5
385
330
36
100
AcDbEntity
  8
0
 62
     3
100
AcDbLine
 10
89.065089
 20
180.142417
 30
0.0
 11
89.315089
 21
179.892417
 31
0.0
  0
LINE
  5
386
330
36
100
AcDbEntity
  8
0
 62
     3
100
AcDbLine
 10
90.81508900000001
 20
179.642417
 30
0.0
 11
90.81508900000001
 21
188.642417
 31
0.0
  0
LINE
  5
387
330
36
100
AcDbEntity
  8
0
 62
     3
100
AcDbLine
 10
90.81508900000001
 20
188.642417
 30
0.0
 11
89.315089
 21
188.642417
 31
0.0
  0
LINE
  5
388
330
36
100
AcDbEntity
  8
0
 62
     3
100
AcDbLine
 10
89.315089
 20
188.392417
 30
0.0
 11
89.065089
 21
188.142417
 31
0.0
  0
LINE
  5
389
330
36
100
AcDbEntity
  8
0
100
AcDbLine
 10
79.315089
 20
206.892417
 30
0.0
 11
75.815089
 21
206.892417
 31
0.0
  0
LINE
  5
38A
330
36
100
AcDbEntity
  8
0
100
AcDbLine
 10
79.315089
 20
205.642417
 30
0.0
 11
75.815089
 21
205.642417
 31
0.0
  0
LINE
  5
38B
330
36
100
AcDbEntity
  8
0
100
AcDbLine
 10
79.315089
 20
199.392417
 30
0.0
 11
75.815089
 21
199.392417
 31
0.0
  0
LINE
  5
38C
330
36
100
AcDbEntity
  8
0
100
AcDbLine
 10
79.315089
 20
198.142417
 30
0.0
 11
75.815089
 21
198.142417
 31
0.0
  0
ARC
  5
38D
330
36
100
AcDbEntity
  8
0
100
AcDbCircle
 10
75.815089
 20
206.267417
 30
0.0
 40
0.625
100
AcDbArc
 50
90.0
 51
270.0
  0
ARC
  5
38E
330
36
100
AcDbEntity
  8
0
100
AcDbCircle
 10
75.815089
 20
198.767417
 30
0.0
 40
0.625
100
AcDbArc
 50
90.0
 51
270.0
  0
LINE
  5
38F
330
36
100
AcDbEntity
  8
0
100
AcDbLine
 10
75.815089
 20
203.767417
 30
0.0
 11
72.315089
 21
203.767417
 31
0.0
  0
LINE
  5
390
330
36
100
AcDbEntity
  8
0
100
AcDbLine
 10
75.815089
 20
205.017417
 30
0.0
 11
72.315089
 21
205.017417
 31
0.0
  0
ARC
  5
391
330
36
100
AcDbEntity
  8
0
100
AcDbCircle
 10
75.815089
 20
204.392417
 30
0.0
 40
0.625
100
AcDbArc
 50
270.0
 51
90.0
  0
ARC
  5
392
330
36
100
AcDbEntity
  8
0
100
AcDbCircle
 10
75.815089
 20
202.517417
 30
0.0
 40
0.625
100
AcDbArc
 50
90.0
 51
270.0
  0
LINE
  5
393
330
36
100
AcDbEntity
  8
0
100
AcDbLine
 10
79.315089
 20
201.892417
 30
0.0
 11
75.815089
 21
201.892417
 31
0.0
  0
LINE
  5
394
330
36
100
AcDbEntity
  8
0
100
AcDbLine
 10
79.315089
 20
203.142417
 30
0.0
 11
75.815089
 21
203.142417
 31
0.0
  0
ARC
  5
395
330
36
100
AcDbEntity
  8
0
100
AcDbCircle
 10
75.815089
 20
200.642417
 30
0.0
 40
0.625
100
AcDbArc
 50
270.0
 51
90.0
  0
LINE
  5
396
330
36
100
AcDbEntity
  8
0
100
AcDbLine
 10
75.815089
 20
200.017417
 30
0.0
 11
72.315089
 21
200.017417
 31
0.0
  0
LINE
  5
397
330
36
100
AcDbEntity
  8
0
100
AcDbLine
 10
75.815089
 20
201.267417
 30
0.0
 11
72.315089
 21
201.267417
 31
0.0
  0
LINE
  5
398
330
36
100
AcDbEntity
  8
0
100
AcDbLine
 10
71.440089
 20
195.642417
 30
0.0
 11
80.19008900000001
 21
195.642417
 31
0.0
  0
CIRCLE
  5
399
330
36
100
AcDbEntity
  8
0
100
AcDbCircle
 10
86.815089
 20
216.392417
 30
0.0
 40
2.0
  0
LINE
  5
39A
330
36
100
AcDbEntity
  8
0
100
AcDbLine
 10
89.315089
 20
188.642417
 30
0.0
 11
89.315089
 21
179.642417
 31
0.0
  0
LINE
  5
39B
330
36
100
AcDbEntity
  8
0
100
AcDbLine
 10
80.315089
 20
171.142417
 30
0.0
 11
71.315089
 21
171.142417
 31
0.0
  0
LINE
  5
39C
330
36
100
AcDbEntity
  8
0
100
AcDbLine
 10
62.315089
 20
179.642417
 30
0.0
 11
62.315089
 21
188.642417
 31
0.0
  0
LINE
  5
39D
330
36
100
AcDbEntity
  8
0
 62
     3
100
AcDbLine
 10
263.105326
 20
161.9787409999999
 30
0.0
 11
263.105326
 21
159.797339
 31
0.0
  0
LINE
  5
39F
330
36
100
AcDbEntity
  8
0
 62
     3
100
AcDbLine
 10
298.193006
 20
187.881038
 30
0.0
 11
298.268071
 21
183.860022
 31
0.0
  0
LINE
  5
3A0
330
36
100
AcDbEntity
  8
0
 62
     3
100
AcDbLine
 10
298.193467
 20
187.860426
 30
0.0
 11
298.26328
 21
191.860026
 31
0.0
  0
LINE
  5
3A1
330
36
100
AcDbEntity
  8
0
 62
     3
100
AcDbLine
 10
297.170606
 20
183.8604379999999
 30
0.0
 11
297.170606
 21
191.859638
 31
0.0
  0
LWPOLYLINE
  5
3A2
330
36
100
AcDbEntity
  8
0
100
AcDbPolyline
 90
        3
 70
     0
 43
0.0
 10
306.220014
 20
217.055508
 10
305.749907
 20
215.039029
 10
307.165271
 20
216.550298
  0
LINE
  5
3A7
330
36
100
AcDbEntity
  8
0
100
AcDbLine
 10
305.749907
 20
215.039029
 30
0.0
 11
318.400382
 21
238.708278
 31
0.0
  0
CIRCLE
  5
3A8
330
36
100
AcDbEntity
  8
0
100
AcDbCircle
 10
320.75722
 20
243.117962
 30
0.0
 40
5.0
  0
TEXT
  5
3A9
330
36
100
AcDbEntity
  8
0
 62
     4
100
AcDbText
 10
317.5651214913904
 20
240.9245711050373
 30
0.0
 40
4.5
  1
13
  7
高4.5
100
AcDbText
  0
LINE
  5
3AB
330
36
100
AcDbEntity
  8
0
 62
     3
100
AcDbLine
 10
20.0
 20
287.0
 30
0.0
 11
20.0
 21
10.0
 31
0.0
  0
LINE
  5
3AC
330
36
100
AcDbEntity
  8
0
 62
     3
100
AcDbLine
 10
410.0
 20
10.0
 30
0.0
 11
410.0
 21
287.0
 31
0.0
  0
LINE
  5
3AD
330
36
100
AcDbEntity
  8
0
 62
     3
100
AcDbLine
 10
20.0
 20
287.0
 30
0.0
 11
410.0
 21
287.0
 31
0.0
  0
LINE
  5
3AE
330
36
100
AcDbEntity
  8
0
 62
     3
100
AcDbLine
 10
20.0
 20
10.0
 30
0.0
 11
410.0
 21
10.0
 31
0.0
  0
LINE
  5
3AF
330
36
100
AcDbEntity
  8
0
 62
     3
100
AcDbLine
 10
262.989731
 20
159.6128629999999
 30
0.0
 11
262.765852
 21
159.6128629999999
 31
0.0
  0
LINE
  5
3B0
330
36
100
AcDbEntity
  8
0
 62
     3
100
AcDbLine
 10
261.20457
 20
218.232
 30
0.0
 11
261.20457
 21
162.323163
 31
0.0
  0
LINE
  5
3B1
330
36
100
AcDbEntity
  8
0
 62
     3
100
AcDbLine
 10
296.340322
 20
184.6103629999999
 30
0.0
 11
296.340322
 21
157.488075
 31
0.0
  0
LINE
  5
3B2
330
36
100
AcDbEntity
  8
0
 62
     3
100
AcDbLine
 10
296.340322
 20
218.232
 30
0.0
 11
296.340322
 21
191.109713
 31
0.0
  0
LWPOLYLINE
  5
3B9
330
36
100
AcDbEntity
  8
0
100
AcDbPolyline
 90
        3
 70
     0
 43
0.0
 10
78.212702
 20
230.593619
 10
77.27627099999998
 20
228.746924
 10
79.010592
 20
229.877993
  0
LINE
  5
3BE
330
36
100
AcDbEntity
  8
0
100
AcDbLine
 10
77.27627099999998
 20
228.746924
 30
0.0
 11
91.222463
 21
244.296281
 31
0.0
  0
CIRCLE
  5
3BF
330
36
100
AcDbEntity
  8
0
100
AcDbCircle
 10
94.560904
 20
248.018486
 30
0.0
 40
5.0
  0
TEXT
  5
3C0
330
36
100
AcDbEntity
  8
0
 62
     4
100
AcDbText
 10
92.05989443514645
 20
245.9168463026049
 30
0.0
 40
4.5
  1
10
  7
高4.5
100
AcDbText
  0
ARC
  5
3C1
330
36
100
AcDbEntity
  8
0
 62
     3
100
AcDbCircle
 10
292.822155
 20
198.608866
 30
0.0
 40
1.624822999999999
100
AcDbArc
 50
292.619865
 51
67.380135
  0
LINE
  5
3C2
330
36
100
AcDbEntity
  8
0
 62
     3
100
AcDbLine
 10
281.098435
 20
185.485296
 30
0.0
 11
280.348516
 21
185.485296
 31
0.0
  0
ARC
  5
3C3
330
36
100
AcDbEntity
  8
0
 62
     3
100
AcDbCircle
 10
281.098435
 20
185.985242
 30
0.0
 40
0.499946
100
AcDbArc
 50
270.0
 51
0.0
  0
ARC
  5
3C4
330
36
100
AcDbEntity
  8
0
 62
     3
100
AcDbCircle
 10
281.098435
 20
189.734833
 30
0.0
 40
0.499946
100
AcDbArc
 50
0.0
 51
90.0
  0
LINE
  5
3C5
330
36
100
AcDbEntity
  8
0
 62
     3
100
AcDbLine
 10
281.098435
 20
190.234779
 30
0.0
 11
280.348516
 21
190.234779
 31
0.0
  0
LINE
  5
3C6
330
36
100
AcDbEntity
  8
0
 62
     3
100
AcDbLine
 10
285.347971
 20
197.359002
 30
0.0
 11
283.098217
 21
197.359002
 31
0.0
  0
LINE
  5
3C7
330
36
100
AcDbEntity
  8
0
 62
     3
100
AcDbLine
 10
280.348516
 20
190.984697
 30
0.0
 11
280.348516
 21
190.234779
 31
0.0
  0
LINE
  5
3C8
330
36
100
AcDbEntity
  8
0
 62
     3
100
AcDbLine
 10
283.098217
 20
190.984697
 30
0.0
 11
280.348516
 21
190.984697
 31
0.0
  0
LINE
  5
3C9
330
36
100
AcDbEntity
  8
0
 62
     3
100
AcDbLine
 10
283.098217
 20
184.735378
 30
0.0
 11
280.348516
 21
184.735378
 31
0.0
  0
LINE
  5
3CA
330
36
100
AcDbEntity
  8
0
 62
     3
100
AcDbLine
 10
280.348516
 20
185.485296
 30
0.0
 11
280.348516
 21
184.735378
 31
0.0
  0
LINE
  5
3CB
330
36
100
AcDbEntity
  8
0
 62
     3
100
AcDbLine
 10
287.347753
 20
199.983716
 30
0.0
 11
285.347971
 21
199.983716
 31
0.0
  0
LINE
  5
3CC
330
36
100
AcDbEntity
  8
0
 62
     3
100
AcDbLine
 10
289.597508
 20
191.984588
 30
0.0
 11
287.347753
 21
191.984588
 31
0.0
  0
LINE
  5
3CD
330
36
100
AcDbEntity
  8
0
 62
     3
100
AcDbLine
 10
290.097454
 20
190.859711
 30
0.0
 11
290.597399
 21
190.234779
 31
0.0
  0
LINE
  5
3CE
330
36
100
AcDbEntity
  8
0
 62
     3
100
AcDbLine
 10
290.097454
 20
190.859711
 30
0.0
 11
289.597508
 21
190.859711
 31
0.0
  0
LINE
  5
3CF
330
36
100
AcDbEntity
  8
0
 62
     3
100
AcDbLine
 10
289.597508
 20
183.735487
 30
0.0
 11
287.347753
 21
183.735487
 31
0.0
  0
LINE
  5
3D0
330
36
100
AcDbEntity
  8
0
 62
     3
100
AcDbLine
 10
290.097454
 20
184.860365
 30
0.0
 11
289.597508
 21
184.860365
 31
0.0
  0
LINE
  5
3D1
330
36
100
AcDbEntity
  8
0
 62
     3
100
AcDbLine
 10
290.597399
 20
185.485296
 30
0.0
 11
290.097454
 21
184.860365
 31
0.0
  0
LINE
  5
3D2
330
36
100
AcDbEntity
  8
0
 62
     3
100
AcDbLine
 10
290.597399
 20
190.247299
 30
0.0
 11
290.597399
 21
185.472776
 31
0.0
  0
LINE
  5
3D3
330
36
100
AcDbEntity
  8
0
 62
     3
100
AcDbLine
 10
289.597508
 20
191.984588
 30
0.0
 11
289.597508
 21
183.735487
 31
0.0
  0
LINE
  5
3D4
330
36
100
AcDbEntity
  8
0
 62
     3
100
AcDbLine
 10
287.347753
 20
175.736359
 30
0.0
 11
285.347971
 21
175.736359
 31
0.0
  0
LINE
  5
3D5
330
36
100
AcDbEntity
  8
0
 62
     3
100
AcDbLine
 10
294.982072
 20
177.111209
 30
0.0
 11
295.00251
 21
177.111209
 31
0.0
  0
ARC
  5
3D6
330
36
100
AcDbEntity
  8
0
 62
     3
100
AcDbCircle
 10
292.712089
 20
177.039544
 30
0.0
 40
1.734888999999999
100
AcDbArc
 50
295.0656940000001
 51
64.93430600000002
  0
LINE
  5
3D7
330
36
100
AcDbEntity
  8
0
 62
     3
100
AcDbLine
 10
285.347971
 20
178.361073
 30
0.0
 11
283.098217
 21
178.361073
 31
0.0
  0
LINE
  5
3D8
330
36
100
AcDbEntity
  8
0
 62
     3
100
AcDbLine
 10
283.098217
 20
197.359002
 30
0.0
 11
283.098217
 21
178.361073
 31
0.0
  0
LINE
  5
3D9
330
36
100
AcDbEntity
  8
0
 62
     3
100
AcDbLine
 10
285.347971
 20
199.983716
 30
0.0
 11
285.347971
 21
175.736359
 31
0.0
  0
LINE
  5
3DA
330
36
100
AcDbEntity
  8
0
 62
     3
100
AcDbLine
 10
287.347753
 20
199.983716
 30
0.0
 11
287.347753
 21
175.736359
 31
0.0
  0
LWPOLYLINE
  5
3DB
330
36
100
AcDbEntity
  8
0
 62
     3
100
AcDbPolyline
 90
       13
 70
     0
 43
0.0
 10
304.194359
 20
188.544317
 10
304.455135
 20
188.467807
 10
304.716873
 20
188.389894
 10
305.434314
 20
188.164378
 10
306.102029
 20
187.856716
 10
306.839543
 20
187.236326
 10
307.477776
 20
186.47156
 10
308.342255
 20
185.321282
 10
309.016191
 20
184.090575
 10
309.247933
 20
183.366465
 10
309.406447
 20
182.613278
 10
309.553081
 20
181.471536
 10
309.558796
 20
180.33006
  0
LWPOLYLINE
  5
3EA
330
36
100
AcDbEntity
  8
0
 62
     3
100
AcDbPolyline
 90
       11
 70
     0
 43
0.0
 10
304.5385
 20
185.690422
 10
304.594574
 20
185.66138
 10
304.649269
 20
185.630231
 10
305.074183
 20
185.273988
 10
305.44169
 20
184.83239
 10
306.103003
 20
183.961868
 10
306.608256
 20
183.026911
 10
306.732261
 20
182.627753
 10
306.822729
 20
182.215034
 10
306.940343
 20
181.351854
 10
306.948241
 20
180.486438
  0
LWPOLYLINE
  5
3F7
330
36
100
AcDbEntity
  8
0
 62
     3
100
AcDbPolyline
 90
       13
 70
     0
 43
0.0
 10
312.312677
 20
161.90286
 10
312.051902
 20
161.97937
 10
311.790164
 20
162.057283
 10
311.072723
 20
162.282799
 10
310.405008
 20
162.590461
 10
309.667493
 20
163.210852
 10
309.029261
 20
163.975617
 10
308.164782
 20
165.125895
 10
307.4908450000001
 20
166.356602
 10
307.259103
 20
167.080712
 10
307.10059
 20
167.833899
 10
306.953956
 20
168.975642
 10
306.948241
 20
170.117117
  0
LWPOLYLINE
  5
406
330
36
100
AcDbEntity
  8
0
 62
     3
100
AcDbPolyline
 90
       11
 70
     0
 43
0.0
 10
311.968537
 20
164.756755
 10
311.912463
 20
164.785797
 10
311.857768
 20
164.816946
 10
311.432854
 20
165.1731889999999
 10
311.065346
 20
165.614787
 10
310.404034
 20
166.485309
 10
309.898781
 20
167.420266
 10
309.774776
 20
167.819424
 10
309.684308
 20
168.232143
 10
309.566694
 20
169.095323
 10
309.558796
 20
169.960739
  0
LWPOLYLINE
  5
413
330
36
100
AcDbEntity
  8
0
 62
     3
100
AcDbPolyline
 90
        5
 70
     0
 43
0.0
 10
314.365964
 20
164.171721
 10
314.058827
 20
164.197531
 10
313.754522
 20
164.238985
 10
313.182905
 20
164.3657649999999
 10
312.612955
 20
164.529073
  0
LWPOLYLINE
  5
41A
330
36
100
AcDbEntity
  8
0
100
AcDbPolyline
 90
        3
 70
     0
 43
0.0
 10
286.236441
 20
200.634459
 10
286.9309740000001
 20
198.683867
 10
287.304787
 20
200.720396
  0
LINE
  5
41F
330
36
100
AcDbEntity
  8
0
100
AcDbLine
 10
286.9309740000001
 20
198.683867
 30
0.0
 11
283.742167
 21
238.326293
 31
0.0
  0
CIRCLE
  5
420
330
36
100
AcDbEntity
  8
0
100
AcDbCircle
 10
283.341266
 20
243.310195
 30
0.0
 40
5.0
  0
TEXT
  5
421
330
36
100
AcDbEntity
  8
0
 62
     4
100
AcDbText
 10
281.0558203934345
 20
241.1640121176969
 30
0.0
 40
4.5
  1
11
  7
高4.5
100
AcDbText
  0
CIRCLE
  5
431
330
36
100
AcDbEntity
  8
0
100
AcDbCircle
 10
303.629538
 20
208.984612
 30
0.0
 40
1.135303
  0
CIRCLE
  5
432
330
36
100
AcDbEntity
  8
0
100
AcDbCircle
 10
303.629538
 20
206.714005
 30
0.0
 40
1.135303
  0
CIRCLE
  5
433
330
36
100
AcDbEntity
  8
0
100
AcDbCircle
 10
303.629538
 20
204.443399
 30
0.0
 40
1.135303
  0
CIRCLE
  5
434
330
36
100
AcDbEntity
  8
0
100
AcDbCircle
 10
303.629538
 20
202.172793
 30
0.0
 40
1.135303
  0
CIRCLE
  5
435
330
36
100
AcDbEntity
  8
0
100
AcDbCircle
 10
303.629538
 20
199.902187
 30
0.0
 40
1.135303
  0
LINE
  5
436
330
36
100
AcDbEntity
  8
0
100
AcDbLine
 10
305.722407
 20
199.635955
 30
0.0
 11
305.890108
 21
219.667932
 31
0.0
  0
LINE
  5
437
330
36
100
AcDbEntity
  8
0
100
AcDbLine
 10
305.055831
 20
199.641535
 30
0.0
 11
305.223531
 21
219.673512
 31
0.0
  0
ARC
  5
438
330
36
100
AcDbEntity
  8
0
100
AcDbCircle
 10
304.430915
 20
199.646767
 30
0.0
 40
1.291537
100
AcDbArc
 50
296.827774
 51
359.520352
  0
ARC
  5
439
330
36
100
AcDbEntity
  8
0
100
AcDbCircle
 10
304.430915
 20
199.646767
 30
0.0
 40
0.624937
100
AcDbArc
 50
296.827774
 51
359.520352
  0
ARC
  5
43A
330
36
100
AcDbEntity
  8
0
100
AcDbCircle
 10
304.34458
 20
196.991721
 30
0.0
 40
1.708161999999999
100
AcDbArc
 50
113.553793
 51
177.554898
  0
LINE
  5
43B
330
36
100
AcDbEntity
  8
0
100
AcDbLine
 10
305.094155
 20
198.535961
 30
0.0
 11
303.875755
 21
197.921804
 31
0.0
  0
LINE
  5
43C
330
36
100
AcDbEntity
  8
0
100
AcDbLine
 10
304.712956
 20
199.089093
 30
0.0
 11
303.661982
 21
198.557568
 31
0.0
  0
ARC
  5
43D
330
36
100
AcDbEntity
  8
0
100
AcDbCircle
 10
304.34458
 20
196.991721
 30
0.0
 40
1.041562
100
AcDbArc
 50
116.751242
 51
175.921344
  0
ARC
  5
43E
330
36
100
AcDbEntity
  8
0
100
AcDbCircle
 10
304.344305
 20
197.143644
 30
0.0
 40
1.041562
100
AcDbArc
 50
184.28601
 51
243.456113
  0
ARC
  5
43F
330
36
100
AcDbEntity
  8
0
100
AcDbCircle
 10
304.344305
 20
197.143644
 30
0.0
 40
1.708161999999999
100
AcDbArc
 50
182.6524569999999
 51
246.653562
  0
LINE
  5
440
330
36
100
AcDbEntity
  8
0
100
AcDbLine
 10
305.099463
 20
195.602126
 30
0.0
 11
303.878849
 21
196.21187
 31
0.0
  0
ARC
  5
441
330
36
100
AcDbEntity
  8
0
100
AcDbCircle
 10
304.476572
 20
194.470722
 30
0.0
 40
1.291537
100
AcDbArc
 50
0.103677
 51
63.37958
  0
LINE
  5
442
330
36
100
AcDbEntity
  8
0
100
AcDbLine
 10
304.756593
 20
195.0294129999999
 30
0.0
 11
303.667378
 21
195.575337
 31
0.0
  0
ARC
  5
443
330
36
100
AcDbEntity
  8
0
100
AcDbCircle
 10
304.476572
 20
194.470722
 30
0.0
 40
0.624937
100
AcDbArc
 50
0.103677
 51
63.37958
  0
LINE
  5
444
330
36
100
AcDbEntity
  8
0
100
AcDbLine
 10
305.768108
 20
194.473059
 30
0.0
 11
305.790457
 21
182.12204
 31
0.0
  0
LINE
  5
445
330
36
100
AcDbEntity
  8
0
100
AcDbLine
 10
305.101509
 20
194.471853
 30
0.0
 11
305.123858
 21
182.120834
 31
0.0
  0
ARC
  5
446
330
36
100
AcDbEntity
  8
0
100
AcDbCircle
 10
302.510119
 20
181.844835
 30
0.0
 40
3.270506
100
AcDbArc
 50
269.721717
 51
5.403677
  0
ARC
  5
447
330
36
100
AcDbEntity
  8
0
100
AcDbCircle
 10
302.510119
 20
181.844835
 30
0.0
 40
2.603906
100
AcDbArc
 50
269.650476
 51
5.403677
  0
LINE
  5
448
330
36
100
AcDbEntity
  8
0
100
AcDbLine
 10
306.203246
 20
220.749045
 30
0.0
 11
309.076554
 21
225.378329
 31
0.0
  0
LINE
  5
449
330
36
100
AcDbEntity
  8
0
100
AcDbLine
 10
305.636874
 20
221.100581
 30
0.0
 11
308.485975
 21
225.690866
 31
0.0
  0
ARC
  5
44A
330
36
100
AcDbEntity
  8
0
100
AcDbCircle
 10
307.97316
 20
219.650494
 30
0.0
 40
2.749725
100
AcDbArc
 50
148.172921
 51
179.520352
  0
ARC
  5
44B
330
36
100
AcDbEntity
  8
0
100
AcDbCircle
 10
307.97316
 20
219.650494
 30
0.0
 40
2.083124999999999
100
AcDbArc
 50
148.172921
 51
179.520352
  0
ARC
  5
44C
330
36
100
AcDbEntity
  8
0
100
AcDbCircle
 10
308.77186
 20
225.513423
 30
0.0
 40
0.3333
100
AcDbArc
 50
328.172921
 51
148.172921
  0
LINE
  5
44D
330
36
100
AcDbEntity
  8
0
 62
     3
100
AcDbLine
 10
293.420981
 20
184.6103629999999
 30
0.0
 11
297.170606
 21
184.6103629999999
 31
0.0
  0
LINE
  5
44E
330
36
100
AcDbEntity
  8
0
 62
     3
100
AcDbLine
 10
297.170606
 20
191.109713
 30
0.0
 11
293.420981
 21
191.109713
 31
0.0
  0
LWPOLYLINE
  5
457
330
36
100
AcDbEntity
  8
0
100
AcDbPolyline
 90
        3
 70
     0
 43
0.0
 10
295.928268
 20
216.677538
 10
295.661466
 20
214.624247
 10
296.919169
 20
216.269048
  0
LINE
  5
45C
330
36
100
AcDbEntity
  8
0
100
AcDbLine
 10
295.661466
 20
214.624247
 30
0.0
 11
305.502116
 21
238.495347
 31
0.0
  0
CIRCLE
  5
45D
330
36
100
AcDbEntity
  8
0
100
AcDbCircle
 10
307.407748
 20
243.117962
 30
0.0
 40
5.0
  0
TEXT
  5
45E
330
36
100
AcDbEntity
  8
0
 62
     4
100
AcDbText
 10
304.2156494913904
 20
240.9245711050373
 30
0.0
 40
4.5
  1
04
  7
高4.5
100
AcDbText
  0
LWPOLYLINE
  5
45F
330
36
100
AcDbEntity
  8
0
100
AcDbPolyline
 90
        3
 70
     0
 43
0.0
 10
290.044752
 20
207.393592
 10
290.29636
 20
205.338384
 10
291.106065
 20
207.24405
  0
LINE
  5
464
330
36
100
AcDbEntity
  8
0
100
AcDbLine
 10
290.29636
 20
205.338384
 30
0.0
 11
294.964836
 21
238.471056
 31
0.0
  0
CIRCLE
  5
465
330
36
100
AcDbEntity
  8
0
100
AcDbCircle
 10
295.662457
 20
243.422149
 30
0.0
 40
5.0
  0
TEXT
  5
466
330
36
100
AcDbEntity
  8
0
 62
     4
100
AcDbText
 10
292.4703584913903
 20
241.2287581050373
 30
0.0
 40
4.5
  1
03
  7
高4.5
100
AcDbText
  0
LWPOLYLINE
  5
467
330
36
100
AcDbEntity
  8
0
100
AcDbPolyline
 90
        3
 70
     0
 43
0.0
 10
168.392262
 20
227.027736
 10
168.463703
 20
224.958417
 10
169.436493
 20
226.78622
  0
LINE
  5
46C
330
36
100
AcDbEntity
  8
0
100
AcDbLine
 10
168.463703
 20
224.958417
 30
0.0
 11
171.53706
 21
238.246558
 31
0.0
  0
CIRCLE
  5
46D
330
36
100
AcDbEntity
  8
0
100
AcDbCircle
 10
172.663746
 20
243.117962
 30
0.0
 40
5.0
  0
TEXT
  5
46E
330
36
100
AcDbEntity
  8
0
 62
     4
100
AcDbText
 10
169.992717437877
 20
240.9720896374724
 30
0.0
 40
4.5
  1
01
  7
高4.5
100
AcDbText
  0
LWPOLYLINE
  5
46F
330
36
100
AcDbEntity
  8
0
100
AcDbPolyline
 90
        3
 70
     0
 43
0.0
 10
175.477352
 20
219.334994
 10
175.333113
 20
217.269471
 10
176.490789
 20
218.986147
  0
LINE
  5
474
330
36
100
AcDbEntity
  8
0
100
AcDbLine
 10
175.333113
 20
217.269471
 30
0.0
 11
182.603331
 21
238.390215
 31
0.0
  0
CIRCLE
  5
475
330
36
100
AcDbEntity
  8
0
100
AcDbCircle
 10
184.230723
 20
243.117962
 30
0.0
 40
5.0
  0
TEXT
  5
476
330
36
100
AcDbEntity
  8
0
 62
     4
100
AcDbText
 10
181.0386244913903
 20
240.9245711050373
 30
0.0
 40
4.5
  1
05
  7
高4.5
100
AcDbText
  0
LWPOLYLINE
  5
477
330
36
100
AcDbEntity
  8
0
100
AcDbPolyline
 90
        3
 70
     0
 43
0.0
 10
167.865674
 20
191.310457
 10
167.386139
 20
189.2962
 10
168.808557
 20
190.80083
  0
LINE
  5
47C
330
36
100
AcDbEntity
  8
0
100
AcDbLine
 10
167.386139
 20
189.2962
 30
0.0
 11
194.099291
 21
238.719353
 31
0.0
  0
CIRCLE
  5
47D
330
36
100
AcDbEntity
  8
0
100
AcDbCircle
 10
196.476734
 20
243.117962
 30
0.0
 40
5.0
  0
TEXT
  5
47E
330
36
100
AcDbEntity
  8
0
 62
     4
100
AcDbText
 10
193.2846354913903
 20
240.9245711050373
 30
0.0
 40
4.5
  1
06
  7
高4.5
100
AcDbText
  0
LWPOLYLINE
  5
47F
330
36
100
AcDbEntity
  8
0
100
AcDbPolyline
 90
        3
 70
     0
 43
0.0
 10
277.620817
 20
228.601966
 10
278.983621
 20
227.043135
 10
278.582814
 20
229.074524
  0
LINE
  5
484
330
36
100
AcDbEntity
  8
0
100
AcDbLine
 10
278.983621
 20
227.043135
 30
0.0
 11
273.197323
 21
238.822421
 31
0.0
  0
CIRCLE
  5
485
330
36
100
AcDbEntity
  8
0
100
AcDbCircle
 10
270.992809
 20
243.310195
 30
0.0
 40
5.0
  0
TEXT
  5
486
330
36
100
AcDbEntity
  8
0
 62
     4
100
AcDbText
 10
267.8007104913903
 20
241.1168051050373
 30
0.0
 40
4.5
  1
02
  7
高4.5
100
AcDbText
  0
LWPOLYLINE
  5
487
330
36
100
AcDbEntity
  8
0
100
AcDbPolyline
 90
        3
 70
     0
 43
0.0
 10
253.020474
 20
149.968532
 10
253.74516
 20
151.908124
 10
252.147767
 20
150.590731
  0
LINE
  5
48C
330
36
100
AcDbEntity
  8
0
100
AcDbLine
 10
253.74516
 20
151.908124
 30
0.0
 11
240.280633
 21
133.02256
 31
0.0
  0
CIRCLE
  5
48D
330
36
100
AcDbEntity
  8
0
100
AcDbCircle
 10
237.378035
 20
128.951328
 30
0.0
 40
5.0
  0
TEXT
  5
48E
330
36
100
AcDbEntity
  8
0
 62
     4
100
AcDbText
 10
234.1859364913903
 20
126.7579381050373
 30
0.0
 40
4.5
  1
08
  7
高4.5
100
AcDbText
  0
LWPOLYLINE
  5
48F
330
36
100
AcDbEntity
  8
0
100
AcDbPolyline
 90
        3
 70
     0
 43
0.0
 10
255.17855
 20
159.49544
 10
256.228287
 20
161.280163
 10
254.426826
 20
160.259416
  0
LINE
  5
494
330
36
100
AcDbEntity
  8
0
100
AcDbLine
 10
256.228287
 20
161.280163
 30
0.0
 11
240.942034
 21
146.239077
 31
0.0
  0
CIRCLE
  5
495
330
36
100
AcDbEntity
  8
0
100
AcDbCircle
 10
237.378035
 20
142.732239
 30
0.0
 40
5.0
  0
TEXT
  5
496
330
36
100
AcDbEntity
  8
0
 62
     4
100
AcDbText
 10
234.1859364913903
 20
140.5388491050373
 30
0.0
 40
4.5
  1
07
  7
高4.5
100
AcDbText
  0
CIRCLE
  5
497
330
36
100
AcDbEntity
  8
0
100
AcDbCircle
 10
165.301448
 20
187.859704
 30
0.0
 40
20.9979
  0
CIRCLE
  5
498
330
36
100
AcDbEntity
  8
0
100
AcDbCircle
 10
165.301448
 20
187.859704
 30
0.0
 40
19.248075
  0
CIRCLE
  5
499
330
36
100
AcDbEntity
  8
0
100
AcDbCircle
 10
165.301448
 20
187.859704
 30
0.0
 40
17.49825
  0
TEXT
  5
4FE
330
36
100
AcDbEntity
  8
0
 62
     7
100
AcDbText
 10
335.4999999999999
 20
272.5
 30
0.0
 40
2.5
  1
`11.11.24
  7
高2.5
100
AcDbText
  0
TEXT
  5
4FF
330
36
100
AcDbEntity
  8
0
 62
     7
100
AcDbText
 10
353.4999999999998
 20
272.5
 30
0.0
 40
2.5
  1
部品名変更（フレームキャップ）
 41
0.8
  7
高2.5
100
AcDbText
  0
TEXT
  5
500
330
36
100
AcDbEntity
  8
0
 62
     7
100
AcDbText
 10
397.4999999999998
 20
272.5
 30
0.0
 40
2.5
  1
牧田
  7
高2.5
100
AcDbText
  0
TEXT
  5
A79
330
36
100
AcDbEntity
  8
0
 62
     3
100
AcDbText
 10
75.81789400000002
 20
40.49999999999999
 30
0.0
 40
3.2
  1
1
 41
0.8
  7
高3.2
100
AcDbText
  0
TEXT
  5
A7A
330
36
100
AcDbEntity
  8
0
 62
     3
100
AcDbText
 10
75.81789400000002
 20
25.5
 30
0.0
 40
3.2
  1
1
 41
0.8
  7
高3.2
100
AcDbText
  0
TEXT
  5
A7B
330
36
100
AcDbEntity
  8
0
 62
     3
100
AcDbText
 10
75.81789400000002
 20
20.5
 30
0.0
 40
3.2
  1
1
 41
0.8
  7
高3.2
100
AcDbText
  0
TEXT
  5
A7C
330
36
100
AcDbEntity
  8
0
 62
     3
100
AcDbText
 10
75.81789400000002
 20
50.5
 30
0.0
 40
3.2
  1
2
 41
0.8
  7
高3.2
100
AcDbText
  0
TEXT
  5
A7D
330
36
100
AcDbEntity
  8
0
 62
     3
100
AcDbText
 10
75.81789400000002
 20
15.5
 30
0.0
 40
3.2
  1
1
 41
0.8
  7
高3.2
100
AcDbText
  0
TEXT
  5
A7E
330
36
100
AcDbEntity
  8
0
 62
     3
100
AcDbText
 10
361.7134924893096
 20
10.89373986051464
 30
0.0
 40
6.299999999999998
  1
RSA-30S
  7
高6.3
100
AcDbText
  0
TEXT
  5
A7F
330
36
100
AcDbEntity
  8
0
 62
     3
100
AcDbText
 10
321.154743
 20
34.43575300000001
 30
0.0
 40
4.5
  1
RSA-30S
  7
高4.5
100
AcDbText
  0
TEXT
  5
A80
330
36
100
AcDbEntity
  8
0
 62
     3
100
AcDbText
 10
375.454115
 20
20.869825
 30
0.0
 40
3.2
  1
1995.8.9
  7
高3.2
100
AcDbText
  0
TEXT
  5
A81
330
36
100
AcDbEntity
  8
0
 62
     3
100
AcDbText
 10
75.81789400000002
 20
35.5
 30
0.0
 40
3.2
  1
1
 41
0.8
  7
高3.2
100
AcDbText
  0
TEXT
  5
A82
330
36
100
AcDbEntity
  8
0
 62
     3
100
AcDbText
 10
75.81789400000002
 20
30.5
 30
0.0
 40
3.2
  1
1
 41
0.8
  7
高3.2
100
AcDbText
  0
TEXT
  5
A87
330
36
100
AcDbEntity
  8
0
 62
     4
100
AcDbText
 10
53.69416604330035
 20
135.456575562589
 30
0.0
 40
3.2
  1
<PS>E JET 15A125V
  7
高3.2
100
AcDbText
  0
TEXT
  5
A88
330
36
100
AcDbEntity
  8
0
 62
     4
100
AcDbText
 10
341.814636683848
 20
135.3838810365389
 30
0.0
 40
3.2
  1
<PS>E JET 15A 125V
  7
高3.2
100
AcDbText
  0
TEXT
  5
B4C
330
36
100
AcDbEntity
  8
0
 62
     3
100
AcDbText
 10
343.8700906502698
 20
21.03666
 30
0.0
 40
3.2
  1
FREE
  7
高3.2
100
AcDbText
  0
TEXT
  5
B5D
330
36
100
AcDbEntity
  8
0
 62
     3
100
AcDbText
 10
21.5
 20
10.5
 30
0.0
 40
3.2
  1
番号　
 41
0.8
  7
高3.2
100
AcDbText
  0
TEXT
  5
B5E
330
36
100
AcDbEntity
  8
0
 62
     3
100
AcDbText
 10
31.51399800000001
 20
10.5
 30
0.0
 40
3.2
  1
部　品　名
 41
0.8
  7
高3.2
100
AcDbText
  0
TEXT
  5
B5F
330
36
100
AcDbEntity
  8
0
 62
     3
100
AcDbText
 10
75.81789400000002
 20
10.5
 30
0.0
 40
3.2
  1
個数　
 41
0.8
  7
高3.2
100
AcDbText
  0
TEXT
  5
B60
330
36
100
AcDbEntity
  8
0
 62
     3
100
AcDbText
 10
31.51399800000001
 20
65.5
 30
0.0
 40
3.2
  1
集電子（2Pリードパック）
 41
0.8
  7
高3.2
100
AcDbText
  0
TEXT
  5
B61
330
36
100
AcDbEntity
  8
0
 62
     3
100
AcDbText
 10
31.51399800000001
 20
60.5
 30
0.0
 40
3.2
  1
2次電線　コンセント付き
 41
0.8
  7
高3.2
100
AcDbText
  0
TEXT
  5
B62
330
36
100
AcDbEntity
  8
0
 62
     3
100
AcDbText
 10
31.51399800000001
 20
55.5
 30
0.0
 40
3.2
  1
1次電線　プラグ付き
 41
0.8
  7
高3.2
100
AcDbText
  0
TEXT
  5
B63
330
36
100
AcDbEntity
  8
0
 62
     3
100
AcDbText
 10
31.51399800000001
 20
50.5
 30
0.0
 40
3.2
  1
フレームキャップ16
 41
0.8
  7
高3.2
100
AcDbText
  0
TEXT
  5
B64
330
36
100
AcDbEntity
  8
0
 62
     3
100
AcDbText
 10
31.51399800000001
 20
45.49999999999999
 30
0.0
 40
3.2
  1
ハンドルツマミ（小）
 41
0.8
  7
高3.2
100
AcDbText
  0
TEXT
  5
B65
330
36
100
AcDbEntity
  8
0
 62
     3
100
AcDbText
 10
31.51399800000001
 20
40.49999999999999
 30
0.0
 40
3.2
  1
ブッシング
 41
0.8
  7
高3.2
100
AcDbText
  0
TEXT
  5
B66
330
36
100
AcDbEntity
  8
0
 62
     3
100
AcDbText
 10
31.51399800000001
 20
35.5
 30
0.0
 40
3.2
  1
B側板
 41
0.8
  7
高3.2
100
AcDbText
  0
TEXT
  5
B67
330
36
100
AcDbEntity
  8
0
 62
     3
100
AcDbText
 10
31.51399800000001
 20
30.5
 30
0.0
 40
3.2
  1
A側板
 41
0.8
  7
高3.2
100
AcDbText
  0
TEXT
  5
B68
330
36
100
AcDbEntity
  8
0
 62
     3
100
AcDbText
 10
31.51399800000001
 20
25.5
 30
0.0
 40
3.2
  1
巻胴
 41
0.8
  7
高3.2
100
AcDbText
  0
TEXT
  5
B69
330
36
100
AcDbEntity
  8
0
 62
     3
100
AcDbText
 10
31.51399800000001
 20
20.5
 30
0.0
 40
3.2
  1
フレーム
 41
0.8
  7
高3.2
100
AcDbText
  0
TEXT
  5
B6A
330
36
100
AcDbEntity
  8
0
 62
     3
100
AcDbText
 10
31.51399800000001
 20
15.5
 30
0.0
 40
3.2
  1
グリップ
 41
0.8
  7
高3.2
100
AcDbText
  0
TEXT
  5
B6B
330
36
100
AcDbEntity
  8
0
 62
     3
100
AcDbText
 10
114.2439400879112
 20
40.49999999999999
 30
0.0
 40
3.2
  1
CP-19
 41
0.8
  7
高3.2
100
AcDbText
  0
TEXT
  5
B6C
330
36
100
AcDbEntity
  8
0
 62
     3
100
AcDbText
 10
114.2439400879112
 20
20.5
 30
0.0
 40
3.2
  1
RSA-120B
 41
0.8
  7
高3.2
100
AcDbText
  0
TEXT
  5
B6D
330
36
100
AcDbEntity
  8
0
 62
     3
100
AcDbText
 10
114.2439400879112
 20
15.5
 30
0.0
 40
3.2
  1
G-03
 41
0.8
  7
高3.2
100
AcDbText
  0
TEXT
  5
B6E
330
36
100
AcDbEntity
  8
0
 62
     3
100
AcDbText
 10
114.2439400879112
 20
10.5
 30
0.0
 40
3.2
  1
備　　　　考　
 41
0.8
  7
高3.2
100
AcDbText
  0
TEXT
  5
B6F
330
36
100
AcDbEntity
  8
0
 62
     3
100
AcDbText
 10
84.51399800000002
 20
10.5
 30
0.0
 40
3.2
  1
材　　　　質　
 41
0.8
  7
高3.2
100
AcDbText
  0
TEXT
  5
B70
330
36
100
AcDbEntity
  8
0
 62
     3
100
AcDbText
 10
84.51399800000002
 20
15.5
 30
0.0
 40
3.2
  1
EVA樹脂
 41
0.8
  7
高3.2
100
AcDbText
  0
TEXT
  5
B71
330
36
100
AcDbEntity
  8
0
 62
     3
100
AcDbText
 10
84.51399800000002
 20
20.5
 30
0.0
 40
3.2
  1
STKM
 41
0.8
  7
高3.2
100
AcDbText
  0
TEXT
  5
B72
330
36
100
AcDbEntity
  8
0
 62
     3
100
AcDbText
 10
84.51399800000002
 20
25.5
 30
0.0
 40
3.2
  1
ABS樹脂
 41
0.8
  7
高3.2
100
AcDbText
  0
TEXT
  5
B73
330
36
100
AcDbEntity
  8
0
 62
     3
100
AcDbText
 10
84.51399800000002
 20
30.5
 30
0.0
 40
3.2
  1
SPCC
 41
0.8
  7
高3.2
100
AcDbText
  0
TEXT
  5
B74
330
36
100
AcDbEntity
  8
0
 62
     3
100
AcDbText
 10
84.51399800000002
 20
35.5
 30
0.0
 40
3.2
  1
SPCC
 41
0.8
  7
高3.2
100
AcDbText
  0
TEXT
  5
B75
330
36
100
AcDbEntity
  8
0
 62
     3
100
AcDbText
 10
84.51399800000002
 20
40.49999999999999
 30
0.0
 40
3.2
  1
PC樹脂
 41
0.8
  7
高3.2
100
AcDbText
  0
TEXT
  5
B76
330
36
100
AcDbEntity
  8
0
 62
     3
100
AcDbText
 10
84.51399800000002
 20
45.49999999999999
 30
0.0
 40
3.2
  1
SS41 ABS樹脂
 41
0.8
  7
高3.2
100
AcDbText
  0
TEXT
  5
B77
330
36
100
AcDbEntity
  8
0
 62
     3
100
AcDbText
 10
84.51399800000002
 20
50.5
 30
0.0
 40
3.2
  1
PE樹脂
 41
0.8
  7
高3.2
100
AcDbText
  0
TEXT
  5
B78
330
36
100
AcDbEntity
  8
0
 62
     3
100
AcDbText
 10
21.5
 20
55.5
 30
0.0
 40
3.2
  1
09
 41
0.8
  7
高3.2
100
AcDbText
  0
TEXT
  5
B79
330
36
100
AcDbEntity
  8
0
 62
     3
100
AcDbText
 10
21.5
 20
50.5
 30
0.0
 40
3.2
  1
08
 41
0.8
  7
高3.2
100
AcDbText
  0
TEXT
  5
B7A
330
36
100
AcDbEntity
  8
0
 62
     3
100
AcDbText
 10
21.5
 20
45.49999999999999
 30
0.0
 40
3.2
  1
07
 41
0.8
  7
高3.2
100
AcDbText
  0
TEXT
  5
B7B
330
36
100
AcDbEntity
  8
0
 62
     3
100
AcDbText
 10
21.5
 20
40.49999999999999
 30
0.0
 40
3.2
  1
06
 41
0.8
  7
高3.2
100
AcDbText
  0
TEXT
  5
B7C
330
36
100
AcDbEntity
  8
0
 62
     3
100
AcDbText
 10
21.5
 20
35.5
 30
0.0
 40
3.2
  1
05
 41
0.8
  7
高3.2
100
AcDbText
  0
TEXT
  5
B7D
330
36
100
AcDbEntity
  8
0
 62
     3
100
AcDbText
 10
21.5
 20
30.5
 30
0.0
 40
3.2
  1
04
 41
0.8
  7
高3.2
100
AcDbText
  0
TEXT
  5
B7E
330
36
100
AcDbEntity
  8
0
 62
     3
100
AcDbText
 10
21.5
 20
25.5
 30
0.0
 40
3.2
  1
03
 41
0.8
  7
高3.2
100
AcDbText
  0
TEXT
  5
B7F
330
36
100
AcDbEntity
  8
0
 62
     3
100
AcDbText
 10
21.5
 20
20.5
 30
0.0
 40
3.2
  1
02
 41
0.8
  7
高3.2
100
AcDbText
  0
TEXT
  5
B80
330
36
100
AcDbEntity
  8
0
 62
     3
100
AcDbText
 10
21.5
 20
15.5
 30
0.0
 40
3.2
  1
01
 41
0.8
  7
高3.2
100
AcDbText
  0
LINE
  5
B81
330
36
100
AcDbEntity
  8
0
 62
     3
100
AcDbLine
 10
213.6927837482101
 20
70.00000000000001
 30
0.0
 11
213.6927837482101
 21
10.0
 31
0.0
  0
TEXT
  5
B82
330
36
100
AcDbEntity
  8
0
 62
     3
100
AcDbText
 10
75.81789400000002
 20
45.49999999999999
 30
0.0
 40
3.2
  1
1式
 41
0.8
  7
高3.2
100
AcDbText
  0
LINE
  5
B83
330
36
100
AcDbEntity
  8
0
 62
     3
100
AcDbLine
 10
213.6927837482101
 20
70.0
 30
0.0
 11
20.0
 21
70.0
 31
0.0
  0
LINE
  5
B84
330
36
100
AcDbEntity
  8
0
100
AcDbLine
 10
213.6927837482101
 20
65.0
 30
0.0
 11
20.0
 21
65.0
 31
0.0
  0
LINE
  5
B85
330
36
100
AcDbEntity
  8
0
100
AcDbLine
 10
213.6927837482101
 20
60.0
 30
0.0
 11
20.0
 21
60.0
 31
0.0
  0
LINE
  5
B86
330
36
100
AcDbEntity
  8
0
100
AcDbLine
 10
213.6927837482101
 20
55.0
 30
0.0
 11
20.0
 21
55.0
 31
0.0
  0
LINE
  5
B87
330
36
100
AcDbEntity
  8
0
100
AcDbLine
 10
213.6927837482101
 20
50.0
 30
0.0
 11
20.0
 21
50.0
 31
0.0
  0
LINE
  5
B88
330
36
100
AcDbEntity
  8
0
100
AcDbLine
 10
213.6927837482101
 20
45.0
 30
0.0
 11
20.0
 21
45.0
 31
0.0
  0
LINE
  5
B89
330
36
100
AcDbEntity
  8
0
100
AcDbLine
 10
213.6927837482101
 20
40.0
 30
0.0
 11
20.0
 21
40.0
 31
0.0
  0
LINE
  5
B8A
330
36
100
AcDbEntity
  8
0
100
AcDbLine
 10
213.6927837482101
 20
35.0
 30
0.0
 11
20.0
 21
35.0
 31
0.0
  0
LINE
  5
B8B
330
36
100
AcDbEntity
  8
0
100
AcDbLine
 10
213.6927837482101
 20
30.0
 30
0.0
 11
20.0
 21
30.0
 31
0.0
  0
LINE
  5
B8C
330
36
100
AcDbEntity
  8
0
100
AcDbLine
 10
213.6927837482101
 20
25.0
 30
0.0
 11
20.0
 21
25.0
 31
0.0
  0
LINE
  5
B8D
330
36
100
AcDbEntity
  8
0
100
AcDbLine
 10
213.6927837482101
 20
20.0
 30
0.0
 11
20.0
 21
20.0
 31
0.0
  0
LINE
  5
B8E
330
36
100
AcDbEntity
  8
0
100
AcDbLine
 10
213.6927837482101
 20
15.0
 30
0.0
 11
20.0
 21
15.0
 31
0.0
  0
LINE
  5
B8F
330
36
100
AcDbEntity
  8
0
100
AcDbLine
 10
30.01399800000001
 20
70.00000000000001
 30
0.0
 11
30.01399800000001
 21
10.0
 31
0.0
  0
LINE
  5
B90
330
36
100
AcDbEntity
  8
0
100
AcDbLine
 10
74.31789400000002
 20
70.00000000000001
 30
0.0
 11
74.31789400000002
 21
10.0
 31
0.0
  0
LINE
  5
B91
330
36
100
AcDbEntity
  8
0
100
AcDbLine
 10
83.01399800000002
 20
70.00000000000001
 30
0.0
 11
83.01399800000002
 21
10.0
 31
0.0
  0
LINE
  5
B92
330
36
100
AcDbEntity
  8
0
100
AcDbLine
 10
112.7439400879112
 20
70.00000000000001
 30
0.0
 11
112.7439400879112
 21
10.0
 31
0.0
  0
TEXT
  5
B93
330
36
100
AcDbEntity
  8
0
 62
     3
100
AcDbText
 10
314.2227041452936
 20
41.43575300000001
 30
0.0
 40
4.5
  1
延長コード型電工ドラム
 41
0.7
  7
高4.5
100
AcDbText
  0
LINE
  5
BBD
330
36
100
AcDbEntity
  8
0
 62
     3
100
AcDbLine
 10
384.3006370000002
 20
26.665723
 30
0.0
 11
384.3006370000002
 21
49.665723
 31
0.0
  0
LINE
  5
BBF
330
36
100
AcDbEntity
  8
0
 62
     3
100
AcDbLine
 10
331.247027
 20
19.665723
 30
0.0
 11
331.247027
 21
33.665723
 31
0.0
  0
TEXT
  5
BC1
330
36
100
AcDbEntity
  8
0
 62
     3
100
AcDbText
 10
360.3109549999999
 20
45.870839
 30
0.0
 40
2.0
  1
A
 41
0.7
100
AcDbText
  0
TEXT
  5
BC2
330
36
100
AcDbEntity
  8
0
 62
     3
100
AcDbText
 10
362.846241
 20
45.870839
 30
0.0
 40
2.0
  1
P
 41
0.7
100
AcDbText
  0
TEXT
  5
BC3
330
36
100
AcDbEntity
  8
0
 62
     3
100
AcDbText
 10
365.381527
 20
45.870839
 30
0.0
 40
2.0
  1
P
 41
0.7
100
AcDbText
  0
TEXT
  5
BC4
330
36
100
AcDbEntity
  8
0
 62
     3
100
AcDbText
 10
367.9168130000002
 20
45.870839
 30
0.0
 40
2.0
  1
D
 41
0.7
100
AcDbText
  0
TEXT
  5
BC5
330
36
100
AcDbEntity
  8
0
 62
     3
100
AcDbText
 10
373.285496
 20
45.870839
 30
0.0
 40
2.0
  1
C
 41
0.7
100
AcDbText
  0
TEXT
  5
BC6
330
36
100
AcDbEntity
  8
0
 62
     3
100
AcDbText
 10
375.820783
 20
45.870839
 30
0.0
 40
2.0
  1
H
 41
0.7
100
AcDbText
  0
TEXT
  5
BC7
330
36
100
AcDbEntity
  8
0
 62
     3
100
AcDbText
 10
378.3560689999998
 20
45.870839
 30
0.0
 40
2.0
  1
C
 41
0.7
100
AcDbText
  0
TEXT
  5
BC8
330
36
100
AcDbEntity
  8
0
 62
     3
100
AcDbText
 10
380.891355
 20
45.870839
 30
0.0
 40
2.0
  1
K
 41
0.7
100
AcDbText
  0
TEXT
  5
BC9
330
36
100
AcDbEntity
  8
0
 62
     3
100
AcDbText
 10
386.565322
 20
45.870839
 30
0.0
 40
2.0
  1
DESN
 41
1.216762999999998
100
AcDbText
  0
TEXT
  5
BCA
330
36
100
AcDbEntity
  8
0
 62
     3
100
AcDbText
 10
301.558963
 20
16.524341
 30
0.0
 40
2.0
  1
NICHIDO IND.CO.LTD
 41
1.274876
100
AcDbText
  0
LINE
  5
BCB
330
36
100
AcDbEntity
  8
0
 62
     3
100
AcDbLine
 10
311.941992
 20
49.665723
 30
0.0
 11
311.941992
 21
26.665723
 31
0.0
  0
LINE
  5
BCC
330
36
100
AcDbEntity
  8
0
 62
     3
100
AcDbLine
 10
358.300637
 20
49.66572300000001
 30
0.0
 11
358.300637
 21
10.0
 31
0.0
  0
LINE
  5
BCD
330
36
100
AcDbEntity
  8
0
 62
     3
100
AcDbLine
 10
358.300637
 20
49.665723
 30
0.0
 11
358.300637
 21
55.665723
 31
0.0
  0
LINE
  5
BCF
330
36
100
AcDbEntity
  8
0
 62
     3
100
AcDbLine
 10
384.3006370000002
 20
49.665723
 30
0.0
 11
384.3006370000002
 21
55.665723
 31
0.0
  0
LINE
  5
BD0
330
36
100
AcDbEntity
  8
0
 62
     3
100
AcDbLine
 10
371.300637
 20
49.66572300000001
 30
0.0
 11
371.300637
 21
19.665723
 31
0.0
  0
TEXT
  5
BD1
330
36
100
AcDbEntity
  8
0
 62
     3
100
AcDbText
 10
359.413081
 20
20.530409
 30
0.0
 40
3.2
  1
作成日
 41
1.017225999999997
100
AcDbText
  0
LINE
  5
BD2
330
36
100
AcDbEntity
  8
0
 62
     3
100
AcDbLine
 10
410.0
 20
49.665723
 30
0.0
 11
298.696558
 21
49.665723
 31
0.0
  0
LINE
  5
BD3
330
36
100
AcDbEntity
  8
0
 62
     3
100
AcDbLine
 10
410.0
 20
55.665723
 30
0.0
 11
358.300637
 21
55.665723
 31
0.0
  0
LINE
  5
BD4
330
36
100
AcDbEntity
  8
0
 62
     3
100
AcDbLine
 10
397.3006370000002
 20
26.665723
 30
0.0
 11
397.3006370000002
 21
49.665723
 31
0.0
  0
TEXT
  5
BD5
330
36
100
AcDbEntity
  8
0
 62
     3
100
AcDbText
 10
400.6244399999998
 20
45.956657
 30
0.0
 40
1.8
  1
D
 41
0.666667
100
AcDbText
  0
TEXT
  5
BD6
330
36
100
AcDbEntity
  8
0
 62
     3
100
AcDbText
 10
403.441068
 20
45.956657
 30
0.0
 40
1.8
  1
E
 41
0.666667
100
AcDbText
  0
TEXT
  5
BD7
330
36
100
AcDbEntity
  8
0
 62
     3
100
AcDbText
 10
406.257696
 20
45.956657
 30
0.0
 40
1.8
  1
F
 41
0.666667
100
AcDbText
  0
TEXT
  5
BD8
330
36
100
AcDbEntity
  8
0
 62
     3
100
AcDbText
 10
400.6244399999998
 20
41.964104
 30
0.0
 40
3.2
  1
製図
 41
1.076369
100
AcDbText
  0
LINE
  5
BD9
330
36
100
AcDbEntity
  8
0
 62
     3
100
AcDbLine
 10
298.696558
 20
49.665723
 30
0.0
 11
298.696558
 21
10.0
 31
0.0
  0
TEXT
  5
BDA
330
36
100
AcDbEntity
  8
0
 62
     3
100
AcDbText
 10
300.07321
 20
10.332465
 30
0.0
 40
5.0
  1
日動工業株式会社
 41
0.833333
100
AcDbText
  0
LINE
  5
BDB
330
36
100
AcDbEntity
  8
0
 62
     3
100
AcDbLine
 10
341.578961
 20
33.665723
 30
0.0
 11
341.578961
 21
10.0
 31
0.0
  0
LINE
  5
BDC
330
36
100
AcDbEntity
  8
0
 62
     3
100
AcDbLine
 10
341.578961
 20
14.832861
 30
0.0
 11
358.300637
 21
14.832861
 31
0.0
  0
TEXT
  5
BDD
330
36
100
AcDbEntity
  8
0
 62
     3
100
AcDbText
 10
342.165563
 20
15.649292
 30
0.0
 40
3.2
  1
出図コード
 41
0.8356860000000002
100
AcDbText
  0
LINE
  5
BDF
330
36
100
AcDbEntity
  8
0
 62
     3
100
AcDbLine
 10
298.6965579999999
 20
19.665723
 30
0.0
 11
410.0
 21
19.665723
 31
0.0
  0
LINE
  5
BE1
330
36
100
AcDbEntity
  8
0
 62
     3
100
AcDbLine
 10
298.6965579999999
 20
40.66572299999998
 30
0.0
 11
410.0
 21
40.66572299999999
 31
0.0
  0
LINE
  5
BE7
330
36
100
AcDbEntity
  8
0
 62
     3
100
AcDbLine
 10
298.696558
 20
33.665723
 30
0.0
 11
358.300637
 21
33.665723
 31
0.0
  0
LINE
  5
BED
330
36
100
AcDbEntity
  8
0
 62
     3
100
AcDbLine
 10
298.696558
 20
26.665723
 30
0.0
 11
410.0
 21
26.665723
 31
0.0
  0
TEXT
  5
BEE
330
36
100
AcDbEntity
  8
0
 62
     3
100
AcDbText
 10
342.033015
 20
10.43675235783473
 30
0.0
 40
3.2
  1
ZK-A3X
 41
0.8112849999999999
100
AcDbText
  0
TEXT
  5
BEF
330
36
100
AcDbEntity
  8
0
 62
     3
100
AcDbText
 10
300.513954
 20
45.835248
 30
0.0
 40
2.0
  1
CONPONENTS
 41
0.5331600000000001
100
AcDbText
  0
TEXT
  5
BF0
330
36
100
AcDbEntity
  8
0
 62
     3
100
AcDbText
 10
300.164228
 20
26.903072
 30
0.0
 40
3.0
  1
材
 41
0.833333
100
AcDbText
  0
TEXT
  5
BF1
330
36
100
AcDbEntity
  8
0
 62
     3
100
AcDbText
 10
307.69987
 20
26.903072
 30
0.0
 40
3.0
  1
質
 41
0.833333
100
AcDbText
  0
TEXT
  5
BF2
330
36
100
AcDbEntity
  8
0
 62
     3
100
AcDbText
 10
300.252298
 20
37.527596
 30
0.0
 40
2.0
  1
MODEL
 41
1.031072999999999
100
AcDbText
  0
TEXT
  5
BF3
330
36
100
AcDbEntity
  8
0
 62
     3
100
AcDbText
 10
300.164228
 20
30.58538
 30
0.0
 40
2.0
  1
MATERIAL
 41
0.659278
100
AcDbText
  0
TEXT
  5
BF4
330
36
100
AcDbEntity
  8
0
 62
     3
100
AcDbText
 10
331.4715080000001
 20
26.903072
 30
0.0
 40
3.0
  1
備
 41
0.833333
100
AcDbText
  0
TEXT
  5
BF5
330
36
100
AcDbEntity
  8
0
 62
     3
100
AcDbText
 10
338.20451
 20
26.903072
 30
0.0
 40
3.0
  1
考
 41
0.833333
100
AcDbText
  0
TEXT
  5
BF6
330
36
100
AcDbEntity
  8
0
 62
     3
100
AcDbText
 10
331.8485731933799
 20
30.58538
 30
0.0
 40
2.0
  1
REMARKS
 41
0.675794
100
AcDbText
  0
TEXT
  5
BF7
330
36
100
AcDbEntity
  8
0
 62
     3
100
AcDbText
 10
301.7539569999999
 20
23.665259
 30
0.0
 40
2.0
  1
3AD
 41
1.42614
100
AcDbText
  0
TEXT
  5
BF8
330
36
100
AcDbEntity
  8
0
 62
     3
100
AcDbText
 10
311.064937
 20
23.830993
 30
0.0
 40
2.0
  1
ANGLE
 41
1.669883999999995
100
AcDbText
  0
TEXT
  5
BF9
330
36
100
AcDbEntity
  8
0
 62
     3
100
AcDbText
 10
331.998824
 20
23.454152
 30
0.0
 40
2.0
  1
SCALE
 41
0.7719630000000001
100
AcDbText
  0
TEXT
  5
BFA
330
36
100
AcDbEntity
  8
0
 62
     3
100
AcDbText
 10
301.4400869999999
 20
19.665723
 30
0.0
 40
3.0
  1
第
 41
0.833333
100
AcDbText
  0
TEXT
  5
BFB
330
36
100
AcDbEntity
  8
0
 62
     3
100
AcDbText
 10
309.226937
 20
19.665723
 30
0.0
 40
3.0
  1
三
 41
0.833333
100
AcDbText
  0
TEXT
  5
BFC
330
36
100
AcDbEntity
  8
0
 62
     3
100
AcDbText
 10
317.0137870000001
 20
19.665723
 30
0.0
 40
3.0
  1
角
 41
0.833333
100
AcDbText
  0
TEXT
  5
BFD
330
36
100
AcDbEntity
  8
0
 62
     3
100
AcDbText
 10
324.8006370000001
 20
19.665723
 30
0.0
 40
3.0
  1
法
 41
0.833333
100
AcDbText
  0
TEXT
  5
BFE
330
36
100
AcDbEntity
  8
0
 62
     3
100
AcDbText
 10
331.862029
 20
19.954152
 30
0.0
 40
3.0
  1
尺
 41
0.833333
100
AcDbText
  0
TEXT
  5
BFF
330
36
100
AcDbEntity
  8
0
 62
     3
100
AcDbText
 10
338.59503
 20
19.954152
 30
0.0
 40
3.0
  1
度
 41
0.833333
100
AcDbText
  0
TEXT
  5
C00
330
36
100
AcDbEntity
  8
0
 62
     3
100
AcDbText
 10
361.1783009999999
 20
42.123451
 30
0.0
 40
3.0
  1
承認
 41
1.089472999999999
100
AcDbText
  0
TEXT
  5
C01
330
36
100
AcDbEntity
  8
0
 62
     3
100
AcDbText
 10
374.4211809999998
 20
42.065723
 30
0.0
 40
3.0
  1
検図
 41
0.931761
100
AcDbText
  0
TEXT
  5
C02
330
36
100
AcDbEntity
  8
0
 62
     3
100
AcDbText
 10
387.421578
 20
42.065723
 30
0.0
 40
3.0
  1
設
 41
0.833333
100
AcDbText
  0
TEXT
  5
C03
330
36
100
AcDbEntity
  8
0
 62
     3
100
AcDbText
 10
391.9114460000001
 20
42.065723
 30
0.0
 40
3.0
  1
計
 41
0.833333
100
AcDbText
  0
TEXT
  5
C04
330
36
100
AcDbEntity
  8
0
 62
     3
100
AcDbText
 10
300.584061
 20
42.238275
 30
0.0
 40
3.0
  1
品
 41
0.833333
100
AcDbText
  0
TEXT
  5
C05
330
36
100
AcDbEntity
  8
0
 62
     3
100
AcDbText
 10
308.119703
 20
42.238275
 30
0.0
 40
3.0
  1
名
 41
0.833333
100
AcDbText
  0
TEXT
  5
C06
330
36
100
AcDbEntity
  8
0
 62
     3
100
AcDbText
 10
300.252298
 20
33.9290037736735
 30
0.0
 40
3.0
  1
型
 41
0.833333
100
AcDbText
  0
TEXT
  5
C07
330
36
100
AcDbEntity
  8
0
 62
     3
100
AcDbText
 10
307.800389
 20
33.9290037736735
 30
0.0
 40
3.0
  1
式
 41
0.833333
100
AcDbText
  0
TEXT
  5
CD6
330
36
100
AcDbEntity
  8
0
 62
     3
100
AcDbText
 10
114.2439400879112
 20
35.5
 30
0.0
 40
3.2
  1
R-00（ブルー）
 41
0.8
  7
高3.2
100
AcDbText
  0
TEXT
  5
CD7
330
36
100
AcDbEntity
  8
0
 62
     3
100
AcDbText
 10
114.2439400879112
 20
30.5
 30
0.0
 40
3.2
  1
R-02（ブルー）
 41
0.8
  7
高3.2
100
AcDbText
  0
TEXT
  5
CD8
330
36
100
AcDbEntity
  8
0
 62
     3
100
AcDbText
 10
114.2439400879112
 20
25.5
 30
0.0
 40
3.2
  1
NP-120
 41
0.8
  7
高3.2
100
AcDbText
  0
TEXT
  5
CE2
330
36
100
AcDbEntity
  8
0
 62
     3
100
AcDbText
 10
75.81789400000002
 20
65.5
 30
0.0
 40
3.2
  1
1
 41
0.8
  7
高3.2
100
AcDbText
  0
TEXT
  5
CE3
330
36
100
AcDbEntity
  8
0
 62
     3
100
AcDbText
 10
75.81789400000002
 20
60.5
 30
0.0
 40
3.2
  1
1
 41
0.8
  7
高3.2
100
AcDbText
  0
TEXT
  5
CE4
330
36
100
AcDbEntity
  8
0
 62
     3
100
AcDbText
 10
75.81789400000002
 20
55.5
 30
0.0
 40
3.2
  1
1
 41
0.8
  7
高3.2
100
AcDbText
  0
TEXT
  5
D0D
330
36
100
AcDbEntity
  8
0
 62
     3
100
AcDbText
 10
114.2439400879112
 20
65.5
 30
0.0
 40
3.2
  1
2P 20A 125V
 41
0.8
  7
高3.2
100
AcDbText
  0
TEXT
  5
D0E
330
36
100
AcDbEntity
  8
0
 62
     3
100
AcDbText
 10
114.2439400879112
 20
60.5
 30
0.0
 40
3.2
  1
1.25sqx2cx27m
 41
0.8
  7
高3.2
100
AcDbText
  0
TEXT
  5
D0F
330
36
100
AcDbEntity
  8
0
 62
     3
100
AcDbText
 10
114.2439400879112
 20
55.5
 30
0.0
 40
3.2
  1
1.25sqx2cx3m
 41
0.8
  7
高3.2
100
AcDbText
  0
TEXT
  5
D10
330
36
100
AcDbEntity
  8
0
 62
     3
100
AcDbText
 10
84.51399800000002
 20
55.5
 30
0.0
 40
3.2
  1
VCT（グリーン）
 41
0.8
  7
高3.2
100
AcDbText
  0
TEXT
  5
D11
330
36
100
AcDbEntity
  8
0
 62
     3
100
AcDbText
 10
84.51399800000002
 20
60.5
 30
0.0
 40
3.2
  1
VCT（オレンジ）
 41
0.8
  7
高3.2
100
AcDbText
  0
TEXT
  5
D12
330
36
100
AcDbEntity
  8
0
 62
     3
100
AcDbText
 10
84.51399800000002
 20
65.5
 30
0.0
 40
3.2
  1
PC樹脂（黒）
 41
0.8
  7
高3.2
100
AcDbText
  0
TEXT
  5
D13
330
36
100
AcDbEntity
  8
0
 62
     3
100
AcDbText
 10
21.5
 20
65.5
 30
0.0
 40
3.2
  1
11
 41
0.8
  7
高3.2
100
AcDbText
  0
TEXT
  5
D14
330
36
100
AcDbEntity
  8
0
 62
     3
100
AcDbText
 10
21.5
 20
60.5
 30
0.0
 40
3.2
  1
10
 41
0.8
  7
高3.2
100
AcDbText
  0
TEXT
  5
D15
330
36
100
AcDbEntity
  8
0
 62
     4
100
AcDbText
 10
358.1231643343265
 20
141.1546747878499
 30
0.0
 40
3.2
  1
2Pプラグ
  7
高3.2
100
AcDbText
  0
TEXT
  5
D16
330
36
100
AcDbEntity
  8
0
 62
     4
100
AcDbText
 10
58.42941999363074
 20
141.1932626801558
 30
0.0
 40
3.2
  1
2Pトリプルコンセント
  7
高3.2
100
AcDbText
  0
TEXT
  5
D8E
330
36
100
AcDbEntity
  8
0
 62
     3
100
AcDbText
 10
114.2439400879112
 20
50.5
 30
0.0
 40
3.2
  1
フレームキャップ（16）
 41
0.8
  7
高3.2
100
AcDbText
  0
TEXT
  5
D92
330
36
100
AcDbEntity
  8
0
 62
     3
100
AcDbText
 10
363.1476189012528
 20
50.44637629748994
 30
0.0
 40
4.5
  1
コード
  7
高4.5
100
AcDbText
  0
TEXT
  5
D93
330
36
100
AcDbEntity
  8
0
 62
     3
100
AcDbText
 10
390.3372563360665
 20
50.36144196804229
 30
0.0
 40
4.5
  1
770
  7
高4.5
100
AcDbText
  0
TEXT
  5
D94
330
36
100
AcDbEntity
  8
0
 62
     3
100
AcDbText
 10
150.9752800705815
 20
10.5
 30
0.0
 40
3.2
  1
コード
 41
0.8
  7
高3.2
100
AcDbText
  0
TEXT
  5
D95
330
36
100
AcDbEntity
  8
0
 62
     3
100
AcDbText
 10
150.9752800705815
 20
15.5
 30
0.0
 40
3.2
  1
50027
 41
0.8
  7
高3.2
100
AcDbText
  0
TEXT
  5
D96
330
36
100
AcDbEntity
  8
0
 62
     3
100
AcDbText
 10
150.9752800705815
 20
20.5
 30
0.0
 40
3.2
  1
50707
 41
0.8
  7
高3.2
100
AcDbText
  0
TEXT
  5
D97
330
36
100
AcDbEntity
  8
0
 62
     3
100
AcDbText
 10
150.9752800705815
 20
25.5
 30
0.0
 40
3.2
  1
51516
 41
0.8
  7
高3.2
100
AcDbText
  0
TEXT
  5
D98
330
36
100
AcDbEntity
  8
0
 62
     3
100
AcDbText
 10
150.9752800705815
 20
30.5
 30
0.0
 40
3.2
  1
50805
 41
0.8
  7
高3.2
100
AcDbText
  0
TEXT
  5
D99
330
36
100
AcDbEntity
  8
0
 62
     3
100
AcDbText
 10
150.9752800705815
 20
35.5
 30
0.0
 40
3.2
  1
50806
 41
0.8
  7
高3.2
100
AcDbText
  0
TEXT
  5
D9A
330
36
100
AcDbEntity
  8
0
 62
     3
100
AcDbText
 10
150.9752800705815
 20
40.49999999999999
 30
0.0
 40
3.2
  1
50054
 41
0.8
  7
高3.2
100
AcDbText
  0
TEXT
  5
D9B
330
36
100
AcDbEntity
  8
0
 62
     3
100
AcDbText
 10
150.9752800705815
 20
45.49999999999999
 30
0.0
 40
3.2
  1
8075
 41
0.8
  7
高3.2
100
AcDbText
  0
TEXT
  5
D9C
330
36
100
AcDbEntity
  8
0
 62
     3
100
AcDbText
 10
150.9752800705815
 20
50.5
 30
0.0
 40
3.2
  1
50028
 41
0.8
  7
高3.2
100
AcDbText
  0
LINE
  5
D9D
330
36
100
AcDbEntity
  8
0
100
AcDbLine
 10
149.4752800705815
 20
70.00000000000001
 30
0.0
 11
149.4752800705815
 21
10.0
 31
0.0
  0
TEXT
  5
D9E
330
36
100
AcDbEntity
  8
0
 62
     3
100
AcDbText
 10
150.9752800705815
 20
55.5
 30
0.0
 40
3.2
  1
51025
 41
0.8
  7
高3.2
100
AcDbText
  0
TEXT
  5
D9F
330
36
100
AcDbEntity
  8
0
 62
     3
100
AcDbText
 10
150.9752800705815
 20
60.5
 30
0.0
 40
3.2
  1
51078
 41
0.8
  7
高3.2
100
AcDbText
  0
TEXT
  5
DA0
330
36
100
AcDbEntity
  8
0
 62
     3
100
AcDbText
 10
150.9752800705815
 20
65.5
 30
0.0
 40
3.2
  1
50045
 41
0.8
  7
高3.2
100
AcDbText
  0
TEXT
  5
DA1
330
36
100
AcDbEntity
  8
0
 62
     3
100
AcDbText
 10
166.7303462255305
 20
10.5
 30
0.0
 40
3.2
  1
コード番号名称
 41
0.6
  7
高3.2
100
AcDbText
  0
TEXT
  5
DA2
330
36
100
AcDbEntity
  8
0
 62
     3
100
AcDbText
 10
166.7303462255305
 20
15.5
 30
0.0
 40
3.2
  1
握りゴム　大
 41
0.6
  7
高3.2
100
AcDbText
  0
TEXT
  5
DA3
330
36
100
AcDbEntity
  8
0
 62
     3
100
AcDbText
 10
166.7303462255305
 20
20.5
 30
0.0
 40
3.2
  1
RSA120B一脚　黒
 41
0.6
  7
高3.2
100
AcDbText
  0
TEXT
  5
DA4
330
36
100
AcDbEntity
  8
0
 62
     3
100
AcDbText
 10
166.7303462255305
 20
25.5
 30
0.0
 40
3.2
  1
NP-120巻胴(旧NR)
 41
0.6
  7
高3.2
100
AcDbText
  0
TEXT
  5
DA5
330
36
100
AcDbEntity
  8
0
 62
     3
100
AcDbText
 10
166.7303462255305
 20
30.5
 30
0.0
 40
3.2
  1
RSA-A板　水色
 41
0.6
  7
高3.2
100
AcDbText
  0
TEXT
  5
DA6
330
36
100
AcDbEntity
  8
0
 62
     3
100
AcDbText
 10
166.7303462255305
 20
35.5
 30
0.0
 40
3.2
  1
RSA-B板　水色
 41
0.6
  7
高3.2
100
AcDbText
  0
TEXT
  5
DA7
330
36
100
AcDbEntity
  8
0
 62
     3
100
AcDbText
 10
166.7303462255305
 20
40.49999999999999
 30
0.0
 40
3.2
  1
19m/m絶縁ブッシング(樹脂)
 41
0.6
  7
高3.2
100
AcDbText
  0
TEXT
  5
DA8
330
36
100
AcDbEntity
  8
0
 62
     3
100
AcDbText
 10
166.7303462255305
 20
45.49999999999999
 30
0.0
 40
3.2
  1
ハンドルツマミセット(小)
 41
0.6
  7
高3.2
100
AcDbText
  0
TEXT
  5
DA9
330
36
100
AcDbEntity
  8
0
 62
     3
100
AcDbText
 10
166.7303462255305
 20
50.5
 30
0.0
 40
3.2
  1
フレームキャップ(16)
 41
0.6
  7
高3.2
100
AcDbText
  0
LINE
  5
DAA
330
36
100
AcDbEntity
  8
0
100
AcDbLine
 10
165.2303462255305
 20
70.00000000000001
 30
0.0
 11
165.2303462255305
 21
10.0
 31
0.0
  0
TEXT
  5
DAB
330
36
100
AcDbEntity
  8
0
 62
     3
100
AcDbText
 10
166.7303462255305
 20
55.5
 30
0.0
 40
3.2
  1
VCTソフト1.25x2x3M　P付　緑
 41
0.6
  7
高3.2
100
AcDbText
  0
TEXT
  5
DAC
330
36
100
AcDbEntity
  8
0
 62
     3
100
AcDbText
 10
166.7303462255305
 20
60.5
 30
0.0
 40
3.2
  1
VCT1.25x2x27M　T　ダイダイ
 41
0.6
  7
高3.2
100
AcDbText
  0
TEXT
  5
DAD
330
36
100
AcDbEntity
  8
0
 62
     3
100
AcDbText
 10
166.7303462255305
 20
65.5
 30
0.0
 40
3.2
  1
RP-1(2Pリードパック)
 41
0.6
  7
高3.2
100
AcDbText
  0
TEXT
  5
FF0
330
36
100
AcDbEntity
  8
0
 62
     3
100
AcDbText
 10
397.4999999999998
 20
277.5
 30
0.0
 40
3.2
  1
担　当
  7
高3.2
100
AcDbText
  0
TEXT
  5
FF1
330
36
100
AcDbEntity
  8
0
 62
     3
100
AcDbText
 10
353.4999999999998
 20
277.5
 30
0.0
 40
3.2
  1
変更・追記内容
  7
高3.2
100
AcDbText
  0
TEXT
  5
FF2
330
36
100
AcDbEntity
  8
0
 62
     3
100
AcDbText
 10
328.6135150003391
 20
272.8294614900917
 30
0.0
 40
2.0
  1
1
  7
高2
100
AcDbText
  0
TEXT
  5
FF3
330
36
100
AcDbEntity
  8
0
 62
     3
100
AcDbText
 10
328.3050035235818
 20
267.6596447778188
 30
0.0
 40
2.0
  1
2
  7
高2
100
AcDbText
  0
TEXT
  5
FF4
330
36
100
AcDbEntity
  8
0
 62
     3
100
AcDbText
 10
335.4999999999999
 20
277.5
 30
0.0
 40
3.2
  1
日　付
  7
高3.2
100
AcDbText
  0
TEXT
  5
FF5
330
36
100
AcDbEntity
  8
0
 62
     3
100
AcDbText
 10
335.4999999999999
 20
282.5
 30
0.0
 40
3.2
  1
図　　　　面　　　　略　　　　歴
  7
高3.2
100
AcDbText
  0
TEXT
  5
FF6
330
36
100
AcDbEntity
  8
0
 62
     3
100
AcDbText
 10
325.4999999999999
 20
277.5
 30
0.0
 40
3.2
  1
記号
  7
高3.2
100
AcDbText
  0
LINE
  5
FF7
330
36
100
AcDbEntity
  8
0
 62
     7
100
AcDbLine
 10
328.9999999999999
 20
270.7908960000001
 30
0.0
 11
327.0999999999999
 21
267.5
 31
0.0
  0
LINE
  5
FF8
330
36
100
AcDbEntity
  8
0
 62
     7
100
AcDbLine
 10
328.9999999999999
 20
270.7908960000001
 30
0.0
 11
330.8999999999999
 21
267.5
 31
0.0
  0
LINE
  5
FF9
330
36
100
AcDbEntity
  8
0
 62
     7
100
AcDbLine
 10
327.0999999999999
 20
267.5
 30
0.0
 11
330.8999999999999
 21
267.5
 31
0.0
  0
LINE
  5
FFA
330
36
100
AcDbEntity
  8
0
 62
     7
100
AcDbLine
 10
328.9999999999999
 20
275.7908970000001
 30
0.0
 11
327.0999999999999
 21
272.5
 31
0.0
  0
LINE
  5
FFB
330
36
100
AcDbEntity
  8
0
 62
     7
100
AcDbLine
 10
328.9999999999999
 20
275.7908970000001
 30
0.0
 11
330.8999999999999
 21
272.5
 31
0.0
  0
LINE
  5
FFC
330
36
100
AcDbEntity
  8
0
 62
     7
100
AcDbLine
 10
327.0999999999999
 20
272.5
 30
0.0
 11
330.8999999999999
 21
272.5
 31
0.0
  0
LINE
  5
FFD
330
36
100
AcDbEntity
  8
0
 62
     3
100
AcDbLine
 10
323.9999999999999
 20
282.0
 30
0.0
 11
409.9999999999998
 21
282.0
 31
0.0
  0
LINE
  5
FFE
330
36
100
AcDbEntity
  8
0
 62
     3
100
AcDbLine
 10
323.9999999999999
 20
277.0
 30
0.0
 11
409.9999999999998
 21
277.0
 31
0.0
  0
LINE
  5
FFF
330
36
100
AcDbEntity
  8
0
 62
     7
100
AcDbLine
 10
323.9999999999999
 20
272.0
 30
0.0
 11
409.9999999999998
 21
272.0
 31
0.0
  0
LINE
  5
1000
330
36
100
AcDbEntity
  8
0
 62
     3
100
AcDbLine
 10
323.9999999999999
 20
267.0
 30
0.0
 11
409.9999999999998
 21
267.0
 31
0.0
  0
LINE
  5
1001
330
36
100
AcDbEntity
  8
0
 62
     7
100
AcDbLine
 10
395.9999999999998
 20
267.0
 30
0.0
 11
395.9999999999998
 21
282.0
 31
0.0
  0
LINE
  5
1002
330
36
100
AcDbEntity
  8
0
 62
     7
100
AcDbLine
 10
351.9999999999998
 20
267.0
 30
0.0
 11
351.9999999999998
 21
282.0
 31
0.0
  0
LINE
  5
1003
330
36
100
AcDbEntity
  8
0
 62
     7
100
AcDbLine
 10
333.9999999999999
 20
267.0
 30
0.0
 11
333.9999999999999
 21
282.0
 31
0.0
  0
LINE
  5
1004
330
36
100
AcDbEntity
  8
0
 62
     3
100
AcDbLine
 10
323.9999999999999
 20
267.0
 30
0.0
 11
323.9999999999999
 21
287.0
 31
0.0
  0
LINE
  5
12D5
330
36
100
AcDbEntity
  8
0
 62
     3
100
AcDbLine
 10
335.6307870000001
 20
113.726247
 30
0.0
 11
335.6307870000001
 21
76.726247
 31
0.0
  0
LINE
  5
12D6
330
36
100
AcDbEntity
  8
0
 62
     3
100
AcDbLine
 10
403.6307870000001
 20
113.726247
 30
0.0
 11
403.6307870000001
 21
76.726247
 31
0.0
  0
LINE
  5
12D7
330
36
100
AcDbEntity
  8
0
 62
     7
100
AcDbLine
 10
335.6307870000001
 20
90.726247
 30
0.0
 11
403.6307870000001
 21
90.726247
 31
0.0
  0
LINE
  5
12D8
330
36
100
AcDbEntity
  8
0
 62
     7
100
AcDbLine
 10
365.6307870000001
 20
97.726247
 30
0.0
 11
365.6307870000001
 21
76.726247
 31
0.0
  0
LINE
  5
12D9
330
36
100
AcDbEntity
  8
0
 62
     7
100
AcDbLine
 10
335.6307870000001
 20
83.726247
 30
0.0
 11
403.6307870000001
 21
83.726247
 31
0.0
  0
LINE
  5
12DA
330
36
100
AcDbEntity
  8
0
 62
     7
100
AcDbLine
 10
335.6307870000001
 20
105.726247
 30
0.0
 11
403.6307870000001
 21
105.726247
 31
0.0
  0
TEXT
  5
12DB
330
36
100
AcDbEntity
  8
0
 62
     3
100
AcDbText
 10
337.326652570383
 20
91.61193599999996
 30
0.0
 40
4.5
  1
定格電圧
 41
0.833333
100
AcDbText
  0
TEXT
  5
12DC
330
36
100
AcDbEntity
  8
0
 62
     3
100
AcDbText
 10
337.326652570383
 20
84.811936
 30
0.0
 40
4.5
  1
定格電流
 41
0.833333
100
AcDbText
  0
TEXT
  5
12DD
330
36
100
AcDbEntity
  8
0
 62
     3
100
AcDbText
 10
367.6231940232461
 20
91.86313799999988
 30
0.0
 40
4.5
  1
125V
 41
0.9600000000000001
100
AcDbText
  0
TEXT
  5
12DE
330
36
100
AcDbEntity
  8
0
 62
     3
100
AcDbText
 10
367.6231940232461
 20
84.44280500000008
 30
0.0
 40
4.5
  1
4A
100
AcDbText
  0
TEXT
  5
12DF
330
36
100
AcDbEntity
  8
0
 62
     3
100
AcDbText
 10
337.326652570383
 20
77.76872544842394
 30
0.0
 40
4.5
  1
限度電流
 41
0.833333
100
AcDbText
  0
TEXT
  5
12E0
330
36
100
AcDbEntity
  8
0
 62
     3
100
AcDbText
 10
367.6231940232461
 20
77.86361678109591
 30
0.0
 40
4.5
  1
15A
  7
高4.5
100
AcDbText
  0
LINE
  5
12E1
330
36
100
AcDbEntity
  8
0
 62
     7
100
AcDbLine
 10
335.6307870000001
 20
97.726247
 30
0.0
 11
403.6307870000001
 21
97.726247
 31
0.0
  0
TEXT
  5
12E2
330
36
100
AcDbEntity
  8
0
 62
     3
100
AcDbText
 10
351.359389836299
 20
98.86313799999988
 30
0.0
 40
4.5
  1
単相100V仕様
 41
0.9600000000000001
100
AcDbText
  0
LINE
  5
12E3
330
36
100
AcDbEntity
  8
0
 62
     3
100
AcDbLine
 10
335.6307870000001
 20
113.726247
 30
0.0
 11
403.6307870000001
 21
113.726247
 31
0.0
  0
TEXT
  5
12E4
330
36
100
AcDbEntity
  8
0
 62
     3
100
AcDbText
 10
346.872377033383
 20
106.8631379999999
 30
0.0
 40
4.5
  1
電工ドラム(屋内型)
 41
0.9600000000000001
100
AcDbText
  0
LINE
  5
12E5
330
36
100
AcDbEntity
  8
0
100
AcDbLine
 10
335.6307870000001
 20
76.726247
 30
0.0
 11
403.6307870000001
 21
76.726247
 31
0.0
  0
LINE
  5
12E8
330
36
100
AcDbEntity
  8
0
 62
     3
100
AcDbLine
 10
335.6307870000001
 20
76.726247
 30
0.0
 11
403.6307870000001
 21
76.726247
 31
0.0
  0
TEXT
  5
12E9
330
36
100
AcDbEntity
  8
0
 62
     7
100
AcDbText
 10
335.630787778856
 20
71.93277762308793
 30
0.0
 40
2.5
  1
注）定格電流は電線を巻取った状態の最大電流で、
 41
0.8
  7
高2.5
100
AcDbText
  0
TEXT
  5
12EA
330
36
100
AcDbEntity
  8
0
 62
     7
100
AcDbText
 10
335.630787778856
 20
68.93277762308793
 30
0.0
 40
2.5
  1
　　限度電流は電線を全て引き出した状態の最大電流です。
 41
0.8
  7
高2.5
100
AcDbText
  0
ENDSEC
  0
SECTION
  2
OBJECTS
  0
DICTIONARY
  5
C
330
0
100
AcDbDictionary
281
     1
  3
ACAD_2007HEADERVARS_RT
350
124D
  3
ACAD_COLOR
350
2F
  3
ACAD_DETAILVIEWSTYLE
350
132D
  3
ACAD_DGNDEFINITIONS
350
128D
  3
ACAD_DWFDEFINITIONS
350
128C
  3
ACAD_GROUP
350
D
  3
ACAD_LAYOUT
350
2E
  3
ACAD_MATERIAL
350
10
  3
ACAD_MLEADERSTYLE
350
535
  3
ACAD_MLINESTYLE
350
2B
  3
ACAD_PDFDEFINITIONS
350
128B
  3
ACAD_PLOTSETTINGS
350
2D
  3
ACAD_PLOTSTYLENAME
350
E
  3
ACAD_SCALELIST
350
523
  3
ACAD_SECTIONVIEWSTYLE
350
132E
  3
ACAD_TABLESTYLE
350
30
  3
ACAD_VISUALSTYLE
350
14
  3
ACDB_RECOMPOSE_DATA
350
132B
  3
AcDbVariableDictionary
350
501
  0
DICTIONARY
  5
4AE
330
2
100
AcDbDictionary
280
     1
281
     1
  3
ACAD_LAYERSTATES
360
4AF
  0
DICTIONARY
  5
EA3
330
25
100
AcDbDictionary
280
     1
281
     1
  3
ADSK_XREC_LAYER_RECONCILED
360
EA4
  0
DICTIONARY
  5
12EC
330
36
100
AcDbDictionary
280
     1
281
     1
  3
ACAD_SORTENTS
360
12ED
  0
DICTIONARY
  5
124D
102
{ACAD_REACTORS
330
C
102
}
330
C
100
AcDbDictionary
281
     1
  3
DIMARCSYM
350
124F
  3
DIMFXL
350
124E
  3
DIMJOGANG
350
1250
  0
DICTIONARY
  5
2F
102
{ACAD_REACTORS
330
C
102
}
330
C
100
AcDbDictionary
281
     1
  0
DICTIONARY
  5
132D
102
{ACAD_REACTORS
330
C
102
}
330
C
100
AcDbDictionary
281
     1
  0
DICTIONARY
  5
128D
102
{ACAD_REACTORS
330
C
102
}
330
C
100
AcDbDictionary
281
     1
  0
DICTIONARY
  5
128C
102
{ACAD_REACTORS
330
C
102
}
330
C
100
AcDbDictionary
281
     1
  0
DICTIONARY
  5
D
102
{ACAD_REACTORS
330
C
102
}
330
C
100
AcDbDictionary
281
     1
  0
DICTIONARY
  5
2E
102
{ACAD_REACTORS
330
C
102
}
330
C
100
AcDbDictionary
281
     1
  3
Model
350
39
  3
レイアウト1
350
35
  0
DICTIONARY
  5
10
102
{ACAD_REACTORS
330
C
102
}
330
C
100
AcDbDictionary
281
     1
  3
ByBlock
350
12
  3
ByLayer
350
11
  3
Global
350
13
  0
DICTIONARY
  5
535
102
{ACAD_REACTORS
330
C
102
}
330
C
100
AcDbDictionary
281
     1
  3
Standard
350
536
  0
DICTIONARY
  5
2B
102
{ACAD_REACTORS
330
C
102
}
330
C
100
AcDbDictionary
281
     1
  3
Standard
350
2C
  0
DICTIONARY
  5
128B
102
{ACAD_REACTORS
330
C
102
}
330
C
100
AcDbDictionary
281
     1
  0
DICTIONARY
  5
2D
102
{ACAD_REACTORS
330
C
102
}
330
C
100
AcDbDictionary
281
     1
  0
ACDBDICTIONARYWDFLT
  5
E
102
{ACAD_REACTORS
330
C
102
}
330
C
100
AcDbDictionary
281
     1
  3
Normal
350
F
100
AcDbDictionaryWithDefault
340
F
  0
DICTIONARY
  5
523
102
{ACAD_REACTORS
330
C
102
}
330
C
100
AcDbDictionary
281
     1
  3
A0
350
524
  3
A1
350
525
  3
A2
350
526
  3
A3
350
527
  3
A4
350
528
  3
A5
350
529
  3
A6
350
52A
  3
A7
350
52B
  3
A8
350
52C
  3
A9
350
52D
  3
B0
350
52E
  3
B1
350
52F
  3
B2
350
530
  3
B3
350
531
  3
B4
350
532
  3
B5
350
533
  3
B6
350
534
  0
DICTIONARY
  5
132E
102
{ACAD_REACTORS
330
C
102
}
330
C
100
AcDbDictionary
281
     1
  0
DICTIONARY
  5
30
102
{ACAD_REACTORS
330
C
102
}
330
C
100
AcDbDictionary
281
     1
  3
Standard
350
31
  0
DICTIONARY
  5
14
102
{ACAD_REACTORS
330
C
102
}
330
C
100
AcDbDictionary
281
     1
  3
2dWireframe
350
1A
  3
3D Hidden
350
1C
  3
3dWireframe
350
1B
  3
Basic
350
19
  3
Brighten
350
20
  3
ColorChange
350
24
  3
Conceptual
350
1D
  3
Dim
350
1F
  3
EdgeColorOff
350
522
  3
Facepattern
350
23
  3
Flat
350
15
  3
FlatWithEdges
350
16
  3
Gouraud
350
17
  3
GouraudWithEdges
350
18
  3
Hidden
350
51A
  3
JitterOff
350
520
  3
Linepattern
350
22
  3
OverhangOff
350
521
  3
Realistic
350
1E
  3
Shaded
350
51F
  3
Shaded with edges
350
51E
  3
Shades of Gray
350
51B
  3
Sketchy
350
51C
  3
Thicken
350
21
  3
Wireframe
350
519
  3
X-Ray
350
51D
  0
XRECORD
  5
132B
102
{ACAD_REACTORS
330
C
102
}
330
C
100
AcDbXrecord
280
     1
 90
        1
330
31
  0
DICTIONARY
  5
501
102
{ACAD_REACTORS
330
C
102
}
330
C
100
AcDbDictionary
281
     1
  3
CANNOSCALE
350
12F1
  3
CMLEADERSTYLE
350
EA7
  3
CTABLESTYLE
350
502
  3
DIMASSOC
350
505
  3
INDEXCTL
350
504
  3
LIGHTINGUNITS
350
12F2
  3
MSLTSCALE
350
132C
  3
SORTENTS
350
503
  3
XCLIPFRAME
350
1249
  0
DICTIONARY
  5
4AF
102
{ACAD_REACTORS
330
4AE
102
}
330
4AE
100
AcDbDictionary
281
     1
  0
XRECORD
  5
EA4
102
{ACAD_REACTORS
330
EA3
102
}
330
EA3
100
AcDbXrecord
280
     1
290
     1
  0
SORTENTSTABLE
  5
12ED
102
{ACAD_REACTORS
330
12EC
102
}
330
12EC
100
AcDbSortentsTable
330
36
331
12D6
  5
12D7
331
12D7
  5
12D8
331
12D8
  5
12D9
331
12D9
  5
12DB
331
12DA
  5
12DC
331
12DB
  5
12DD
331
12DC
  5
12DE
331
12DD
  5
12DF
331
12DE
  5
12E0
331
12DF
  5
12E1
331
12E0
  5
12E2
331
12E1
  5
12E3
331
12E2
  5
12E4
331
12E3
  5
12E5
331
12E4
  5
12E6
331
12E5
  5
12E7
331
0
  5
12E8
331
0
  5
12E9
331
12E8
  5
12EA
331
12E9
  5
12EB
331
12EA
  5
12EE
331
0
  5
12D6
331
0
  5
12DA
  0
XRECORD
  5
124F
102
{ACAD_REACTORS
330
124D
102
}
330
124D
100
AcDbXrecord
280
     1
 70
     2
  0
XRECORD
  5
124E
102
{ACAD_REACTORS
330
124D
102
}
330
124D
100
AcDbXrecord
280
     1
 40
1.25
  0
XRECORD
  5
1250
102
{ACAD_REACTORS
330
124D
102
}
330
124D
100
AcDbXrecord
280
     1
 40
1.570796326794896
  0
LAYOUT
  5
39
102
{ACAD_REACTORS
330
2E
102
}
330
2E
100
AcDbPlotSettings
  1

  2
PDF Complete
  4

  6

 40
0.0
 41
0.0
 42
0.0
 43
0.0
 44
0.0
 45
0.0
 46
0.0
 47
0.0
 48
0.0
 49
0.0
140
0.0
141
0.0
142
1.0
143
1.0
 70
  1712
 72
     0
 73
     0
 74
     0
  7

 75
     0
 76
     0
 77
     2
 78
   300
147
1.0
148
0.0
149
0.0
100
AcDbLayout
  1
Model
 70
     1
 71
     0
 10
0.0
 20
0.0
 11
12.0
 21
9.0
 12
0.0
 22
0.0
 32
0.0
 14
0.0
 24
0.0
 34
0.0
 15
410.0
 25
287.0
 35
0.0
146
0.0
 13
0.0
 23
0.0
 33
0.0
 16
1.0
 26
0.0
 36
0.0
 17
0.0
 27
1.0
 37
0.0
 76
     0
330
36
331
56
  0
LAYOUT
  5
35
102
{ACAD_REACTORS
330
2E
102
}
330
2E
100
AcDbPlotSettings
  1

  2
PDF Complete
  4

  6

 40
0.0
 41
0.0
 42
0.0
 43
0.0
 44
0.0
 45
0.0
 46
0.0
 47
0.0
 48
0.0
 49
0.0
140
0.0
141
0.0
142
1.0
143
1.0
 70
   688
 72
     0
 73
     0
 74
     5
  7

 75
    16
 76
     0
 77
     2
 78
   300
147
1.0
148
0.0
149
0.0
100
AcDbLayout
  1
レイアウト1
 70
     1
 71
     1
 10
0.0
 20
0.0
 11
12.0
 21
9.0
 12
0.0
 22
0.0
 32
0.0
 14
1.000000000000000E+20
 24
1.000000000000000E+20
 34
1.000000000000000E+20
 15
-1.000000000000000E+20
 25
-1.000000000000000E+20
 35
-1.000000000000000E+20
146
0.0
 13
0.0
 23
0.0
 33
0.0
 16
1.0
 26
0.0
 36
0.0
 17
0.0
 27
1.0
 37
0.0
 76
     0
330
32
  0
MATERIAL
  5
12
102
{ACAD_REACTORS
330
10
102
}
330
10
100
AcDbMaterial
  1
ByBlock
 72
     1
 94
      127
  0
MATERIAL
  5
11
102
{ACAD_REACTORS
330
10
102
}
330
10
100
AcDbMaterial
  1
ByLayer
 72
     1
 94
      127
  0
MATERIAL
  5
13
102
{ACAD_REACTORS
330
10
102
}
330
10
100
AcDbMaterial
  1
Global
 72
     1
 94
      127
  0
MLEADERSTYLE
  5
536
102
{ACAD_REACTORS
330
535
102
}
102
{ACAD_XDICTIONARY
360
12F3
102
}
330
535
100
AcDbMLeaderStyle
170
     2
171
     1
172
     0
 90
        2
 40
0.0
 41
0.0
173
     1
 91
-1056964608
340
28
 92
       -2
290
     1
 42
0.09
291
     1
 43
0.36
  3
Standard
341
0
 44
0.18
300

342
26
174
     1
178
     6
175
     1
176
     0
 93
-1056964608
 45
0.18
292
     0
297
     0
 46
0.18
343
0
 94
-1056964608
 47
1.0
 49
1.0
140
1.0
293
     1
141
0.0
294
     1
177
     0
142
1.0
295
     0
296
     0
143
0.125
1001
ACAD_MLEADERVER
1070
     2
  0
MLINESTYLE
  5
2C
102
{ACAD_REACTORS
330
2B
102
}
330
2B
100
AcDbMlineStyle
  2
STANDARD
 70
     0
  3

 62
   256
 51
90.0
 52
90.0
 71
     2
 49
0.5
 62
   256
  6
BYLAYER
 49
-0.5
 62
   256
  6
BYLAYER
  0
ACDBPLACEHOLDER
  5
F
102
{ACAD_REACTORS
330
E
102
}
330
E
  0
SCALE
  5
524
102
{ACAD_REACTORS
330
523
102
}
330
523
100
AcDbScale
 70
     0
300
1:1
140
1.0
141
1.0
290
     1
  0
SCALE
  5
525
102
{ACAD_REACTORS
330
523
102
}
330
523
100
AcDbScale
 70
     0
300
1/128" = 1'-0"
140
0.0078125
141
12.0
290
     0
  0
SCALE
  5
526
102
{ACAD_REACTORS
330
523
102
}
330
523
100
AcDbScale
 70
     0
300
1/64" = 1'-0"
140
0.015625
141
12.0
290
     0
  0
SCALE
  5
527
102
{ACAD_REACTORS
330
523
102
}
330
523
100
AcDbScale
 70
     0
300
1/32" = 1'-0"
140
0.03125
141
12.0
290
     0
  0
SCALE
  5
528
102
{ACAD_REACTORS
330
523
102
}
330
523
100
AcDbScale
 70
     0
300
1/16" = 1'-0"
140
0.0625
141
12.0
290
     0
  0
SCALE
  5
529
102
{ACAD_REACTORS
330
523
102
}
330
523
100
AcDbScale
 70
     0
300
3/32" = 1'-0"
140
0.09375
141
12.0
290
     0
  0
SCALE
  5
52A
102
{ACAD_REACTORS
330
523
102
}
330
523
100
AcDbScale
 70
     0
300
1/8" = 1'-0"
140
0.125
141
12.0
290
     0
  0
SCALE
  5
52B
102
{ACAD_REACTORS
330
523
102
}
330
523
100
AcDbScale
 70
     0
300
3/16" = 1'-0"
140
0.1875
141
12.0
290
     0
  0
SCALE
  5
52C
102
{ACAD_REACTORS
330
523
102
}
330
523
100
AcDbScale
 70
     0
300
1/4" = 1'-0"
140
0.25
141
12.0
290
     0
  0
SCALE
  5
52D
102
{ACAD_REACTORS
330
523
102
}
330
523
100
AcDbScale
 70
     0
300
3/8" = 1'-0"
140
0.375
141
12.0
290
     0
  0
SCALE
  5
52E
102
{ACAD_REACTORS
330
523
102
}
330
523
100
AcDbScale
 70
     0
300
1/2" = 1'-0"
140
0.5
141
12.0
290
     0
  0
SCALE
  5
52F
102
{ACAD_REACTORS
330
523
102
}
330
523
100
AcDbScale
 70
     0
300
3/4" = 1'-0"
140
0.75
141
12.0
290
     0
  0
SCALE
  5
530
102
{ACAD_REACTORS
330
523
102
}
330
523
100
AcDbScale
 70
     0
300
1" = 1'-0"
140
1.0
141
12.0
290
     0
  0
SCALE
  5
531
102
{ACAD_REACTORS
330
523
102
}
330
523
100
AcDbScale
 70
     0
300
1-1/2" = 1'-0"
140
1.5
141
12.0
290
     0
  0
SCALE
  5
532
102
{ACAD_REACTORS
330
523
102
}
330
523
100
AcDbScale
 70
     0
300
3" = 1'-0"
140
3.0
141
12.0
290
     0
  0
SCALE
  5
533
102
{ACAD_REACTORS
330
523
102
}
330
523
100
AcDbScale
 70
     0
300
6" = 1'-0"
140
6.0
141
12.0
290
     0
  0
SCALE
  5
534
102
{ACAD_REACTORS
330
523
102
}
330
523
100
AcDbScale
 70
     0
300
1'-0" = 1'-0"
140
12.0
141
12.0
290
     0
  0
TABLESTYLE
  5
31
102
{ACAD_REACTORS
330
30
102
}
102
{ACAD_XDICTIONARY
360
12F5
102
}
330
30
100
AcDbTableStyle
  3
Standard
 70
     0
 71
     0
 40
0.06
 41
0.06
280
     0
281
     0
  7
STANDARD
140
0.18
170
     2
 62
     0
 63
   257
283
     0
 90
      512
 91
        0
  1

274
    -2
284
     1
 64
     0
275
    -2
285
     1
 65
     0
276
    -2
286
     1
 66
     0
277
    -2
287
     1
 67
     0
278
    -2
288
     1
 68
     0
279
    -2
289
     1
 69
     0
  7
STANDARD
140
0.25
170
     5
 62
     0
 63
   257
283
     0
 90
      512
 91
        0
  1

274
    -2
284
     1
 64
     0
275
    -2
285
     1
 65
     0
276
    -2
286
     1
 66
     0
277
    -2
287
     1
 67
     0
278
    -2
288
     1
 68
     0
279
    -2
289
     1
 69
     0
  7
STANDARD
140
0.18
170
     5
 62
     0
 63
   257
283
     0
 90
      512
 91
        0
  1

274
    -2
284
     1
 64
     0
275
    -2
285
     1
 65
     0
276
    -2
286
     1
 66
     0
277
    -2
287
     1
 67
     0
278
    -2
288
     1
 68
     0
279
    -2
289
     1
 69
     0
  0
VISUALSTYLE
  5
1A
102
{ACAD_REACTORS
330
14
102
}
102
{ACAD_XDICTIONARY
360
12F7
102
}
330
14
100
AcDbVisualStyle
  2

 70
     4
 71
     0
 72
     2
 73
     0
 90
        0
 40
-0.6
 41
-30.0
 62
     5
 63
     7
 74
     1
 91
        4
 64
     7
 65
   257
 75
     1
175
     1
 42
1.0
 92
        0
 66
   257
 43
1.0
 76
     1
 77
     6
 78
     2
 67
     7
 79
     5
170
     0
171
     0
290
     0
174
     0
 93
        1
 44
0.0
173
     0
291
     0
 45
0.0
  0
VISUALSTYLE
  5
1C
102
{ACAD_REACTORS
330
14
102
}
102
{ACAD_XDICTIONARY
360
12F9
102
}
330
14
100
AcDbVisualStyle
  2

 70
     6
 71
     1
 72
     2
 73
     2
 90
        0
 40
-0.6
 41
-30.0
 62
     5
 63
     7
 74
     2
 91
        2
 64
     7
 65
   257
 75
     2
175
     1
 42
40.0
 92
        0
 66
   257
 43
1.0
 76
     1
 77
     6
 78
     2
 67
     7
 79
     3
170
     0
171
     0
290
     0
174
     0
 93
        1
 44
0.0
173
     0
291
     0
 45
0.0
  0
VISUALSTYLE
  5
1B
102
{ACAD_REACTORS
330
14
102
}
102
{ACAD_XDICTIONARY
360
12FB
102
}
330
14
100
AcDbVisualStyle
  2

 70
     5
 71
     0
 72
     2
 73
     0
 90
        0
 40
-0.6
 41
-30.0
 62
     5
 63
     7
 74
     1
 91
        4
 64
     7
 65
   257
 75
     1
175
     1
 42
1.0
 92
        0
 66
   257
 43
1.0
 76
     1
 77
     6
 78
     2
 67
     7
 79
     5
170
     0
171
     0
290
     0
174
     0
 93
        1
 44
0.0
173
     0
291
     0
 45
0.0
  0
VISUALSTYLE
  5
19
102
{ACAD_REACTORS
330
14
102
}
102
{ACAD_XDICTIONARY
360
12FD
102
}
330
14
100
AcDbVisualStyle
  2

 70
     7
 71
     1
 72
     0
 73
     1
 90
        0
 40
-0.6
 41
-30.0
 62
     5
 63
     7
 74
     0
 91
        4
 64
     7
 65
   257
 75
     1
175
     1
 42
1.0
 92
        8
 66
     7
 43
1.0
 76
     1
 77
     6
 78
     2
 67
     7
 79
     5
170
     0
171
     0
290
     0
174
     0
 93
        1
 44
0.0
173
     0
291
     1
 45
0.0
  0
VISUALSTYLE
  5
20
102
{ACAD_REACTORS
330
14
102
}
102
{ACAD_XDICTIONARY
360
12FF
102
}
330
14
100
AcDbVisualStyle
  2

 70
    12
 71
     2
 72
     2
 73
     0
 90
        0
 40
-0.6
 41
-30.0
 62
     5
 63
     7
 74
     1
 91
        4
 64
     7
 65
   257
 75
     1
175
     1
 42
1.0
 92
        8
 66
     7
 43
1.0
 76
     1
 77
     6
 78
     2
 67
     7
 79
     5
170
     0
171
     0
290
     0
174
     0
 93
        1
 44
50.0
173
     0
291
     1
 45
0.0
  0
VISUALSTYLE
  5
24
102
{ACAD_REACTORS
330
14
102
}
102
{ACAD_XDICTIONARY
360
1301
102
}
330
14
100
AcDbVisualStyle
  2

 70
    16
 71
     2
 72
     2
 73
     3
 90
        0
 40
-0.6
 41
-30.0
 62
     5
 63
     8
 74
     1
 91
        4
 64
     7
 65
   257
 75
     1
175
     1
 42
1.0
 92
        8
 66
     8
 43
1.0
 76
     1
 77
     6
 78
     2
 67
     7
 79
     5
170
     0
171
     0
290
     0
174
     0
 93
        1
 44
0.0
173
     0
291
     1
 45
0.0
  0
VISUALSTYLE
  5
1D
102
{ACAD_REACTORS
330
14
102
}
102
{ACAD_XDICTIONARY
360
1303
102
}
330
14
100
AcDbVisualStyle
  2

 70
     9
 71
     3
 72
     2
 73
     0
 90
        0
 40
-0.6
 41
-30.0
 62
     5
 63
     7
 74
     2
 91
        2
 64
     7
 65
   257
 75
     1
175
     1
 42
40.0
 92
        8
 66
     7
 43
1.0
 76
     1
 77
     6
 78
     2
 67
     7
 79
     3
170
     0
171
     0
290
     0
174
     0
 93
        1
 44
0.0
173
     0
291
     0
 45
0.0
  0
VISUALSTYLE
  5
1F
102
{ACAD_REACTORS
330
14
102
}
102
{ACAD_XDICTIONARY
360
1305
102
}
330
14
100
AcDbVisualStyle
  2

 70
    11
 71
     2
 72
     2
 73
     0
 90
        0
 40
-0.6
 41
-30.0
 62
     5
 63
     7
 74
     1
 91
        4
 64
     7
 65
   257
 75
     1
175
     1
 42
1.0
 92
        8
 66
     7
 43
1.0
 76
     1
 77
     6
 78
     2
 67
     7
 79
     5
170
     0
171
     0
290
     0
174
     0
 93
        1
 44
-50.0
173
     0
291
     1
 45
0.0
  0
VISUALSTYLE
  5
522
102
{ACAD_REACTORS
330
14
102
}
102
{ACAD_XDICTIONARY
360
1307
102
}
330
14
100
AcDbVisualStyle
  2

 70
    22
 71
     2
 72
     2
 73
     0
 90
        0
 40
-0.6
 41
-30.0
 62
     5
 63
     7
 74
     1
 91
        4
 64
     7
 65
   257
 75
     1
175
     1
 42
1.0
 92
        8
 66
     7
 43
1.0
 76
     1
 77
     6
 78
     2
 67
     7
 79
     5
170
     0
171
     0
290
     0
174
     0
 93
        1
 44
0.0
173
     0
291
     1
 45
0.0
  0
VISUALSTYLE
  5
23
102
{ACAD_REACTORS
330
14
102
}
102
{ACAD_XDICTIONARY
360
1309
102
}
330
14
100
AcDbVisualStyle
  2

 70
    15
 71
     2
 72
     2
 73
     0
 90
        0
 40
-0.6
 41
-30.0
 62
     5
 63
     7
 74
     1
 91
        4
 64
     7
 65
   257
 75
     1
175
     1
 42
1.0
 92
        8
 66
     7
 43
1.0
 76
     1
 77
     6
 78
     2
 67
     7
 79
     5
170
     0
171
     0
290
     0
174
     0
 93
        1
 44
0.0
173
     0
291
     1
 45
0.0
  0
VISUALSTYLE
  5
15
102
{ACAD_REACTORS
330
14
102
}
102
{ACAD_XDICTIONARY
360
130B
102
}
330
14
100
AcDbVisualStyle
  2

 70
     0
 71
     2
 72
     1
 73
     1
 90
        2
 40
-0.6
 41
30.0
 62
     5
 63
     7
 74
     0
 91
        4
 64
     7
 65
   257
 75
     1
175
     1
 42
1.0
 92
        8
 66
     7
 43
1.0
 76
     1
 77
     6
 78
     2
 67
     7
 79
     5
170
     0
171
     0
290
     0
174
     0
 93
       13
 44
0.0
173
     0
291
     1
 45
0.0
  0
VISUALSTYLE
  5
16
102
{ACAD_REACTORS
330
14
102
}
102
{ACAD_XDICTIONARY
360
130D
102
}
330
14
100
AcDbVisualStyle
  2

 70
     1
 71
     2
 72
     1
 73
     1
 90
        2
 40
-0.6
 41
30.0
 62
     5
 63
     7
 74
     1
 91
        4
 64
     7
 65
   257
 75
     1
175
     1
 42
1.0
 92
        0
 66
   257
 43
1.0
 76
     1
 77
     6
 78
     2
 67
     7
 79
     5
170
     0
171
     0
290
     0
174
     0
 93
       13
 44
0.0
173
     0
291
     1
 45
0.0
  0
VISUALSTYLE
  5
17
102
{ACAD_REACTORS
330
14
102
}
102
{ACAD_XDICTIONARY
360
130F
102
}
330
14
100
AcDbVisualStyle
  2

 70
     2
 71
     2
 72
     2
 73
     1
 90
        2
 40
-0.6
 41
30.0
 62
     5
 63
     7
 74
     0
 91
        4
 64
     7
 65
   257
 75
     1
175
     1
 42
1.0
 92
        0
 66
     7
 43
1.0
 76
     1
 77
     6
 78
     2
 67
     7
 79
     5
170
     0
171
     0
290
     0
174
     0
 93
       13
 44
0.0
173
     0
291
     1
 45
0.0
  0
VISUALSTYLE
  5
18
102
{ACAD_REACTORS
330
14
102
}
102
{ACAD_XDICTIONARY
360
1311
102
}
330
14
100
AcDbVisualStyle
  2

 70
     3
 71
     2
 72
     2
 73
     1
 90
        2
 40
-0.6
 41
30.0
 62
     5
 63
     7
 74
     1
 91
        4
 64
     7
 65
   257
 75
     1
175
     1
 42
1.0
 92
        0
 66
   257
 43
1.0
 76
     1
 77
     6
 78
     2
 67
     7
 79
     5
170
     0
171
     0
290
     0
174
     0
 93
       13
 44
0.0
173
     0
291
     1
 45
0.0
  0
VISUALSTYLE
  5
51A
102
{ACAD_REACTORS
330
14
102
}
102
{ACAD_XDICTIONARY
360
1313
102
}
330
14
100
AcDbVisualStyle
  2

 70
     6
 71
     1
 72
     2
 73
     2
 90
        0
 40
-0.6
 41
-30.0
 62
     5
 63
     7
 74
     2
 91
        2
 64
     7
 65
   257
 75
     2
175
     1
 42
40.0
 92
        0
 66
   257
 43
1.0
 76
     1
 77
     6
 78
     2
 67
     7
 79
     3
170
     0
171
     0
290
     0
174
     0
 93
        1
 44
0.0
173
     0
291
     0
 45
0.0
  0
VISUALSTYLE
  5
520
102
{ACAD_REACTORS
330
14
102
}
102
{ACAD_XDICTIONARY
360
1315
102
}
330
14
100
AcDbVisualStyle
  2

 70
    20
 71
     2
 72
     2
 73
     0
 90
        0
 40
-0.6
 41
-30.0
 62
     5
 63
     7
 74
     1
 91
        4
 64
     7
 65
   257
 75
     1
175
     1
 42
1.0
 92
       10
 66
     7
 43
1.0
 76
     1
 77
     6
 78
     2
 67
     7
 79
     5
170
     0
171
     0
290
     0
174
     0
 93
        1
 44
0.0
173
     0
291
     1
 45
0.0
  0
VISUALSTYLE
  5
22
102
{ACAD_REACTORS
330
14
102
}
102
{ACAD_XDICTIONARY
360
1317
102
}
330
14
100
AcDbVisualStyle
  2

 70
    14
 71
     2
 72
     2
 73
     0
 90
        0
 40
-0.6
 41
-30.0
 62
     5
 63
     7
 74
     1
 91
        4
 64
     7
 65
   257
 75
     7
175
     7
 42
1.0
 92
        8
 66
     7
 43
1.0
 76
     1
 77
     6
 78
     2
 67
     7
 79
     5
170
     0
171
     0
290
     0
174
     0
 93
        1
 44
0.0
173
     0
291
     1
 45
0.0
  0
VISUALSTYLE
  5
521
102
{ACAD_REACTORS
330
14
102
}
102
{ACAD_XDICTIONARY
360
1319
102
}
330
14
100
AcDbVisualStyle
  2

 70
    21
 71
     2
 72
     2
 73
     0
 90
        0
 40
-0.6
 41
-30.0
 62
     5
 63
     7
 74
     1
 91
        4
 64
     7
 65
   257
 75
     1
175
     1
 42
1.0
 92
        9
 66
     7
 43
1.0
 76
     1
 77
     6
 78
     2
 67
     7
 79
     5
170
     0
171
     0
290
     0
174
     0
 93
        1
 44
0.0
173
     0
291
     1
 45
0.0
  0
VISUALSTYLE
  5
1E
102
{ACAD_REACTORS
330
14
102
}
102
{ACAD_XDICTIONARY
360
131B
102
}
330
14
100
AcDbVisualStyle
  2

 70
     8
 71
     2
 72
     2
 73
     0
 90
        0
 40
-0.6
 41
-30.0
 62
     5
 63
     7
 74
     1
 91
        0
 64
     7
 65
   257
 75
     1
175
     1
 42
1.0
 92
        8
 66
     8
 43
1.0
 76
     1
 77
     6
 78
     2
 67
     7
 79
     5
170
     0
171
     0
290
     0
174
     0
 93
       13
 44
0.0
173
     0
291
     0
 45
0.0
  0
VISUALSTYLE
  5
51F
102
{ACAD_REACTORS
330
14
102
}
102
{ACAD_XDICTIONARY
360
131D
102
}
330
14
100
AcDbVisualStyle
  2

 70
    27
 71
     2
 72
     2
 73
     1
 90
        2
 40
-0.6
 41
30.0
 62
     5
 63
     7
 74
     0
 91
        4
 64
     7
 65
   257
 75
     1
175
     1
 42
1.0
 92
        8
 66
   257
 43
1.0
 76
     1
 77
     6
 78
     2
 67
     8
 79
     3
170
     0
171
     0
290
     0
174
     0
 93
        5
 44
0.0
173
     0
291
     0
 45
0.0
  0
VISUALSTYLE
  5
51E
102
{ACAD_REACTORS
330
14
102
}
102
{ACAD_XDICTIONARY
360
131F
102
}
330
14
100
AcDbVisualStyle
  2

 70
    26
 71
     2
 72
     2
 73
     1
 90
        2
 40
-0.6
 41
30.0
 62
     5
 63
     7
 74
     1
 91
       10
 64
     7
 65
   257
 75
     2
175
     1
 42
1.0
 92
        8
 66
   257
 43
1.0
 76
     1
 77
     6
 78
     2
 67
     7
 79
     3
170
     0
171
     0
290
     0
174
     0
 93
        5
 44
0.0
173
     0
291
     0
 45
0.0
  0
VISUALSTYLE
  5
51B
102
{ACAD_REACTORS
330
14
102
}
102
{ACAD_XDICTIONARY
360
1321
102
}
330
14
100
AcDbVisualStyle
  2

 70
    23
 71
     2
 72
     2
 73
     3
 90
        0
 40
-0.6
 41
-30.0
 62
     5
 63
     7
 74
     2
 91
        2
 64
     7
 65
     7
 75
     1
175
     1
 42
40.0
 92
        8
 66
     7
 43
1.0
 76
     1
 77
     6
 78
     2
 67
     7
 79
     3
170
     0
171
     0
290
     0
174
     0
 93
        1
 44
0.0
173
     0
291
     0
 45
0.0
  0
VISUALSTYLE
  5
51C
102
{ACAD_REACTORS
330
14
102
}
102
{ACAD_XDICTIONARY
360
1323
102
}
330
14
100
AcDbVisualStyle
  2

 70
    24
 71
     1
 72
     2
 73
     2
 90
        0
 40
-0.6
 41
-30.0
 62
     5
 63
     7
 74
     2
 91
        2
 64
     7
 65
     7
 75
     1
175
     1
 42
40.0
 92
       11
 66
     7
 43
1.0
 76
     1
 77
     6
 78
     2
 67
     7
 79
     6
170
     0
171
     0
290
     0
174
     0
 93
        1
 44
0.0
173
     0
291
     0
 45
0.0
  0
VISUALSTYLE
  5
21
102
{ACAD_REACTORS
330
14
102
}
102
{ACAD_XDICTIONARY
360
1325
102
}
330
14
100
AcDbVisualStyle
  2

 70
    13
 71
     2
 72
     2
 73
     0
 90
        0
 40
-0.6
 41
-30.0
 62
     5
 63
     7
 74
     1
 91
        4
 64
     7
 65
   257
 75
     1
175
     1
 42
1.0
 92
       12
 66
     7
 43
1.0
 76
     1
 77
     6
 78
     2
 67
     7
 79
     5
170
     0
171
     0
290
     0
174
     0
 93
        1
 44
0.0
173
     0
291
     1
 45
0.0
  0
VISUALSTYLE
  5
519
102
{ACAD_REACTORS
330
14
102
}
102
{ACAD_XDICTIONARY
360
1327
102
}
330
14
100
AcDbVisualStyle
  2

 70
     5
 71
     0
 72
     2
 73
     0
 90
        0
 40
-0.6
 41
-30.0
 62
     5
 63
     7
 74
     1
 91
        4
 64
     7
 65
   257
 75
     1
175
     1
 42
1.0
 92
        0
 66
   257
 43
1.0
 76
     1
 77
     6
 78
     2
 67
     7
 79
     3
170
     0
171
     0
290
     0
174
     0
 93
        1
 44
0.0
173
     0
291
     0
 45
0.0
  0
VISUALSTYLE
  5
51D
102
{ACAD_REACTORS
330
14
102
}
102
{ACAD_XDICTIONARY
360
1329
102
}
330
14
100
AcDbVisualStyle
  2

 70
    25
 71
     2
 72
     2
 73
     1
 90
        1
 40
0.5
 41
-30.0
 62
     5
 63
     7
 74
     1
 91
        0
 64
     7
 65
   257
 75
     1
175
     1
 42
1.0
 92
        8
 66
     7
 43
1.0
 76
     1
 77
     6
 78
     2
 67
     7
 79
     3
170
     0
171
     0
290
     0
174
     0
 93
       13
 44
0.0
173
     0
291
     0
 45
0.0
  0
DICTIONARYVAR
  5
12F1
102
{ACAD_REACTORS
330
501
102
}
330
501
100
DictionaryVariables
280
     0
  1
1:1
  0
DICTIONARYVAR
  5
EA7
102
{ACAD_REACTORS
330
501
102
}
330
501
100
DictionaryVariables
280
     0
  1
Standard
  0
DICTIONARYVAR
  5
502
102
{ACAD_REACTORS
330
501
102
}
330
501
100
DictionaryVariables
280
     0
  1
Standard
  0
DICTIONARYVAR
  5
505
102
{ACAD_REACTORS
330
501
102
}
330
501
100
DictionaryVariables
280
     0
  1
1
  0
DICTIONARYVAR
  5
504
102
{ACAD_REACTORS
330
501
102
}
330
501
100
DictionaryVariables
280
     0
  1
0
  0
DICTIONARYVAR
  5
12F2
102
{ACAD_REACTORS
330
501
102
}
330
501
100
DictionaryVariables
280
     0
  1
2
  0
DICTIONARYVAR
  5
132C
102
{ACAD_REACTORS
330
501
102
}
330
501
100
DictionaryVariables
280
     0
  1
0
  0
DICTIONARYVAR
  5
503
102
{ACAD_REACTORS
330
501
102
}
330
501
100
DictionaryVariables
280
     0
  1
127
  0
DICTIONARYVAR
  5
1249
102
{ACAD_REACTORS
330
501
102
}
330
501
100
DictionaryVariables
280
     0
  1
2
  0
DICTIONARY
  5
12F3
330
536
100
AcDbDictionary
280
     1
281
     1
  3
ACAD_XREC_ROUNDTRIP
360
12F4
  0
DICTIONARY
  5
12F5
330
31
100
AcDbDictionary
280
     1
281
     1
  3
ACAD_ROUNDTRIP_2008_TABLESTYLE_CELLSTYLEMAP
360
12F6
  0
DICTIONARY
  5
12F7
330
1A
100
AcDbDictionary
280
     1
281
     1
  3
ACAD_XREC_ROUNDTRIP
360
12F8
  0
DICTIONARY
  5
12F9
330
1C
100
AcDbDictionary
280
     1
281
     1
  3
ACAD_XREC_ROUNDTRIP
360
12FA
  0
DICTIONARY
  5
12FB
330
1B
100
AcDbDictionary
280
     1
281
     1
  3
ACAD_XREC_ROUNDTRIP
360
12FC
  0
DICTIONARY
  5
12FD
330
19
100
AcDbDictionary
280
     1
281
     1
  3
ACAD_XREC_ROUNDTRIP
360
12FE
  0
DICTIONARY
  5
12FF
330
20
100
AcDbDictionary
280
     1
281
     1
  3
ACAD_XREC_ROUNDTRIP
360
1300
  0
DICTIONARY
  5
1301
330
24
100
AcDbDictionary
280
     1
281
     1
  3
ACAD_XREC_ROUNDTRIP
360
1302
  0
DICTIONARY
  5
1303
330
1D
100
AcDbDictionary
280
     1
281
     1
  3
ACAD_XREC_ROUNDTRIP
360
1304
  0
DICTIONARY
  5
1305
330
1F
100
AcDbDictionary
280
     1
281
     1
  3
ACAD_XREC_ROUNDTRIP
360
1306
  0
DICTIONARY
  5
1307
330
522
100
AcDbDictionary
280
     1
281
     1
  3
ACAD_XREC_ROUNDTRIP
360
1308
  0
DICTIONARY
  5
1309
330
23
100
AcDbDictionary
280
     1
281
     1
  3
ACAD_XREC_ROUNDTRIP
360
130A
  0
DICTIONARY
  5
130B
330
15
100
AcDbDictionary
280
     1
281
     1
  3
ACAD_XREC_ROUNDTRIP
360
130C
  0
DICTIONARY
  5
130D
330
16
100
AcDbDictionary
280
     1
281
     1
  3
ACAD_XREC_ROUNDTRIP
360
130E
  0
DICTIONARY
  5
130F
330
17
100
AcDbDictionary
280
     1
281
     1
  3
ACAD_XREC_ROUNDTRIP
360
1310
  0
DICTIONARY
  5
1311
330
18
100
AcDbDictionary
280
     1
281
     1
  3
ACAD_XREC_ROUNDTRIP
360
1312
  0
DICTIONARY
  5
1313
330
51A
100
AcDbDictionary
280
     1
281
     1
  3
ACAD_XREC_ROUNDTRIP
360
1314
  0
DICTIONARY
  5
1315
330
520
100
AcDbDictionary
280
     1
281
     1
  3
ACAD_XREC_ROUNDTRIP
360
1316
  0
DICTIONARY
  5
1317
330
22
100
AcDbDictionary
280
     1
281
     1
  3
ACAD_XREC_ROUNDTRIP
360
1318
  0
DICTIONARY
  5
1319
330
521
100
AcDbDictionary
280
     1
281
     1
  3
ACAD_XREC_ROUNDTRIP
360
131A
  0
DICTIONARY
  5
131B
330
1E
100
AcDbDictionary
280
     1
281
     1
  3
ACAD_XREC_ROUNDTRIP
360
131C
  0
DICTIONARY
  5
131D
330
51F
100
AcDbDictionary
280
     1
281
     1
  3
ACAD_XREC_ROUNDTRIP
360
131E
  0
DICTIONARY
  5
131F
330
51E
100
AcDbDictionary
280
     1
281
     1
  3
ACAD_XREC_ROUNDTRIP
360
1320
  0
DICTIONARY
  5
1321
330
51B
100
AcDbDictionary
280
     1
281
     1
  3
ACAD_XREC_ROUNDTRIP
360
1322
  0
DICTIONARY
  5
1323
330
51C
100
AcDbDictionary
280
     1
281
     1
  3
ACAD_XREC_ROUNDTRIP
360
1324
  0
DICTIONARY
  5
1325
330
21
100
AcDbDictionary
280
     1
281
     1
  3
ACAD_XREC_ROUNDTRIP
360
1326
  0
DICTIONARY
  5
1327
330
519
100
AcDbDictionary
280
     1
281
     1
  3
ACAD_XREC_ROUNDTRIP
360
1328
  0
DICTIONARY
  5
1329
330
51D
100
AcDbDictionary
280
     1
281
     1
  3
ACAD_XREC_ROUNDTRIP
360
132A
  0
XRECORD
  5
12F4
102
{ACAD_REACTORS
330
12F3
102
}
330
12F3
100
AcDbXrecord
280
     1
102
ACAD_ROUNDTRIP_2010_MLEADER_STYLE
  0
CELLSTYLEMAP
  5
12F6
102
{ACAD_REACTORS
330
12F5
102
}
330
12F5
100
AcDbCellStyleMap
 90
        3
300
CELLSTYLE
  1
TABLEFORMAT_BEGIN
 90
        5
170
     1
 91
        0
 92
    32768
 62
   257
 93
        1
300
CONTENTFORMAT
  1
CONTENTFORMAT_BEGIN
 90
        0
 91
        0
 92
      512
 93
        0
300

 40
0.0
140
1.0
 94
        5
 62
     0
340
26
144
0.25
309
CONTENTFORMAT_END
171
     1
301
MARGIN
  1
CELLMARGIN_BEGIN
 40
0.06
 40
0.06
 40
0.06
 40
0.06
 40
0.18
 40
0.18
309
CELLMARGIN_END
 94
        6
 95
        1
302
GRIDFORMAT
  1
GRIDFORMAT_BEGIN
 90
        0
 91
        1
 62
     0
 92
       -2
340
0
 93
        0
 40
0.045
309
GRIDFORMAT_END
 95
        2
302
GRIDFORMAT
  1
GRIDFORMAT_BEGIN
 90
        0
 91
        1
 62
     0
 92
       -2
340
0
 93
        0
 40
0.045
309
GRIDFORMAT_END
 95
        4
302
GRIDFORMAT
  1
GRIDFORMAT_BEGIN
 90
        0
 91
        1
 62
     0
 92
       -2
340
0
 93
        0
 40
0.045
309
GRIDFORMAT_END
 95
        8
302
GRIDFORMAT
  1
GRIDFORMAT_BEGIN
 90
        0
 91
        1
 62
     0
 92
       -2
340
0
 93
        0
 40
0.045
309
GRIDFORMAT_END
 95
       16
302
GRIDFORMAT
  1
GRIDFORMAT_BEGIN
 90
        0
 91
        1
 62
     0
 92
       -2
340
0
 93
        0
 40
0.045
309
GRIDFORMAT_END
 95
       32
302
GRIDFORMAT
  1
GRIDFORMAT_BEGIN
 90
        0
 91
        1
 62
     0
 92
       -2
340
0
 93
        0
 40
0.045
309
GRIDFORMAT_END
309
TABLEFORMAT_END
  1
CELLSTYLE_BEGIN
 90
        1
 91
        1
300
_TITLE
309
CELLSTYLE_END
300
CELLSTYLE
  1
TABLEFORMAT_BEGIN
 90
        5
170
     1
 91
        0
 92
        0
 62
   257
 93
        1
300
CONTENTFORMAT
  1
CONTENTFORMAT_BEGIN
 90
        0
 91
        0
 92
      512
 93
        0
300

 40
0.0
140
1.0
 94
        5
 62
     0
340
26
144
0.18
309
CONTENTFORMAT_END
171
     1
301
MARGIN
  1
CELLMARGIN_BEGIN
 40
0.06
 40
0.06
 40
0.06
 40
0.06
 40
0.18
 40
0.18
309
CELLMARGIN_END
 94
        6
 95
        1
302
GRIDFORMAT
  1
GRIDFORMAT_BEGIN
 90
        0
 91
        1
 62
     0
 92
       -2
340
0
 93
        0
 40
0.045
309
GRIDFORMAT_END
 95
        2
302
GRIDFORMAT
  1
GRIDFORMAT_BEGIN
 90
        0
 91
        1
 62
     0
 92
       -2
340
0
 93
        0
 40
0.045
309
GRIDFORMAT_END
 95
        4
302
GRIDFORMAT
  1
GRIDFORMAT_BEGIN
 90
        0
 91
        1
 62
     0
 92
       -2
340
0
 93
        0
 40
0.045
309
GRIDFORMAT_END
 95
        8
302
GRIDFORMAT
  1
GRIDFORMAT_BEGIN
 90
        0
 91
        1
 62
     0
 92
       -2
340
0
 93
        0
 40
0.045
309
GRIDFORMAT_END
 95
       16
302
GRIDFORMAT
  1
GRIDFORMAT_BEGIN
 90
        0
 91
        1
 62
     0
 92
       -2
340
0
 93
        0
 40
0.045
309
GRIDFORMAT_END
 95
       32
302
GRIDFORMAT
  1
GRIDFORMAT_BEGIN
 90
        0
 91
        1
 62
     0
 92
       -2
340
0
 93
        0
 40
0.045
309
GRIDFORMAT_END
309
TABLEFORMAT_END
  1
CELLSTYLE_BEGIN
 90
        2
 91
        1
300
_HEADER
309
CELLSTYLE_END
300
CELLSTYLE
  1
TABLEFORMAT_BEGIN
 90
        5
170
     1
 91
        0
 92
        0
 62
   257
 93
        1
300
CONTENTFORMAT
  1
CONTENTFORMAT_BEGIN
 90
        0
 91
        0
 92
      512
 93
        0
300

 40
0.0
140
1.0
 94
        2
 62
     0
340
26
144
0.18
309
CONTENTFORMAT_END
171
     1
301
MARGIN
  1
CELLMARGIN_BEGIN
 40
0.06
 40
0.06
 40
0.06
 40
0.06
 40
0.18
 40
0.18
309
CELLMARGIN_END
 94
        6
 95
        1
302
GRIDFORMAT
  1
GRIDFORMAT_BEGIN
 90
        0
 91
        1
 62
     0
 92
       -2
340
0
 93
        0
 40
0.045
309
GRIDFORMAT_END
 95
        2
302
GRIDFORMAT
  1
GRIDFORMAT_BEGIN
 90
        0
 91
        1
 62
     0
 92
       -2
340
0
 93
        0
 40
0.045
309
GRIDFORMAT_END
 95
        4
302
GRIDFORMAT
  1
GRIDFORMAT_BEGIN
 90
        0
 91
        1
 62
     0
 92
       -2
340
0
 93
        0
 40
0.045
309
GRIDFORMAT_END
 95
        8
302
GRIDFORMAT
  1
GRIDFORMAT_BEGIN
 90
        0
 91
        1
 62
     0
 92
       -2
340
0
 93
        0
 40
0.045
309
GRIDFORMAT_END
 95
       16
302
GRIDFORMAT
  1
GRIDFORMAT_BEGIN
 90
        0
 91
        1
 62
     0
 92
       -2
340
0
 93
        0
 40
0.045
309
GRIDFORMAT_END
 95
       32
302
GRIDFORMAT
  1
GRIDFORMAT_BEGIN
 90
        0
 91
        1
 62
     0
 92
       -2
340
0
 93
        0
 40
0.045
309
GRIDFORMAT_END
309
TABLEFORMAT_END
  1
CELLSTYLE_BEGIN
 90
        3
 91
        2
300
_DATA
309
CELLSTYLE_END
  0
XRECORD
  5
12F8
102
{ACAD_REACTORS
330
12F7
102
}
330
12F7
100
AcDbXrecord
280
     1
102
RTVSPropertyOp0
 70
     1
102
RTVSPropertyOp1
 70
     1
102
RTVSPropertyOp2
 70
     1
102
RTVSPropertyOp3
 70
     1
102
RTVSPropertyOp4
 70
     1
102
RTVSPropertyOp5
 70
     1
102
RTVSPropertyOp6
 70
     1
102
RTVSPropertyOp7
 70
     1
102
RTVSPropertyOp8
 70
     1
102
RTVSPropertyOp9
 70
     1
102
RTVSPropertyOp10
 70
     1
102
RTVSPropertyOp11
 70
     1
102
RTVSPropertyOp12
 70
     1
102
RTVSPropertyOp13
 70
     1
102
RTVSPropertyOp14
 70
     1
102
RTVSPropertyOp15
 70
     1
102
RTVSPropertyOp16
 70
     1
102
RTVSPropertyOp17
 70
     1
102
RTVSPropertyOp18
 70
     1
102
RTVSPropertyOp19
 70
     1
102
RTVSPropertyOp20
 70
     1
102
RTVSPropertyOp21
 70
     1
102
RTVSPropertyOp22
 70
     1
102
RTVSPropertyOp23
 70
     1
102
RTVSPropertyOp24
 70
     1
102
RTVSPropertyOp25
 70
     1
102
RTVSPropertyOp26
 70
     1
102
RTVSPropertyOp27
 70
     1
102
RTVSPropertyOp28
 70
     1
102
RTVSPropertyOp29
 70
     1
102
RTVSPropertyOp30
 70
     1
102
RTVSPropertyOp31
 70
     1
102
RTVSPropertyOp32
 70
     1
102
RTVSPropertyOp33
 70
     1
102
RTVSPropertyOp34
 70
     1
102
RTVSPropertyOp35
 70
     1
102
RTVSPropertyOp36
 70
     1
102
RTVSPropertyOp37
 70
     1
102
RTVSPropertyOp38
 70
     1
102
RTVSPropertyOp39
 70
     1
102
RTVSPropertyOp40
 70
     1
102
RTVSPropertyOp41
 70
     1
102
RTVSPropertyOp42
 70
     1
102
RTVSPropertyOp43
 70
     1
102
RTVSPropertyOp44
 70
     1
102
RTVSPropertyOp45
 70
     1
102
RTVSPropertyOp46
 70
     1
102
RTVSPropertyOp47
 70
     1
102
RTVSPropertyOp48
 70
     1
102
RTVSPropertyOp49
 70
     1
102
RTVSPropertyOp50
 70
     1
102
RTVSPropertyOp51
 70
     0
102
RTVSPropertyOp52
 70
     0
102
RTVSPropertyOp53
 70
     1
102
RTVSPropertyOp54
 70
     1
102
RTVSPropertyOp55
 70
     1
102
RTVSPropertyOp56
 70
     1
102
RTVSPropertyOp57
 70
     1
102
RTVSPost2010Prop28
280
     1
102
RTVSPost2010PropOp28
 70
     1
102
RTVSPost2010Prop29
280
     1
102
RTVSPost2010PropOp29
 70
     1
102
RTVSPost2010Prop30
280
     0
102
RTVSPost2010PropOp30
 70
     1
102
RTVSPost2010Prop31
280
     0
102
RTVSPost2010PropOp31
 70
     1
102
RTVSPost2010Prop32
280
     0
102
RTVSPost2010PropOp32
 70
     1
102
RTVSPost2010Prop33
280
     0
102
RTVSPost2010PropOp33
 70
     1
102
RTVSPost2010Prop34
280
     0
102
RTVSPost2010PropOp34
 70
     1
102
RTVSPost2010Prop35
280
     0
102
RTVSPost2010PropOp35
 70
     1
102
RTVSPost2010Prop36
280
     0
102
RTVSPost2010PropOp36
 70
     1
102
RTVSPost2010Prop37
 90
       50
102
RTVSPost2010PropOp37
 70
     1
102
RTVSPost2010Prop38
140
0.0
102
RTVSPost2010PropOp38
 70
     1
102
RTVSPost2010Prop39
140
1.0
102
RTVSPost2010PropOp39
 70
     1
102
RTVSPost2010Prop40
 90
        0
102
RTVSPost2010PropOp40
 70
     1
102
RTVSPost2010Prop41ColorIndex
 90
       18
102
RTVSPost2010Prop41ColorRGB
 90
        0
102
RTVSPost2010PropOp41
 70
     1
102
RTVSPost2010Prop42
 90
       50
102
RTVSPost2010PropOp42
 70
     1
102
RTVSPost2010Prop43
 90
        3
102
RTVSPost2010PropOp43
 70
     1
102
RTVSPost2010Prop44ColorIndex
 90
        5
102
RTVSPost2010Prop44ColorRGB
 90
      255
102
RTVSPost2010PropOp44
 70
     1
102
RTVSPost2010Prop45
280
     0
102
RTVSPost2010PropOp45
 70
     1
102
RTVSPost2010Prop46
 90
       50
102
RTVSPost2010PropOp46
 70
     1
102
RTVSPost2010Prop47
 90
       50
102
RTVSPost2010PropOp47
 70
     1
102
RTVSPost2010Prop48
 90
       50
102
RTVSPost2010PropOp48
 70
     1
102
RTVSPost2010Prop49
280
     0
102
RTVSPost2010PropOp49
 70
     1
102
RTVSPost2010Prop50
 90
       50
102
RTVSPost2010PropOp50
 70
     1
102
RTVSPost2010Prop51ColorIndex
 90
      256
102
RTVSPost2010Prop51ColorRGB
 90
-16777216
102
RTVSPost2010PropOp51
 70
     0
102
RTVSPost2010Prop52
140
1.0
102
RTVSPost2010PropOp52
 70
     0
102
RTVSPost2010Prop53
 90
        2
102
RTVSPost2010PropOp53
 70
     1
102
RTVSPost2010Prop54
  1
strokes_ogs.tif
102
RTVSPost2010PropOp54
 70
     1
102
RTVSPost2010Prop55
280
     0
102
RTVSPost2010PropOp55
 70
     1
102
RTVSPost2010Prop56
140
1.0
102
RTVSPost2010PropOp56
 70
     1
102
RTVSPost2010Prop57
140
1.0
102
RTVSPost2010PropOp57
 70
     1
  0
XRECORD
  5
12FA
102
{ACAD_REACTORS
330
12F9
102
}
330
12F9
100
AcDbXrecord
280
     1
102
RTVSPropertyOp0
 70
     1
102
RTVSPropertyOp1
 70
     1
102
RTVSPropertyOp2
 70
     1
102
RTVSPropertyOp3
 70
     1
102
RTVSPropertyOp4
 70
     1
102
RTVSPropertyOp5
 70
     1
102
RTVSPropertyOp6
 70
     1
102
RTVSPropertyOp7
 70
     1
102
RTVSPropertyOp8
 70
     1
102
RTVSPropertyOp9
 70
     1
102
RTVSPropertyOp10
 70
     1
102
RTVSPropertyOp11
 70
     1
102
RTVSPropertyOp12
 70
     1
102
RTVSPropertyOp13
 70
     1
102
RTVSPropertyOp14
 70
     1
102
RTVSPropertyOp15
 70
     1
102
RTVSPropertyOp16
 70
     1
102
RTVSPropertyOp17
 70
     1
102
RTVSPropertyOp18
 70
     1
102
RTVSPropertyOp19
 70
     1
102
RTVSPropertyOp20
 70
     1
102
RTVSPropertyOp21
 70
     1
102
RTVSPropertyOp22
 70
     1
102
RTVSPropertyOp23
 70
     1
102
RTVSPropertyOp24
 70
     1
102
RTVSPropertyOp25
 70
     1
102
RTVSPropertyOp26
 70
     1
102
RTVSPropertyOp27
 70
     1
102
RTVSPropertyOp28
 70
     1
102
RTVSPropertyOp29
 70
     1
102
RTVSPropertyOp30
 70
     1
102
RTVSPropertyOp31
 70
     1
102
RTVSPropertyOp32
 70
     1
102
RTVSPropertyOp33
 70
     1
102
RTVSPropertyOp34
 70
     1
102
RTVSPropertyOp35
 70
     1
102
RTVSPropertyOp36
 70
     1
102
RTVSPropertyOp37
 70
     1
102
RTVSPropertyOp38
 70
     1
102
RTVSPropertyOp39
 70
     1
102
RTVSPropertyOp40
 70
     1
102
RTVSPropertyOp41
 70
     1
102
RTVSPropertyOp42
 70
     1
102
RTVSPropertyOp43
 70
     1
102
RTVSPropertyOp44
 70
     1
102
RTVSPropertyOp45
 70
     1
102
RTVSPropertyOp46
 70
     1
102
RTVSPropertyOp47
 70
     1
102
RTVSPropertyOp48
 70
     1
102
RTVSPropertyOp49
 70
     1
102
RTVSPropertyOp50
 70
     1
102
RTVSPropertyOp51
 70
     0
102
RTVSPropertyOp52
 70
     0
102
RTVSPropertyOp53
 70
     1
102
RTVSPropertyOp54
 70
     1
102
RTVSPropertyOp55
 70
     1
102
RTVSPropertyOp56
 70
     1
102
RTVSPropertyOp57
 70
     1
102
RTVSPost2010Prop28
280
     0
102
RTVSPost2010PropOp28
 70
     1
102
RTVSPost2010Prop29
280
     1
102
RTVSPost2010PropOp29
 70
     1
102
RTVSPost2010Prop30
280
     1
102
RTVSPost2010PropOp30
 70
     1
102
RTVSPost2010Prop31
280
     0
102
RTVSPost2010PropOp31
 70
     1
102
RTVSPost2010Prop32
280
     0
102
RTVSPost2010PropOp32
 70
     1
102
RTVSPost2010Prop33
280
     0
102
RTVSPost2010PropOp33
 70
     1
102
RTVSPost2010Prop34
280
     0
102
RTVSPost2010PropOp34
 70
     1
102
RTVSPost2010Prop35
280
     0
102
RTVSPost2010PropOp35
 70
     1
102
RTVSPost2010Prop36
280
     0
102
RTVSPost2010PropOp36
 70
     1
102
RTVSPost2010Prop37
 90
       50
102
RTVSPost2010PropOp37
 70
     1
102
RTVSPost2010Prop38
140
0.0
102
RTVSPost2010PropOp38
 70
     1
102
RTVSPost2010Prop39
140
1.0
102
RTVSPost2010PropOp39
 70
     1
102
RTVSPost2010Prop40
 90
        0
102
RTVSPost2010PropOp40
 70
     1
102
RTVSPost2010Prop41ColorIndex
 90
       18
102
RTVSPost2010Prop41ColorRGB
 90
        0
102
RTVSPost2010PropOp41
 70
     1
102
RTVSPost2010Prop42
 90
       50
102
RTVSPost2010PropOp42
 70
     1
102
RTVSPost2010Prop43
 90
        3
102
RTVSPost2010PropOp43
 70
     1
102
RTVSPost2010Prop44ColorIndex
 90
        5
102
RTVSPost2010Prop44ColorRGB
 90
      255
102
RTVSPost2010PropOp44
 70
     1
102
RTVSPost2010Prop45
280
     0
102
RTVSPost2010PropOp45
 70
     1
102
RTVSPost2010Prop46
 90
       50
102
RTVSPost2010PropOp46
 70
     1
102
RTVSPost2010Prop47
 90
       50
102
RTVSPost2010PropOp47
 70
     1
102
RTVSPost2010Prop48
 90
       50
102
RTVSPost2010PropOp48
 70
     1
102
RTVSPost2010Prop49
280
     0
102
RTVSPost2010PropOp49
 70
     1
102
RTVSPost2010Prop50
 90
       50
102
RTVSPost2010PropOp50
 70
     1
102
RTVSPost2010Prop51ColorIndex
 90
      256
102
RTVSPost2010Prop51ColorRGB
 90
-16777216
102
RTVSPost2010PropOp51
 70
     0
102
RTVSPost2010Prop52
140
1.0
102
RTVSPost2010PropOp52
 70
     0
102
RTVSPost2010Prop53
 90
        2
102
RTVSPost2010PropOp53
 70
     1
102
RTVSPost2010Prop54
  1
strokes_ogs.tif
102
RTVSPost2010PropOp54
 70
     1
102
RTVSPost2010Prop55
280
     0
102
RTVSPost2010PropOp55
 70
     1
102
RTVSPost2010Prop56
140
1.0
102
RTVSPost2010PropOp56
 70
     1
102
RTVSPost2010Prop57
140
1.0
102
RTVSPost2010PropOp57
 70
     1
  0
XRECORD
  5
12FC
102
{ACAD_REACTORS
330
12FB
102
}
330
12FB
100
AcDbXrecord
280
     1
102
RTVSPropertyOp0
 70
     1
102
RTVSPropertyOp1
 70
     1
102
RTVSPropertyOp2
 70
     1
102
RTVSPropertyOp3
 70
     1
102
RTVSPropertyOp4
 70
     1
102
RTVSPropertyOp5
 70
     1
102
RTVSPropertyOp6
 70
     1
102
RTVSPropertyOp7
 70
     1
102
RTVSPropertyOp8
 70
     1
102
RTVSPropertyOp9
 70
     1
102
RTVSPropertyOp10
 70
     1
102
RTVSPropertyOp11
 70
     1
102
RTVSPropertyOp12
 70
     1
102
RTVSPropertyOp13
 70
     1
102
RTVSPropertyOp14
 70
     1
102
RTVSPropertyOp15
 70
     1
102
RTVSPropertyOp16
 70
     1
102
RTVSPropertyOp17
 70
     1
102
RTVSPropertyOp18
 70
     1
102
RTVSPropertyOp19
 70
     1
102
RTVSPropertyOp20
 70
     1
102
RTVSPropertyOp21
 70
     1
102
RTVSPropertyOp22
 70
     1
102
RTVSPropertyOp23
 70
     1
102
RTVSPropertyOp24
 70
     1
102
RTVSPropertyOp25
 70
     1
102
RTVSPropertyOp26
 70
     1
102
RTVSPropertyOp27
 70
     1
102
RTVSPropertyOp28
 70
     1
102
RTVSPropertyOp29
 70
     1
102
RTVSPropertyOp30
 70
     1
102
RTVSPropertyOp31
 70
     1
102
RTVSPropertyOp32
 70
     1
102
RTVSPropertyOp33
 70
     1
102
RTVSPropertyOp34
 70
     1
102
RTVSPropertyOp35
 70
     1
102
RTVSPropertyOp36
 70
     1
102
RTVSPropertyOp37
 70
     1
102
RTVSPropertyOp38
 70
     1
102
RTVSPropertyOp39
 70
     1
102
RTVSPropertyOp40
 70
     1
102
RTVSPropertyOp41
 70
     1
102
RTVSPropertyOp42
 70
     1
102
RTVSPropertyOp43
 70
     1
102
RTVSPropertyOp44
 70
     1
102
RTVSPropertyOp45
 70
     1
102
RTVSPropertyOp46
 70
     1
102
RTVSPropertyOp47
 70
     1
102
RTVSPropertyOp48
 70
     1
102
RTVSPropertyOp49
 70
     1
102
RTVSPropertyOp50
 70
     1
102
RTVSPropertyOp51
 70
     0
102
RTVSPropertyOp52
 70
     0
102
RTVSPropertyOp53
 70
     1
102
RTVSPropertyOp54
 70
     1
102
RTVSPropertyOp55
 70
     1
102
RTVSPropertyOp56
 70
     1
102
RTVSPropertyOp57
 70
     1
102
RTVSPost2010Prop28
280
     0
102
RTVSPost2010PropOp28
 70
     1
102
RTVSPost2010Prop29
280
     1
102
RTVSPost2010PropOp29
 70
     1
102
RTVSPost2010Prop30
280
     1
102
RTVSPost2010PropOp30
 70
     1
102
RTVSPost2010Prop31
280
     0
102
RTVSPost2010PropOp31
 70
     1
102
RTVSPost2010Prop32
280
     0
102
RTVSPost2010PropOp32
 70
     1
102
RTVSPost2010Prop33
280
     0
102
RTVSPost2010PropOp33
 70
     1
102
RTVSPost2010Prop34
280
     0
102
RTVSPost2010PropOp34
 70
     1
102
RTVSPost2010Prop35
280
     0
102
RTVSPost2010PropOp35
 70
     1
102
RTVSPost2010Prop36
280
     0
102
RTVSPost2010PropOp36
 70
     1
102
RTVSPost2010Prop37
 90
       50
102
RTVSPost2010PropOp37
 70
     1
102
RTVSPost2010Prop38
140
0.0
102
RTVSPost2010PropOp38
 70
     1
102
RTVSPost2010Prop39
140
1.0
102
RTVSPost2010PropOp39
 70
     1
102
RTVSPost2010Prop40
 90
        0
102
RTVSPost2010PropOp40
 70
     1
102
RTVSPost2010Prop41ColorIndex
 90
       18
102
RTVSPost2010Prop41ColorRGB
 90
        0
102
RTVSPost2010PropOp41
 70
     1
102
RTVSPost2010Prop42
 90
       50
102
RTVSPost2010PropOp42
 70
     1
102
RTVSPost2010Prop43
 90
        3
102
RTVSPost2010PropOp43
 70
     1
102
RTVSPost2010Prop44ColorIndex
 90
        5
102
RTVSPost2010Prop44ColorRGB
 90
      255
102
RTVSPost2010PropOp44
 70
     1
102
RTVSPost2010Prop45
280
     0
102
RTVSPost2010PropOp45
 70
     1
102
RTVSPost2010Prop46
 90
       50
102
RTVSPost2010PropOp46
 70
     1
102
RTVSPost2010Prop47
 90
       50
102
RTVSPost2010PropOp47
 70
     1
102
RTVSPost2010Prop48
 90
       50
102
RTVSPost2010PropOp48
 70
     1
102
RTVSPost2010Prop49
280
     0
102
RTVSPost2010PropOp49
 70
     1
102
RTVSPost2010Prop50
 90
       50
102
RTVSPost2010PropOp50
 70
     1
102
RTVSPost2010Prop51ColorIndex
 90
      256
102
RTVSPost2010Prop51ColorRGB
 90
-16777216
102
RTVSPost2010PropOp51
 70
     0
102
RTVSPost2010Prop52
140
1.0
102
RTVSPost2010PropOp52
 70
     0
102
RTVSPost2010Prop53
 90
        2
102
RTVSPost2010PropOp53
 70
     1
102
RTVSPost2010Prop54
  1
strokes_ogs.tif
102
RTVSPost2010PropOp54
 70
     1
102
RTVSPost2010Prop55
280
     0
102
RTVSPost2010PropOp55
 70
     1
102
RTVSPost2010Prop56
140
1.0
102
RTVSPost2010PropOp56
 70
     1
102
RTVSPost2010Prop57
140
1.0
102
RTVSPost2010PropOp57
 70
     1
  0
XRECORD
  5
12FE
102
{ACAD_REACTORS
330
12FD
102
}
330
12FD
100
AcDbXrecord
280
     1
102
RTVSPropertyOp0
 70
     1
102
RTVSPropertyOp1
 70
     1
102
RTVSPropertyOp2
 70
     1
102
RTVSPropertyOp3
 70
     1
102
RTVSPropertyOp4
 70
     1
102
RTVSPropertyOp5
 70
     1
102
RTVSPropertyOp6
 70
     1
102
RTVSPropertyOp7
 70
     1
102
RTVSPropertyOp8
 70
     1
102
RTVSPropertyOp9
 70
     1
102
RTVSPropertyOp10
 70
     1
102
RTVSPropertyOp11
 70
     1
102
RTVSPropertyOp12
 70
     1
102
RTVSPropertyOp13
 70
     1
102
RTVSPropertyOp14
 70
     1
102
RTVSPropertyOp15
 70
     1
102
RTVSPropertyOp16
 70
     1
102
RTVSPropertyOp17
 70
     1
102
RTVSPropertyOp18
 70
     1
102
RTVSPropertyOp19
 70
     1
102
RTVSPropertyOp20
 70
     1
102
RTVSPropertyOp21
 70
     1
102
RTVSPropertyOp22
 70
     1
102
RTVSPropertyOp23
 70
     1
102
RTVSPropertyOp24
 70
     1
102
RTVSPropertyOp25
 70
     1
102
RTVSPropertyOp26
 70
     1
102
RTVSPropertyOp27
 70
     1
102
RTVSPropertyOp28
 70
     1
102
RTVSPropertyOp29
 70
     1
102
RTVSPropertyOp30
 70
     1
102
RTVSPropertyOp31
 70
     1
102
RTVSPropertyOp32
 70
     1
102
RTVSPropertyOp33
 70
     1
102
RTVSPropertyOp34
 70
     1
102
RTVSPropertyOp35
 70
     1
102
RTVSPropertyOp36
 70
     1
102
RTVSPropertyOp37
 70
     1
102
RTVSPropertyOp38
 70
     1
102
RTVSPropertyOp39
 70
     1
102
RTVSPropertyOp40
 70
     1
102
RTVSPropertyOp41
 70
     1
102
RTVSPropertyOp42
 70
     1
102
RTVSPropertyOp43
 70
     1
102
RTVSPropertyOp44
 70
     1
102
RTVSPropertyOp45
 70
     1
102
RTVSPropertyOp46
 70
     1
102
RTVSPropertyOp47
 70
     1
102
RTVSPropertyOp48
 70
     1
102
RTVSPropertyOp49
 70
     1
102
RTVSPropertyOp50
 70
     1
102
RTVSPropertyOp51
 70
     0
102
RTVSPropertyOp52
 70
     0
102
RTVSPropertyOp53
 70
     1
102
RTVSPropertyOp54
 70
     1
102
RTVSPropertyOp55
 70
     1
102
RTVSPropertyOp56
 70
     1
102
RTVSPropertyOp57
 70
     1
102
RTVSPost2010Prop28
280
     0
102
RTVSPost2010PropOp28
 70
     1
102
RTVSPost2010Prop29
280
     1
102
RTVSPost2010PropOp29
 70
     1
102
RTVSPost2010Prop30
280
     1
102
RTVSPost2010PropOp30
 70
     1
102
RTVSPost2010Prop31
280
     0
102
RTVSPost2010PropOp31
 70
     1
102
RTVSPost2010Prop32
280
     0
102
RTVSPost2010PropOp32
 70
     1
102
RTVSPost2010Prop33
280
     0
102
RTVSPost2010PropOp33
 70
     1
102
RTVSPost2010Prop34
280
     0
102
RTVSPost2010PropOp34
 70
     1
102
RTVSPost2010Prop35
280
     0
102
RTVSPost2010PropOp35
 70
     1
102
RTVSPost2010Prop36
280
     0
102
RTVSPost2010PropOp36
 70
     1
102
RTVSPost2010Prop37
 90
       50
102
RTVSPost2010PropOp37
 70
     1
102
RTVSPost2010Prop38
140
0.0
102
RTVSPost2010PropOp38
 70
     1
102
RTVSPost2010Prop39
140
1.0
102
RTVSPost2010PropOp39
 70
     1
102
RTVSPost2010Prop40
 90
        0
102
RTVSPost2010PropOp40
 70
     1
102
RTVSPost2010Prop41ColorIndex
 90
       18
102
RTVSPost2010Prop41ColorRGB
 90
        0
102
RTVSPost2010PropOp41
 70
     1
102
RTVSPost2010Prop42
 90
       50
102
RTVSPost2010PropOp42
 70
     1
102
RTVSPost2010Prop43
 90
        3
102
RTVSPost2010PropOp43
 70
     1
102
RTVSPost2010Prop44ColorIndex
 90
        5
102
RTVSPost2010Prop44ColorRGB
 90
      255
102
RTVSPost2010PropOp44
 70
     1
102
RTVSPost2010Prop45
280
     0
102
RTVSPost2010PropOp45
 70
     1
102
RTVSPost2010Prop46
 90
       50
102
RTVSPost2010PropOp46
 70
     1
102
RTVSPost2010Prop47
 90
       50
102
RTVSPost2010PropOp47
 70
     1
102
RTVSPost2010Prop48
 90
       50
102
RTVSPost2010PropOp48
 70
     1
102
RTVSPost2010Prop49
280
     0
102
RTVSPost2010PropOp49
 70
     1
102
RTVSPost2010Prop50
 90
       50
102
RTVSPost2010PropOp50
 70
     1
102
RTVSPost2010Prop51ColorIndex
 90
      256
102
RTVSPost2010Prop51ColorRGB
 90
-16777216
102
RTVSPost2010PropOp51
 70
     0
102
RTVSPost2010Prop52
140
1.0
102
RTVSPost2010PropOp52
 70
     0
102
RTVSPost2010Prop53
 90
        2
102
RTVSPost2010PropOp53
 70
     1
102
RTVSPost2010Prop54
  1
strokes_ogs.tif
102
RTVSPost2010PropOp54
 70
     1
102
RTVSPost2010Prop55
280
     0
102
RTVSPost2010PropOp55
 70
     1
102
RTVSPost2010Prop56
140
1.0
102
RTVSPost2010PropOp56
 70
     1
102
RTVSPost2010Prop57
140
1.0
102
RTVSPost2010PropOp57
 70
     1
  0
XRECORD
  5
1300
102
{ACAD_REACTORS
330
12FF
102
}
330
12FF
100
AcDbXrecord
280
     1
102
RTVSPropertyOp0
 70
     1
102
RTVSPropertyOp1
 70
     1
102
RTVSPropertyOp2
 70
     1
102
RTVSPropertyOp3
 70
     1
102
RTVSPropertyOp4
 70
     1
102
RTVSPropertyOp5
 70
     1
102
RTVSPropertyOp6
 70
     1
102
RTVSPropertyOp7
 70
     1
102
RTVSPropertyOp8
 70
     1
102
RTVSPropertyOp9
 70
     1
102
RTVSPropertyOp10
 70
     1
102
RTVSPropertyOp11
 70
     1
102
RTVSPropertyOp12
 70
     1
102
RTVSPropertyOp13
 70
     1
102
RTVSPropertyOp14
 70
     1
102
RTVSPropertyOp15
 70
     1
102
RTVSPropertyOp16
 70
     1
102
RTVSPropertyOp17
 70
     1
102
RTVSPropertyOp18
 70
     1
102
RTVSPropertyOp19
 70
     1
102
RTVSPropertyOp20
 70
     1
102
RTVSPropertyOp21
 70
     1
102
RTVSPropertyOp22
 70
     1
102
RTVSPropertyOp23
 70
     1
102
RTVSPropertyOp24
 70
     1
102
RTVSPropertyOp25
 70
     1
102
RTVSPropertyOp26
 70
     1
102
RTVSPropertyOp27
 70
     1
102
RTVSPropertyOp28
 70
     1
102
RTVSPropertyOp29
 70
     1
102
RTVSPropertyOp30
 70
     1
102
RTVSPropertyOp31
 70
     1
102
RTVSPropertyOp32
 70
     1
102
RTVSPropertyOp33
 70
     1
102
RTVSPropertyOp34
 70
     1
102
RTVSPropertyOp35
 70
     1
102
RTVSPropertyOp36
 70
     1
102
RTVSPropertyOp37
 70
     1
102
RTVSPropertyOp38
 70
     1
102
RTVSPropertyOp39
 70
     1
102
RTVSPropertyOp40
 70
     1
102
RTVSPropertyOp41
 70
     1
102
RTVSPropertyOp42
 70
     1
102
RTVSPropertyOp43
 70
     1
102
RTVSPropertyOp44
 70
     1
102
RTVSPropertyOp45
 70
     1
102
RTVSPropertyOp46
 70
     1
102
RTVSPropertyOp47
 70
     1
102
RTVSPropertyOp48
 70
     1
102
RTVSPropertyOp49
 70
     1
102
RTVSPropertyOp50
 70
     1
102
RTVSPropertyOp51
 70
     0
102
RTVSPropertyOp52
 70
     0
102
RTVSPropertyOp53
 70
     1
102
RTVSPropertyOp54
 70
     1
102
RTVSPropertyOp55
 70
     1
102
RTVSPropertyOp56
 70
     1
102
RTVSPropertyOp57
 70
     1
102
RTVSPost2010Prop28
280
     0
102
RTVSPost2010PropOp28
 70
     1
102
RTVSPost2010Prop29
280
     1
102
RTVSPost2010PropOp29
 70
     1
102
RTVSPost2010Prop30
280
     1
102
RTVSPost2010PropOp30
 70
     1
102
RTVSPost2010Prop31
280
     0
102
RTVSPost2010PropOp31
 70
     1
102
RTVSPost2010Prop32
280
     0
102
RTVSPost2010PropOp32
 70
     1
102
RTVSPost2010Prop33
280
     0
102
RTVSPost2010PropOp33
 70
     1
102
RTVSPost2010Prop34
280
     0
102
RTVSPost2010PropOp34
 70
     1
102
RTVSPost2010Prop35
280
     0
102
RTVSPost2010PropOp35
 70
     1
102
RTVSPost2010Prop36
280
     0
102
RTVSPost2010PropOp36
 70
     1
102
RTVSPost2010Prop37
 90
       50
102
RTVSPost2010PropOp37
 70
     1
102
RTVSPost2010Prop38
140
0.0
102
RTVSPost2010PropOp38
 70
     1
102
RTVSPost2010Prop39
140
1.0
102
RTVSPost2010PropOp39
 70
     1
102
RTVSPost2010Prop40
 90
        0
102
RTVSPost2010PropOp40
 70
     1
102
RTVSPost2010Prop41ColorIndex
 90
       18
102
RTVSPost2010Prop41ColorRGB
 90
        0
102
RTVSPost2010PropOp41
 70
     1
102
RTVSPost2010Prop42
 90
       50
102
RTVSPost2010PropOp42
 70
     1
102
RTVSPost2010Prop43
 90
        3
102
RTVSPost2010PropOp43
 70
     1
102
RTVSPost2010Prop44ColorIndex
 90
        5
102
RTVSPost2010Prop44ColorRGB
 90
      255
102
RTVSPost2010PropOp44
 70
     1
102
RTVSPost2010Prop45
280
     0
102
RTVSPost2010PropOp45
 70
     1
102
RTVSPost2010Prop46
 90
       50
102
RTVSPost2010PropOp46
 70
     1
102
RTVSPost2010Prop47
 90
       50
102
RTVSPost2010PropOp47
 70
     1
102
RTVSPost2010Prop48
 90
       50
102
RTVSPost2010PropOp48
 70
     1
102
RTVSPost2010Prop49
280
     0
102
RTVSPost2010PropOp49
 70
     1
102
RTVSPost2010Prop50
 90
       50
102
RTVSPost2010PropOp50
 70
     1
102
RTVSPost2010Prop51ColorIndex
 90
      256
102
RTVSPost2010Prop51ColorRGB
 90
-16777216
102
RTVSPost2010PropOp51
 70
     0
102
RTVSPost2010Prop52
140
1.0
102
RTVSPost2010PropOp52
 70
     0
102
RTVSPost2010Prop53
 90
        2
102
RTVSPost2010PropOp53
 70
     1
102
RTVSPost2010Prop54
  1
strokes_ogs.tif
102
RTVSPost2010PropOp54
 70
     1
102
RTVSPost2010Prop55
280
     0
102
RTVSPost2010PropOp55
 70
     1
102
RTVSPost2010Prop56
140
1.0
102
RTVSPost2010PropOp56
 70
     1
102
RTVSPost2010Prop57
140
1.0
102
RTVSPost2010PropOp57
 70
     1
  0
XRECORD
  5
1302
102
{ACAD_REACTORS
330
1301
102
}
330
1301
100
AcDbXrecord
280
     1
102
RTVSPropertyOp0
 70
     1
102
RTVSPropertyOp1
 70
     1
102
RTVSPropertyOp2
 70
     1
102
RTVSPropertyOp3
 70
     1
102
RTVSPropertyOp4
 70
     1
102
RTVSPropertyOp5
 70
     1
102
RTVSPropertyOp6
 70
     1
102
RTVSPropertyOp7
 70
     1
102
RTVSPropertyOp8
 70
     1
102
RTVSPropertyOp9
 70
     1
102
RTVSPropertyOp10
 70
     1
102
RTVSPropertyOp11
 70
     1
102
RTVSPropertyOp12
 70
     1
102
RTVSPropertyOp13
 70
     1
102
RTVSPropertyOp14
 70
     1
102
RTVSPropertyOp15
 70
     1
102
RTVSPropertyOp16
 70
     1
102
RTVSPropertyOp17
 70
     1
102
RTVSPropertyOp18
 70
     1
102
RTVSPropertyOp19
 70
     1
102
RTVSPropertyOp20
 70
     1
102
RTVSPropertyOp21
 70
     1
102
RTVSPropertyOp22
 70
     1
102
RTVSPropertyOp23
 70
     1
102
RTVSPropertyOp24
 70
     1
102
RTVSPropertyOp25
 70
     1
102
RTVSPropertyOp26
 70
     1
102
RTVSPropertyOp27
 70
     1
102
RTVSPropertyOp28
 70
     1
102
RTVSPropertyOp29
 70
     1
102
RTVSPropertyOp30
 70
     1
102
RTVSPropertyOp31
 70
     1
102
RTVSPropertyOp32
 70
     1
102
RTVSPropertyOp33
 70
     1
102
RTVSPropertyOp34
 70
     1
102
RTVSPropertyOp35
 70
     1
102
RTVSPropertyOp36
 70
     1
102
RTVSPropertyOp37
 70
     1
102
RTVSPropertyOp38
 70
     1
102
RTVSPropertyOp39
 70
     1
102
RTVSPropertyOp40
 70
     1
102
RTVSPropertyOp41
 70
     1
102
RTVSPropertyOp42
 70
     1
102
RTVSPropertyOp43
 70
     1
102
RTVSPropertyOp44
 70
     1
102
RTVSPropertyOp45
 70
     1
102
RTVSPropertyOp46
 70
     1
102
RTVSPropertyOp47
 70
     1
102
RTVSPropertyOp48
 70
     1
102
RTVSPropertyOp49
 70
     1
102
RTVSPropertyOp50
 70
     1
102
RTVSPropertyOp51
 70
     0
102
RTVSPropertyOp52
 70
     0
102
RTVSPropertyOp53
 70
     1
102
RTVSPropertyOp54
 70
     1
102
RTVSPropertyOp55
 70
     1
102
RTVSPropertyOp56
 70
     1
102
RTVSPropertyOp57
 70
     1
102
RTVSPost2010Prop28
280
     0
102
RTVSPost2010PropOp28
 70
     1
102
RTVSPost2010Prop29
280
     1
102
RTVSPost2010PropOp29
 70
     1
102
RTVSPost2010Prop30
280
     1
102
RTVSPost2010PropOp30
 70
     1
102
RTVSPost2010Prop31
280
     0
102
RTVSPost2010PropOp31
 70
     1
102
RTVSPost2010Prop32
280
     0
102
RTVSPost2010PropOp32
 70
     1
102
RTVSPost2010Prop33
280
     0
102
RTVSPost2010PropOp33
 70
     1
102
RTVSPost2010Prop34
280
     0
102
RTVSPost2010PropOp34
 70
     1
102
RTVSPost2010Prop35
280
     0
102
RTVSPost2010PropOp35
 70
     1
102
RTVSPost2010Prop36
280
     0
102
RTVSPost2010PropOp36
 70
     1
102
RTVSPost2010Prop37
 90
       50
102
RTVSPost2010PropOp37
 70
     1
102
RTVSPost2010Prop38
140
0.0
102
RTVSPost2010PropOp38
 70
     1
102
RTVSPost2010Prop39
140
1.0
102
RTVSPost2010PropOp39
 70
     1
102
RTVSPost2010Prop40
 90
        0
102
RTVSPost2010PropOp40
 70
     1
102
RTVSPost2010Prop41ColorIndex
 90
       18
102
RTVSPost2010Prop41ColorRGB
 90
        0
102
RTVSPost2010PropOp41
 70
     1
102
RTVSPost2010Prop42
 90
       50
102
RTVSPost2010PropOp42
 70
     1
102
RTVSPost2010Prop43
 90
        3
102
RTVSPost2010PropOp43
 70
     1
102
RTVSPost2010Prop44ColorIndex
 90
        5
102
RTVSPost2010Prop44ColorRGB
 90
      255
102
RTVSPost2010PropOp44
 70
     1
102
RTVSPost2010Prop45
280
     0
102
RTVSPost2010PropOp45
 70
     1
102
RTVSPost2010Prop46
 90
       50
102
RTVSPost2010PropOp46
 70
     1
102
RTVSPost2010Prop47
 90
       50
102
RTVSPost2010PropOp47
 70
     1
102
RTVSPost2010Prop48
 90
       50
102
RTVSPost2010PropOp48
 70
     1
102
RTVSPost2010Prop49
280
     0
102
RTVSPost2010PropOp49
 70
     1
102
RTVSPost2010Prop50
 90
       50
102
RTVSPost2010PropOp50
 70
     1
102
RTVSPost2010Prop51ColorIndex
 90
      256
102
RTVSPost2010Prop51ColorRGB
 90
-16777216
102
RTVSPost2010PropOp51
 70
     0
102
RTVSPost2010Prop52
140
1.0
102
RTVSPost2010PropOp52
 70
     0
102
RTVSPost2010Prop53
 90
        2
102
RTVSPost2010PropOp53
 70
     1
102
RTVSPost2010Prop54
  1
strokes_ogs.tif
102
RTVSPost2010PropOp54
 70
     1
102
RTVSPost2010Prop55
280
     0
102
RTVSPost2010PropOp55
 70
     1
102
RTVSPost2010Prop56
140
1.0
102
RTVSPost2010PropOp56
 70
     1
102
RTVSPost2010Prop57
140
1.0
102
RTVSPost2010PropOp57
 70
     1
  0
XRECORD
  5
1304
102
{ACAD_REACTORS
330
1303
102
}
330
1303
100
AcDbXrecord
280
     1
102
RTVSPropertyOp0
 70
     1
102
RTVSPropertyOp1
 70
     1
102
RTVSPropertyOp2
 70
     1
102
RTVSPropertyOp3
 70
     1
102
RTVSPropertyOp4
 70
     1
102
RTVSPropertyOp5
 70
     1
102
RTVSPropertyOp6
 70
     1
102
RTVSPropertyOp7
 70
     1
102
RTVSPropertyOp8
 70
     1
102
RTVSPropertyOp9
 70
     1
102
RTVSPropertyOp10
 70
     1
102
RTVSPropertyOp11
 70
     1
102
RTVSPropertyOp12
 70
     1
102
RTVSPropertyOp13
 70
     1
102
RTVSPropertyOp14
 70
     1
102
RTVSPropertyOp15
 70
     1
102
RTVSPropertyOp16
 70
     1
102
RTVSPropertyOp17
 70
     1
102
RTVSPropertyOp18
 70
     1
102
RTVSPropertyOp19
 70
     1
102
RTVSPropertyOp20
 70
     1
102
RTVSPropertyOp21
 70
     1
102
RTVSPropertyOp22
 70
     1
102
RTVSPropertyOp23
 70
     1
102
RTVSPropertyOp24
 70
     1
102
RTVSPropertyOp25
 70
     1
102
RTVSPropertyOp26
 70
     1
102
RTVSPropertyOp27
 70
     1
102
RTVSPropertyOp28
 70
     1
102
RTVSPropertyOp29
 70
     1
102
RTVSPropertyOp30
 70
     1
102
RTVSPropertyOp31
 70
     1
102
RTVSPropertyOp32
 70
     1
102
RTVSPropertyOp33
 70
     1
102
RTVSPropertyOp34
 70
     1
102
RTVSPropertyOp35
 70
     1
102
RTVSPropertyOp36
 70
     1
102
RTVSPropertyOp37
 70
     1
102
RTVSPropertyOp38
 70
     1
102
RTVSPropertyOp39
 70
     1
102
RTVSPropertyOp40
 70
     1
102
RTVSPropertyOp41
 70
     1
102
RTVSPropertyOp42
 70
     1
102
RTVSPropertyOp43
 70
     1
102
RTVSPropertyOp44
 70
     1
102
RTVSPropertyOp45
 70
     1
102
RTVSPropertyOp46
 70
     1
102
RTVSPropertyOp47
 70
     1
102
RTVSPropertyOp48
 70
     1
102
RTVSPropertyOp49
 70
     1
102
RTVSPropertyOp50
 70
     1
102
RTVSPropertyOp51
 70
     0
102
RTVSPropertyOp52
 70
     0
102
RTVSPropertyOp53
 70
     1
102
RTVSPropertyOp54
 70
     1
102
RTVSPropertyOp55
 70
     1
102
RTVSPropertyOp56
 70
     1
102
RTVSPropertyOp57
 70
     1
102
RTVSPost2010Prop28
280
     0
102
RTVSPost2010PropOp28
 70
     1
102
RTVSPost2010Prop29
280
     1
102
RTVSPost2010PropOp29
 70
     1
102
RTVSPost2010Prop30
280
     1
102
RTVSPost2010PropOp30
 70
     1
102
RTVSPost2010Prop31
280
     0
102
RTVSPost2010PropOp31
 70
     1
102
RTVSPost2010Prop32
280
     0
102
RTVSPost2010PropOp32
 70
     1
102
RTVSPost2010Prop33
280
     0
102
RTVSPost2010PropOp33
 70
     1
102
RTVSPost2010Prop34
280
     0
102
RTVSPost2010PropOp34
 70
     1
102
RTVSPost2010Prop35
280
     0
102
RTVSPost2010PropOp35
 70
     1
102
RTVSPost2010Prop36
280
     0
102
RTVSPost2010PropOp36
 70
     1
102
RTVSPost2010Prop37
 90
       50
102
RTVSPost2010PropOp37
 70
     1
102
RTVSPost2010Prop38
140
0.0
102
RTVSPost2010PropOp38
 70
     1
102
RTVSPost2010Prop39
140
1.0
102
RTVSPost2010PropOp39
 70
     1
102
RTVSPost2010Prop40
 90
        0
102
RTVSPost2010PropOp40
 70
     1
102
RTVSPost2010Prop41ColorIndex
 90
       18
102
RTVSPost2010Prop41ColorRGB
 90
        0
102
RTVSPost2010PropOp41
 70
     1
102
RTVSPost2010Prop42
 90
       50
102
RTVSPost2010PropOp42
 70
     1
102
RTVSPost2010Prop43
 90
        3
102
RTVSPost2010PropOp43
 70
     1
102
RTVSPost2010Prop44ColorIndex
 90
        5
102
RTVSPost2010Prop44ColorRGB
 90
      255
102
RTVSPost2010PropOp44
 70
     1
102
RTVSPost2010Prop45
280
     0
102
RTVSPost2010PropOp45
 70
     1
102
RTVSPost2010Prop46
 90
       50
102
RTVSPost2010PropOp46
 70
     1
102
RTVSPost2010Prop47
 90
       50
102
RTVSPost2010PropOp47
 70
     1
102
RTVSPost2010Prop48
 90
       50
102
RTVSPost2010PropOp48
 70
     1
102
RTVSPost2010Prop49
280
     0
102
RTVSPost2010PropOp49
 70
     1
102
RTVSPost2010Prop50
 90
       50
102
RTVSPost2010PropOp50
 70
     1
102
RTVSPost2010Prop51ColorIndex
 90
      256
102
RTVSPost2010Prop51ColorRGB
 90
-16777216
102
RTVSPost2010PropOp51
 70
     0
102
RTVSPost2010Prop52
140
1.0
102
RTVSPost2010PropOp52
 70
     0
102
RTVSPost2010Prop53
 90
        2
102
RTVSPost2010PropOp53
 70
     1
102
RTVSPost2010Prop54
  1
strokes_ogs.tif
102
RTVSPost2010PropOp54
 70
     1
102
RTVSPost2010Prop55
280
     0
102
RTVSPost2010PropOp55
 70
     1
102
RTVSPost2010Prop56
140
1.0
102
RTVSPost2010PropOp56
 70
     1
102
RTVSPost2010Prop57
140
1.0
102
RTVSPost2010PropOp57
 70
     1
  0
XRECORD
  5
1306
102
{ACAD_REACTORS
330
1305
102
}
330
1305
100
AcDbXrecord
280
     1
102
RTVSPropertyOp0
 70
     1
102
RTVSPropertyOp1
 70
     1
102
RTVSPropertyOp2
 70
     1
102
RTVSPropertyOp3
 70
     1
102
RTVSPropertyOp4
 70
     1
102
RTVSPropertyOp5
 70
     1
102
RTVSPropertyOp6
 70
     1
102
RTVSPropertyOp7
 70
     1
102
RTVSPropertyOp8
 70
     1
102
RTVSPropertyOp9
 70
     1
102
RTVSPropertyOp10
 70
     1
102
RTVSPropertyOp11
 70
     1
102
RTVSPropertyOp12
 70
     1
102
RTVSPropertyOp13
 70
     1
102
RTVSPropertyOp14
 70
     1
102
RTVSPropertyOp15
 70
     1
102
RTVSPropertyOp16
 70
     1
102
RTVSPropertyOp17
 70
     1
102
RTVSPropertyOp18
 70
     1
102
RTVSPropertyOp19
 70
     1
102
RTVSPropertyOp20
 70
     1
102
RTVSPropertyOp21
 70
     1
102
RTVSPropertyOp22
 70
     1
102
RTVSPropertyOp23
 70
     1
102
RTVSPropertyOp24
 70
     1
102
RTVSPropertyOp25
 70
     1
102
RTVSPropertyOp26
 70
     1
102
RTVSPropertyOp27
 70
     1
102
RTVSPropertyOp28
 70
     1
102
RTVSPropertyOp29
 70
     1
102
RTVSPropertyOp30
 70
     1
102
RTVSPropertyOp31
 70
     1
102
RTVSPropertyOp32
 70
     1
102
RTVSPropertyOp33
 70
     1
102
RTVSPropertyOp34
 70
     1
102
RTVSPropertyOp35
 70
     1
102
RTVSPropertyOp36
 70
     1
102
RTVSPropertyOp37
 70
     1
102
RTVSPropertyOp38
 70
     1
102
RTVSPropertyOp39
 70
     1
102
RTVSPropertyOp40
 70
     1
102
RTVSPropertyOp41
 70
     1
102
RTVSPropertyOp42
 70
     1
102
RTVSPropertyOp43
 70
     1
102
RTVSPropertyOp44
 70
     1
102
RTVSPropertyOp45
 70
     1
102
RTVSPropertyOp46
 70
     1
102
RTVSPropertyOp47
 70
     1
102
RTVSPropertyOp48
 70
     1
102
RTVSPropertyOp49
 70
     1
102
RTVSPropertyOp50
 70
     1
102
RTVSPropertyOp51
 70
     0
102
RTVSPropertyOp52
 70
     0
102
RTVSPropertyOp53
 70
     1
102
RTVSPropertyOp54
 70
     1
102
RTVSPropertyOp55
 70
     1
102
RTVSPropertyOp56
 70
     1
102
RTVSPropertyOp57
 70
     1
102
RTVSPost2010Prop28
280
     0
102
RTVSPost2010PropOp28
 70
     1
102
RTVSPost2010Prop29
280
     1
102
RTVSPost2010PropOp29
 70
     1
102
RTVSPost2010Prop30
280
     1
102
RTVSPost2010PropOp30
 70
     1
102
RTVSPost2010Prop31
280
     0
102
RTVSPost2010PropOp31
 70
     1
102
RTVSPost2010Prop32
280
     0
102
RTVSPost2010PropOp32
 70
     1
102
RTVSPost2010Prop33
280
     0
102
RTVSPost2010PropOp33
 70
     1
102
RTVSPost2010Prop34
280
     0
102
RTVSPost2010PropOp34
 70
     1
102
RTVSPost2010Prop35
280
     0
102
RTVSPost2010PropOp35
 70
     1
102
RTVSPost2010Prop36
280
     0
102
RTVSPost2010PropOp36
 70
     1
102
RTVSPost2010Prop37
 90
       50
102
RTVSPost2010PropOp37
 70
     1
102
RTVSPost2010Prop38
140
0.0
102
RTVSPost2010PropOp38
 70
     1
102
RTVSPost2010Prop39
140
1.0
102
RTVSPost2010PropOp39
 70
     1
102
RTVSPost2010Prop40
 90
        0
102
RTVSPost2010PropOp40
 70
     1
102
RTVSPost2010Prop41ColorIndex
 90
       18
102
RTVSPost2010Prop41ColorRGB
 90
        0
102
RTVSPost2010PropOp41
 70
     1
102
RTVSPost2010Prop42
 90
       50
102
RTVSPost2010PropOp42
 70
     1
102
RTVSPost2010Prop43
 90
        3
102
RTVSPost2010PropOp43
 70
     1
102
RTVSPost2010Prop44ColorIndex
 90
        5
102
RTVSPost2010Prop44ColorRGB
 90
      255
102
RTVSPost2010PropOp44
 70
     1
102
RTVSPost2010Prop45
280
     0
102
RTVSPost2010PropOp45
 70
     1
102
RTVSPost2010Prop46
 90
       50
102
RTVSPost2010PropOp46
 70
     1
102
RTVSPost2010Prop47
 90
       50
102
RTVSPost2010PropOp47
 70
     1
102
RTVSPost2010Prop48
 90
       50
102
RTVSPost2010PropOp48
 70
     1
102
RTVSPost2010Prop49
280
     0
102
RTVSPost2010PropOp49
 70
     1
102
RTVSPost2010Prop50
 90
       50
102
RTVSPost2010PropOp50
 70
     1
102
RTVSPost2010Prop51ColorIndex
 90
      256
102
RTVSPost2010Prop51ColorRGB
 90
-16777216
102
RTVSPost2010PropOp51
 70
     0
102
RTVSPost2010Prop52
140
1.0
102
RTVSPost2010PropOp52
 70
     0
102
RTVSPost2010Prop53
 90
        2
102
RTVSPost2010PropOp53
 70
     1
102
RTVSPost2010Prop54
  1
strokes_ogs.tif
102
RTVSPost2010PropOp54
 70
     1
102
RTVSPost2010Prop55
280
     0
102
RTVSPost2010PropOp55
 70
     1
102
RTVSPost2010Prop56
140
1.0
102
RTVSPost2010PropOp56
 70
     1
102
RTVSPost2010Prop57
140
1.0
102
RTVSPost2010PropOp57
 70
     1
  0
XRECORD
  5
1308
102
{ACAD_REACTORS
330
1307
102
}
330
1307
100
AcDbXrecord
280
     1
102
RTVSPropertyOp0
 70
     0
102
RTVSPropertyOp1
 70
     0
102
RTVSPropertyOp2
 70
     0
102
RTVSPropertyOp3
 70
     0
102
RTVSPropertyOp4
 70
     0
102
RTVSPropertyOp5
 70
     0
102
RTVSPropertyOp6
 70
     0
102
RTVSPropertyOp7
 70
     0
102
RTVSPropertyOp8
 70
     0
102
RTVSPropertyOp9
 70
     0
102
RTVSPropertyOp10
 70
     0
102
RTVSPropertyOp11
 70
     0
102
RTVSPropertyOp12
 70
     0
102
RTVSPropertyOp13
 70
     0
102
RTVSPropertyOp14
 70
     2
102
RTVSPropertyOp15
 70
     0
102
RTVSPropertyOp16
 70
     0
102
RTVSPropertyOp17
 70
     0
102
RTVSPropertyOp18
 70
     0
102
RTVSPropertyOp19
 70
     0
102
RTVSPropertyOp20
 70
     0
102
RTVSPropertyOp21
 70
     0
102
RTVSPropertyOp22
 70
     0
102
RTVSPropertyOp23
 70
     0
102
RTVSPropertyOp24
 70
     0
102
RTVSPropertyOp25
 70
     0
102
RTVSPropertyOp26
 70
     0
102
RTVSPropertyOp27
 70
     0
102
RTVSPropertyOp28
 70
     0
102
RTVSPropertyOp29
 70
     0
102
RTVSPropertyOp30
 70
     0
102
RTVSPropertyOp31
 70
     0
102
RTVSPropertyOp32
 70
     0
102
RTVSPropertyOp33
 70
     1
102
RTVSPropertyOp34
 70
     1
102
RTVSPropertyOp35
 70
     1
102
RTVSPropertyOp36
 70
     1
102
RTVSPropertyOp37
 70
     1
102
RTVSPropertyOp38
 70
     1
102
RTVSPropertyOp39
 70
     1
102
RTVSPropertyOp40
 70
     1
102
RTVSPropertyOp41
 70
     1
102
RTVSPropertyOp42
 70
     1
102
RTVSPropertyOp43
 70
     1
102
RTVSPropertyOp44
 70
     1
102
RTVSPropertyOp45
 70
     1
102
RTVSPropertyOp46
 70
     1
102
RTVSPropertyOp47
 70
     1
102
RTVSPropertyOp48
 70
     1
102
RTVSPropertyOp49
 70
     1
102
RTVSPropertyOp50
 70
     1
102
RTVSPropertyOp51
 70
     0
102
RTVSPropertyOp52
 70
     0
102
RTVSPropertyOp53
 70
     1
102
RTVSPropertyOp54
 70
     1
102
RTVSPropertyOp55
 70
     1
102
RTVSPropertyOp56
 70
     1
102
RTVSPropertyOp57
 70
     1
102
RTVSPost2010Prop28
280
     0
102
RTVSPost2010PropOp28
 70
     0
102
RTVSPost2010Prop29
280
     1
102
RTVSPost2010PropOp29
 70
     0
102
RTVSPost2010Prop30
280
     1
102
RTVSPost2010PropOp30
 70
     0
102
RTVSPost2010Prop31
280
     0
102
RTVSPost2010PropOp31
 70
     0
102
RTVSPost2010Prop32
280
     0
102
RTVSPost2010PropOp32
 70
     0
102
RTVSPost2010Prop33
280
     0
102
RTVSPost2010PropOp33
 70
     1
102
RTVSPost2010Prop34
280
     0
102
RTVSPost2010PropOp34
 70
     1
102
RTVSPost2010Prop35
280
     0
102
RTVSPost2010PropOp35
 70
     1
102
RTVSPost2010Prop36
280
     0
102
RTVSPost2010PropOp36
 70
     1
102
RTVSPost2010Prop37
 90
       50
102
RTVSPost2010PropOp37
 70
     1
102
RTVSPost2010Prop38
140
0.0
102
RTVSPost2010PropOp38
 70
     1
102
RTVSPost2010Prop39
140
1.0
102
RTVSPost2010PropOp39
 70
     1
102
RTVSPost2010Prop40
 90
        0
102
RTVSPost2010PropOp40
 70
     1
102
RTVSPost2010Prop41ColorIndex
 90
       18
102
RTVSPost2010Prop41ColorRGB
 90
        0
102
RTVSPost2010PropOp41
 70
     1
102
RTVSPost2010Prop42
 90
       50
102
RTVSPost2010PropOp42
 70
     1
102
RTVSPost2010Prop43
 90
        3
102
RTVSPost2010PropOp43
 70
     1
102
RTVSPost2010Prop44ColorIndex
 90
        5
102
RTVSPost2010Prop44ColorRGB
 90
      255
102
RTVSPost2010PropOp44
 70
     1
102
RTVSPost2010Prop45
280
     0
102
RTVSPost2010PropOp45
 70
     1
102
RTVSPost2010Prop46
 90
       50
102
RTVSPost2010PropOp46
 70
     1
102
RTVSPost2010Prop47
 90
       50
102
RTVSPost2010PropOp47
 70
     1
102
RTVSPost2010Prop48
 90
       50
102
RTVSPost2010PropOp48
 70
     1
102
RTVSPost2010Prop49
280
     0
102
RTVSPost2010PropOp49
 70
     1
102
RTVSPost2010Prop50
 90
       50
102
RTVSPost2010PropOp50
 70
     1
102
RTVSPost2010Prop51ColorIndex
 90
      256
102
RTVSPost2010Prop51ColorRGB
 90
-16777216
102
RTVSPost2010PropOp51
 70
     0
102
RTVSPost2010Prop52
140
1.0
102
RTVSPost2010PropOp52
 70
     0
102
RTVSPost2010Prop53
 90
        2
102
RTVSPost2010PropOp53
 70
     1
102
RTVSPost2010Prop54
  1
strokes_ogs.tif
102
RTVSPost2010PropOp54
 70
     1
102
RTVSPost2010Prop55
280
     0
102
RTVSPost2010PropOp55
 70
     1
102
RTVSPost2010Prop56
140
1.0
102
RTVSPost2010PropOp56
 70
     1
102
RTVSPost2010Prop57
140
1.0
102
RTVSPost2010PropOp57
 70
     1
  0
XRECORD
  5
130A
102
{ACAD_REACTORS
330
1309
102
}
330
1309
100
AcDbXrecord
280
     1
102
RTVSPropertyOp0
 70
     1
102
RTVSPropertyOp1
 70
     1
102
RTVSPropertyOp2
 70
     1
102
RTVSPropertyOp3
 70
     1
102
RTVSPropertyOp4
 70
     1
102
RTVSPropertyOp5
 70
     1
102
RTVSPropertyOp6
 70
     1
102
RTVSPropertyOp7
 70
     1
102
RTVSPropertyOp8
 70
     1
102
RTVSPropertyOp9
 70
     1
102
RTVSPropertyOp10
 70
     1
102
RTVSPropertyOp11
 70
     1
102
RTVSPropertyOp12
 70
     1
102
RTVSPropertyOp13
 70
     1
102
RTVSPropertyOp14
 70
     1
102
RTVSPropertyOp15
 70
     1
102
RTVSPropertyOp16
 70
     1
102
RTVSPropertyOp17
 70
     1
102
RTVSPropertyOp18
 70
     1
102
RTVSPropertyOp19
 70
     1
102
RTVSPropertyOp20
 70
     1
102
RTVSPropertyOp21
 70
     1
102
RTVSPropertyOp22
 70
     1
102
RTVSPropertyOp23
 70
     1
102
RTVSPropertyOp24
 70
     1
102
RTVSPropertyOp25
 70
     1
102
RTVSPropertyOp26
 70
     1
102
RTVSPropertyOp27
 70
     1
102
RTVSPropertyOp28
 70
     1
102
RTVSPropertyOp29
 70
     1
102
RTVSPropertyOp30
 70
     1
102
RTVSPropertyOp31
 70
     1
102
RTVSPropertyOp32
 70
     1
102
RTVSPropertyOp33
 70
     1
102
RTVSPropertyOp34
 70
     1
102
RTVSPropertyOp35
 70
     1
102
RTVSPropertyOp36
 70
     1
102
RTVSPropertyOp37
 70
     1
102
RTVSPropertyOp38
 70
     1
102
RTVSPropertyOp39
 70
     1
102
RTVSPropertyOp40
 70
     1
102
RTVSPropertyOp41
 70
     1
102
RTVSPropertyOp42
 70
     1
102
RTVSPropertyOp43
 70
     1
102
RTVSPropertyOp44
 70
     1
102
RTVSPropertyOp45
 70
     1
102
RTVSPropertyOp46
 70
     1
102
RTVSPropertyOp47
 70
     1
102
RTVSPropertyOp48
 70
     1
102
RTVSPropertyOp49
 70
     1
102
RTVSPropertyOp50
 70
     1
102
RTVSPropertyOp51
 70
     0
102
RTVSPropertyOp52
 70
     0
102
RTVSPropertyOp53
 70
     1
102
RTVSPropertyOp54
 70
     1
102
RTVSPropertyOp55
 70
     1
102
RTVSPropertyOp56
 70
     1
102
RTVSPropertyOp57
 70
     1
102
RTVSPost2010Prop28
280
     0
102
RTVSPost2010PropOp28
 70
     1
102
RTVSPost2010Prop29
280
     1
102
RTVSPost2010PropOp29
 70
     1
102
RTVSPost2010Prop30
280
     1
102
RTVSPost2010PropOp30
 70
     1
102
RTVSPost2010Prop31
280
     0
102
RTVSPost2010PropOp31
 70
     1
102
RTVSPost2010Prop32
280
     0
102
RTVSPost2010PropOp32
 70
     1
102
RTVSPost2010Prop33
280
     0
102
RTVSPost2010PropOp33
 70
     1
102
RTVSPost2010Prop34
280
     0
102
RTVSPost2010PropOp34
 70
     1
102
RTVSPost2010Prop35
280
     0
102
RTVSPost2010PropOp35
 70
     1
102
RTVSPost2010Prop36
280
     0
102
RTVSPost2010PropOp36
 70
     1
102
RTVSPost2010Prop37
 90
       50
102
RTVSPost2010PropOp37
 70
     1
102
RTVSPost2010Prop38
140
0.0
102
RTVSPost2010PropOp38
 70
     1
102
RTVSPost2010Prop39
140
1.0
102
RTVSPost2010PropOp39
 70
     1
102
RTVSPost2010Prop40
 90
        0
102
RTVSPost2010PropOp40
 70
     1
102
RTVSPost2010Prop41ColorIndex
 90
       18
102
RTVSPost2010Prop41ColorRGB
 90
        0
102
RTVSPost2010PropOp41
 70
     1
102
RTVSPost2010Prop42
 90
       50
102
RTVSPost2010PropOp42
 70
     1
102
RTVSPost2010Prop43
 90
        3
102
RTVSPost2010PropOp43
 70
     1
102
RTVSPost2010Prop44ColorIndex
 90
        5
102
RTVSPost2010Prop44ColorRGB
 90
      255
102
RTVSPost2010PropOp44
 70
     1
102
RTVSPost2010Prop45
280
     0
102
RTVSPost2010PropOp45
 70
     1
102
RTVSPost2010Prop46
 90
       50
102
RTVSPost2010PropOp46
 70
     1
102
RTVSPost2010Prop47
 90
       50
102
RTVSPost2010PropOp47
 70
     1
102
RTVSPost2010Prop48
 90
       50
102
RTVSPost2010PropOp48
 70
     1
102
RTVSPost2010Prop49
280
     0
102
RTVSPost2010PropOp49
 70
     1
102
RTVSPost2010Prop50
 90
       50
102
RTVSPost2010PropOp50
 70
     1
102
RTVSPost2010Prop51ColorIndex
 90
      256
102
RTVSPost2010Prop51ColorRGB
 90
-16777216
102
RTVSPost2010PropOp51
 70
     0
102
RTVSPost2010Prop52
140
1.0
102
RTVSPost2010PropOp52
 70
     0
102
RTVSPost2010Prop53
 90
        2
102
RTVSPost2010PropOp53
 70
     1
102
RTVSPost2010Prop54
  1
strokes_ogs.tif
102
RTVSPost2010PropOp54
 70
     1
102
RTVSPost2010Prop55
280
     0
102
RTVSPost2010PropOp55
 70
     1
102
RTVSPost2010Prop56
140
1.0
102
RTVSPost2010PropOp56
 70
     1
102
RTVSPost2010Prop57
140
1.0
102
RTVSPost2010PropOp57
 70
     1
  0
XRECORD
  5
130C
102
{ACAD_REACTORS
330
130B
102
}
330
130B
100
AcDbXrecord
280
     1
102
RTVSPropertyOp0
 70
     1
102
RTVSPropertyOp1
 70
     1
102
RTVSPropertyOp2
 70
     1
102
RTVSPropertyOp3
 70
     1
102
RTVSPropertyOp4
 70
     1
102
RTVSPropertyOp5
 70
     1
102
RTVSPropertyOp6
 70
     1
102
RTVSPropertyOp7
 70
     1
102
RTVSPropertyOp8
 70
     1
102
RTVSPropertyOp9
 70
     1
102
RTVSPropertyOp10
 70
     1
102
RTVSPropertyOp11
 70
     1
102
RTVSPropertyOp12
 70
     1
102
RTVSPropertyOp13
 70
     1
102
RTVSPropertyOp14
 70
     1
102
RTVSPropertyOp15
 70
     1
102
RTVSPropertyOp16
 70
     1
102
RTVSPropertyOp17
 70
     1
102
RTVSPropertyOp18
 70
     1
102
RTVSPropertyOp19
 70
     1
102
RTVSPropertyOp20
 70
     1
102
RTVSPropertyOp21
 70
     1
102
RTVSPropertyOp22
 70
     1
102
RTVSPropertyOp23
 70
     1
102
RTVSPropertyOp24
 70
     1
102
RTVSPropertyOp25
 70
     1
102
RTVSPropertyOp26
 70
     1
102
RTVSPropertyOp27
 70
     1
102
RTVSPropertyOp28
 70
     1
102
RTVSPropertyOp29
 70
     1
102
RTVSPropertyOp30
 70
     1
102
RTVSPropertyOp31
 70
     1
102
RTVSPropertyOp32
 70
     1
102
RTVSPropertyOp33
 70
     1
102
RTVSPropertyOp34
 70
     1
102
RTVSPropertyOp35
 70
     1
102
RTVSPropertyOp36
 70
     1
102
RTVSPropertyOp37
 70
     1
102
RTVSPropertyOp38
 70
     1
102
RTVSPropertyOp39
 70
     1
102
RTVSPropertyOp40
 70
     1
102
RTVSPropertyOp41
 70
     1
102
RTVSPropertyOp42
 70
     1
102
RTVSPropertyOp43
 70
     1
102
RTVSPropertyOp44
 70
     1
102
RTVSPropertyOp45
 70
     1
102
RTVSPropertyOp46
 70
     1
102
RTVSPropertyOp47
 70
     1
102
RTVSPropertyOp48
 70
     1
102
RTVSPropertyOp49
 70
     1
102
RTVSPropertyOp50
 70
     1
102
RTVSPropertyOp51
 70
     0
102
RTVSPropertyOp52
 70
     0
102
RTVSPropertyOp53
 70
     1
102
RTVSPropertyOp54
 70
     1
102
RTVSPropertyOp55
 70
     1
102
RTVSPropertyOp56
 70
     1
102
RTVSPropertyOp57
 70
     1
102
RTVSPost2010Prop28
280
     0
102
RTVSPost2010PropOp28
 70
     1
102
RTVSPost2010Prop29
280
     1
102
RTVSPost2010PropOp29
 70
     1
102
RTVSPost2010Prop30
280
     1
102
RTVSPost2010PropOp30
 70
     1
102
RTVSPost2010Prop31
280
     0
102
RTVSPost2010PropOp31
 70
     1
102
RTVSPost2010Prop32
280
     0
102
RTVSPost2010PropOp32
 70
     1
102
RTVSPost2010Prop33
280
     0
102
RTVSPost2010PropOp33
 70
     1
102
RTVSPost2010Prop34
280
     0
102
RTVSPost2010PropOp34
 70
     1
102
RTVSPost2010Prop35
280
     0
102
RTVSPost2010PropOp35
 70
     1
102
RTVSPost2010Prop36
280
     0
102
RTVSPost2010PropOp36
 70
     1
102
RTVSPost2010Prop37
 90
       50
102
RTVSPost2010PropOp37
 70
     1
102
RTVSPost2010Prop38
140
0.0
102
RTVSPost2010PropOp38
 70
     1
102
RTVSPost2010Prop39
140
1.0
102
RTVSPost2010PropOp39
 70
     1
102
RTVSPost2010Prop40
 90
        0
102
RTVSPost2010PropOp40
 70
     1
102
RTVSPost2010Prop41ColorIndex
 90
       18
102
RTVSPost2010Prop41ColorRGB
 90
        0
102
RTVSPost2010PropOp41
 70
     1
102
RTVSPost2010Prop42
 90
       50
102
RTVSPost2010PropOp42
 70
     1
102
RTVSPost2010Prop43
 90
        3
102
RTVSPost2010PropOp43
 70
     1
102
RTVSPost2010Prop44ColorIndex
 90
        5
102
RTVSPost2010Prop44ColorRGB
 90
      255
102
RTVSPost2010PropOp44
 70
     1
102
RTVSPost2010Prop45
280
     0
102
RTVSPost2010PropOp45
 70
     1
102
RTVSPost2010Prop46
 90
       50
102
RTVSPost2010PropOp46
 70
     1
102
RTVSPost2010Prop47
 90
       50
102
RTVSPost2010PropOp47
 70
     1
102
RTVSPost2010Prop48
 90
       50
102
RTVSPost2010PropOp48
 70
     1
102
RTVSPost2010Prop49
280
     0
102
RTVSPost2010PropOp49
 70
     1
102
RTVSPost2010Prop50
 90
       50
102
RTVSPost2010PropOp50
 70
     1
102
RTVSPost2010Prop51ColorIndex
 90
      256
102
RTVSPost2010Prop51ColorRGB
 90
-16777216
102
RTVSPost2010PropOp51
 70
     0
102
RTVSPost2010Prop52
140
1.0
102
RTVSPost2010PropOp52
 70
     0
102
RTVSPost2010Prop53
 90
        2
102
RTVSPost2010PropOp53
 70
     1
102
RTVSPost2010Prop54
  1
strokes_ogs.tif
102
RTVSPost2010PropOp54
 70
     1
102
RTVSPost2010Prop55
280
     0
102
RTVSPost2010PropOp55
 70
     1
102
RTVSPost2010Prop56
140
1.0
102
RTVSPost2010PropOp56
 70
     1
102
RTVSPost2010Prop57
140
1.0
102
RTVSPost2010PropOp57
 70
     1
  0
XRECORD
  5
130E
102
{ACAD_REACTORS
330
130D
102
}
330
130D
100
AcDbXrecord
280
     1
102
RTVSPropertyOp0
 70
     1
102
RTVSPropertyOp1
 70
     1
102
RTVSPropertyOp2
 70
     1
102
RTVSPropertyOp3
 70
     1
102
RTVSPropertyOp4
 70
     1
102
RTVSPropertyOp5
 70
     1
102
RTVSPropertyOp6
 70
     1
102
RTVSPropertyOp7
 70
     1
102
RTVSPropertyOp8
 70
     1
102
RTVSPropertyOp9
 70
     1
102
RTVSPropertyOp10
 70
     1
102
RTVSPropertyOp11
 70
     1
102
RTVSPropertyOp12
 70
     1
102
RTVSPropertyOp13
 70
     1
102
RTVSPropertyOp14
 70
     1
102
RTVSPropertyOp15
 70
     1
102
RTVSPropertyOp16
 70
     1
102
RTVSPropertyOp17
 70
     1
102
RTVSPropertyOp18
 70
     1
102
RTVSPropertyOp19
 70
     1
102
RTVSPropertyOp20
 70
     1
102
RTVSPropertyOp21
 70
     1
102
RTVSPropertyOp22
 70
     1
102
RTVSPropertyOp23
 70
     1
102
RTVSPropertyOp24
 70
     1
102
RTVSPropertyOp25
 70
     1
102
RTVSPropertyOp26
 70
     1
102
RTVSPropertyOp27
 70
     1
102
RTVSPropertyOp28
 70
     1
102
RTVSPropertyOp29
 70
     1
102
RTVSPropertyOp30
 70
     1
102
RTVSPropertyOp31
 70
     1
102
RTVSPropertyOp32
 70
     1
102
RTVSPropertyOp33
 70
     1
102
RTVSPropertyOp34
 70
     1
102
RTVSPropertyOp35
 70
     1
102
RTVSPropertyOp36
 70
     1
102
RTVSPropertyOp37
 70
     1
102
RTVSPropertyOp38
 70
     1
102
RTVSPropertyOp39
 70
     1
102
RTVSPropertyOp40
 70
     1
102
RTVSPropertyOp41
 70
     1
102
RTVSPropertyOp42
 70
     1
102
RTVSPropertyOp43
 70
     1
102
RTVSPropertyOp44
 70
     1
102
RTVSPropertyOp45
 70
     1
102
RTVSPropertyOp46
 70
     1
102
RTVSPropertyOp47
 70
     1
102
RTVSPropertyOp48
 70
     1
102
RTVSPropertyOp49
 70
     1
102
RTVSPropertyOp50
 70
     1
102
RTVSPropertyOp51
 70
     0
102
RTVSPropertyOp52
 70
     0
102
RTVSPropertyOp53
 70
     1
102
RTVSPropertyOp54
 70
     1
102
RTVSPropertyOp55
 70
     1
102
RTVSPropertyOp56
 70
     1
102
RTVSPropertyOp57
 70
     1
102
RTVSPost2010Prop28
280
     0
102
RTVSPost2010PropOp28
 70
     1
102
RTVSPost2010Prop29
280
     1
102
RTVSPost2010PropOp29
 70
     1
102
RTVSPost2010Prop30
280
     1
102
RTVSPost2010PropOp30
 70
     1
102
RTVSPost2010Prop31
280
     0
102
RTVSPost2010PropOp31
 70
     1
102
RTVSPost2010Prop32
280
     0
102
RTVSPost2010PropOp32
 70
     1
102
RTVSPost2010Prop33
280
     0
102
RTVSPost2010PropOp33
 70
     1
102
RTVSPost2010Prop34
280
     0
102
RTVSPost2010PropOp34
 70
     1
102
RTVSPost2010Prop35
280
     0
102
RTVSPost2010PropOp35
 70
     1
102
RTVSPost2010Prop36
280
     0
102
RTVSPost2010PropOp36
 70
     1
102
RTVSPost2010Prop37
 90
       50
102
RTVSPost2010PropOp37
 70
     1
102
RTVSPost2010Prop38
140
0.0
102
RTVSPost2010PropOp38
 70
     1
102
RTVSPost2010Prop39
140
1.0
102
RTVSPost2010PropOp39
 70
     1
102
RTVSPost2010Prop40
 90
        0
102
RTVSPost2010PropOp40
 70
     1
102
RTVSPost2010Prop41ColorIndex
 90
       18
102
RTVSPost2010Prop41ColorRGB
 90
        0
102
RTVSPost2010PropOp41
 70
     1
102
RTVSPost2010Prop42
 90
       50
102
RTVSPost2010PropOp42
 70
     1
102
RTVSPost2010Prop43
 90
        3
102
RTVSPost2010PropOp43
 70
     1
102
RTVSPost2010Prop44ColorIndex
 90
        5
102
RTVSPost2010Prop44ColorRGB
 90
      255
102
RTVSPost2010PropOp44
 70
     1
102
RTVSPost2010Prop45
280
     0
102
RTVSPost2010PropOp45
 70
     1
102
RTVSPost2010Prop46
 90
       50
102
RTVSPost2010PropOp46
 70
     1
102
RTVSPost2010Prop47
 90
       50
102
RTVSPost2010PropOp47
 70
     1
102
RTVSPost2010Prop48
 90
       50
102
RTVSPost2010PropOp48
 70
     1
102
RTVSPost2010Prop49
280
     0
102
RTVSPost2010PropOp49
 70
     1
102
RTVSPost2010Prop50
 90
       50
102
RTVSPost2010PropOp50
 70
     1
102
RTVSPost2010Prop51ColorIndex
 90
      256
102
RTVSPost2010Prop51ColorRGB
 90
-16777216
102
RTVSPost2010PropOp51
 70
     0
102
RTVSPost2010Prop52
140
1.0
102
RTVSPost2010PropOp52
 70
     0
102
RTVSPost2010Prop53
 90
        2
102
RTVSPost2010PropOp53
 70
     1
102
RTVSPost2010Prop54
  1
strokes_ogs.tif
102
RTVSPost2010PropOp54
 70
     1
102
RTVSPost2010Prop55
280
     0
102
RTVSPost2010PropOp55
 70
     1
102
RTVSPost2010Prop56
140
1.0
102
RTVSPost2010PropOp56
 70
     1
102
RTVSPost2010Prop57
140
1.0
102
RTVSPost2010PropOp57
 70
     1
  0
XRECORD
  5
1310
102
{ACAD_REACTORS
330
130F
102
}
330
130F
100
AcDbXrecord
280
     1
102
RTVSPropertyOp0
 70
     1
102
RTVSPropertyOp1
 70
     1
102
RTVSPropertyOp2
 70
     1
102
RTVSPropertyOp3
 70
     1
102
RTVSPropertyOp4
 70
     1
102
RTVSPropertyOp5
 70
     1
102
RTVSPropertyOp6
 70
     1
102
RTVSPropertyOp7
 70
     1
102
RTVSPropertyOp8
 70
     1
102
RTVSPropertyOp9
 70
     1
102
RTVSPropertyOp10
 70
     1
102
RTVSPropertyOp11
 70
     1
102
RTVSPropertyOp12
 70
     1
102
RTVSPropertyOp13
 70
     1
102
RTVSPropertyOp14
 70
     1
102
RTVSPropertyOp15
 70
     1
102
RTVSPropertyOp16
 70
     1
102
RTVSPropertyOp17
 70
     1
102
RTVSPropertyOp18
 70
     1
102
RTVSPropertyOp19
 70
     1
102
RTVSPropertyOp20
 70
     1
102
RTVSPropertyOp21
 70
     1
102
RTVSPropertyOp22
 70
     1
102
RTVSPropertyOp23
 70
     1
102
RTVSPropertyOp24
 70
     1
102
RTVSPropertyOp25
 70
     1
102
RTVSPropertyOp26
 70
     1
102
RTVSPropertyOp27
 70
     1
102
RTVSPropertyOp28
 70
     1
102
RTVSPropertyOp29
 70
     1
102
RTVSPropertyOp30
 70
     1
102
RTVSPropertyOp31
 70
     1
102
RTVSPropertyOp32
 70
     1
102
RTVSPropertyOp33
 70
     1
102
RTVSPropertyOp34
 70
     1
102
RTVSPropertyOp35
 70
     1
102
RTVSPropertyOp36
 70
     1
102
RTVSPropertyOp37
 70
     1
102
RTVSPropertyOp38
 70
     1
102
RTVSPropertyOp39
 70
     1
102
RTVSPropertyOp40
 70
     1
102
RTVSPropertyOp41
 70
     1
102
RTVSPropertyOp42
 70
     1
102
RTVSPropertyOp43
 70
     1
102
RTVSPropertyOp44
 70
     1
102
RTVSPropertyOp45
 70
     1
102
RTVSPropertyOp46
 70
     1
102
RTVSPropertyOp47
 70
     1
102
RTVSPropertyOp48
 70
     1
102
RTVSPropertyOp49
 70
     1
102
RTVSPropertyOp50
 70
     1
102
RTVSPropertyOp51
 70
     0
102
RTVSPropertyOp52
 70
     0
102
RTVSPropertyOp53
 70
     1
102
RTVSPropertyOp54
 70
     1
102
RTVSPropertyOp55
 70
     1
102
RTVSPropertyOp56
 70
     1
102
RTVSPropertyOp57
 70
     1
102
RTVSPost2010Prop28
280
     0
102
RTVSPost2010PropOp28
 70
     1
102
RTVSPost2010Prop29
280
     1
102
RTVSPost2010PropOp29
 70
     1
102
RTVSPost2010Prop30
280
     1
102
RTVSPost2010PropOp30
 70
     1
102
RTVSPost2010Prop31
280
     0
102
RTVSPost2010PropOp31
 70
     1
102
RTVSPost2010Prop32
280
     0
102
RTVSPost2010PropOp32
 70
     1
102
RTVSPost2010Prop33
280
     0
102
RTVSPost2010PropOp33
 70
     1
102
RTVSPost2010Prop34
280
     0
102
RTVSPost2010PropOp34
 70
     1
102
RTVSPost2010Prop35
280
     0
102
RTVSPost2010PropOp35
 70
     1
102
RTVSPost2010Prop36
280
     0
102
RTVSPost2010PropOp36
 70
     1
102
RTVSPost2010Prop37
 90
       50
102
RTVSPost2010PropOp37
 70
     1
102
RTVSPost2010Prop38
140
0.0
102
RTVSPost2010PropOp38
 70
     1
102
RTVSPost2010Prop39
140
1.0
102
RTVSPost2010PropOp39
 70
     1
102
RTVSPost2010Prop40
 90
        0
102
RTVSPost2010PropOp40
 70
     1
102
RTVSPost2010Prop41ColorIndex
 90
       18
102
RTVSPost2010Prop41ColorRGB
 90
        0
102
RTVSPost2010PropOp41
 70
     1
102
RTVSPost2010Prop42
 90
       50
102
RTVSPost2010PropOp42
 70
     1
102
RTVSPost2010Prop43
 90
        3
102
RTVSPost2010PropOp43
 70
     1
102
RTVSPost2010Prop44ColorIndex
 90
        5
102
RTVSPost2010Prop44ColorRGB
 90
      255
102
RTVSPost2010PropOp44
 70
     1
102
RTVSPost2010Prop45
280
     0
102
RTVSPost2010PropOp45
 70
     1
102
RTVSPost2010Prop46
 90
       50
102
RTVSPost2010PropOp46
 70
     1
102
RTVSPost2010Prop47
 90
       50
102
RTVSPost2010PropOp47
 70
     1
102
RTVSPost2010Prop48
 90
       50
102
RTVSPost2010PropOp48
 70
     1
102
RTVSPost2010Prop49
280
     0
102
RTVSPost2010PropOp49
 70
     1
102
RTVSPost2010Prop50
 90
       50
102
RTVSPost2010PropOp50
 70
     1
102
RTVSPost2010Prop51ColorIndex
 90
      256
102
RTVSPost2010Prop51ColorRGB
 90
-16777216
102
RTVSPost2010PropOp51
 70
     0
102
RTVSPost2010Prop52
140
1.0
102
RTVSPost2010PropOp52
 70
     0
102
RTVSPost2010Prop53
 90
        2
102
RTVSPost2010PropOp53
 70
     1
102
RTVSPost2010Prop54
  1
strokes_ogs.tif
102
RTVSPost2010PropOp54
 70
     1
102
RTVSPost2010Prop55
280
     0
102
RTVSPost2010PropOp55
 70
     1
102
RTVSPost2010Prop56
140
1.0
102
RTVSPost2010PropOp56
 70
     1
102
RTVSPost2010Prop57
140
1.0
102
RTVSPost2010PropOp57
 70
     1
  0
XRECORD
  5
1312
102
{ACAD_REACTORS
330
1311
102
}
330
1311
100
AcDbXrecord
280
     1
102
RTVSPropertyOp0
 70
     1
102
RTVSPropertyOp1
 70
     1
102
RTVSPropertyOp2
 70
     1
102
RTVSPropertyOp3
 70
     1
102
RTVSPropertyOp4
 70
     1
102
RTVSPropertyOp5
 70
     1
102
RTVSPropertyOp6
 70
     1
102
RTVSPropertyOp7
 70
     1
102
RTVSPropertyOp8
 70
     1
102
RTVSPropertyOp9
 70
     1
102
RTVSPropertyOp10
 70
     1
102
RTVSPropertyOp11
 70
     1
102
RTVSPropertyOp12
 70
     1
102
RTVSPropertyOp13
 70
     1
102
RTVSPropertyOp14
 70
     1
102
RTVSPropertyOp15
 70
     1
102
RTVSPropertyOp16
 70
     1
102
RTVSPropertyOp17
 70
     1
102
RTVSPropertyOp18
 70
     1
102
RTVSPropertyOp19
 70
     1
102
RTVSPropertyOp20
 70
     1
102
RTVSPropertyOp21
 70
     1
102
RTVSPropertyOp22
 70
     1
102
RTVSPropertyOp23
 70
     1
102
RTVSPropertyOp24
 70
     1
102
RTVSPropertyOp25
 70
     1
102
RTVSPropertyOp26
 70
     1
102
RTVSPropertyOp27
 70
     1
102
RTVSPropertyOp28
 70
     1
102
RTVSPropertyOp29
 70
     1
102
RTVSPropertyOp30
 70
     1
102
RTVSPropertyOp31
 70
     1
102
RTVSPropertyOp32
 70
     1
102
RTVSPropertyOp33
 70
     1
102
RTVSPropertyOp34
 70
     1
102
RTVSPropertyOp35
 70
     1
102
RTVSPropertyOp36
 70
     1
102
RTVSPropertyOp37
 70
     1
102
RTVSPropertyOp38
 70
     1
102
RTVSPropertyOp39
 70
     1
102
RTVSPropertyOp40
 70
     1
102
RTVSPropertyOp41
 70
     1
102
RTVSPropertyOp42
 70
     1
102
RTVSPropertyOp43
 70
     1
102
RTVSPropertyOp44
 70
     1
102
RTVSPropertyOp45
 70
     1
102
RTVSPropertyOp46
 70
     1
102
RTVSPropertyOp47
 70
     1
102
RTVSPropertyOp48
 70
     1
102
RTVSPropertyOp49
 70
     1
102
RTVSPropertyOp50
 70
     1
102
RTVSPropertyOp51
 70
     0
102
RTVSPropertyOp52
 70
     0
102
RTVSPropertyOp53
 70
     1
102
RTVSPropertyOp54
 70
     1
102
RTVSPropertyOp55
 70
     1
102
RTVSPropertyOp56
 70
     1
102
RTVSPropertyOp57
 70
     1
102
RTVSPost2010Prop28
280
     0
102
RTVSPost2010PropOp28
 70
     1
102
RTVSPost2010Prop29
280
     1
102
RTVSPost2010PropOp29
 70
     1
102
RTVSPost2010Prop30
280
     1
102
RTVSPost2010PropOp30
 70
     1
102
RTVSPost2010Prop31
280
     0
102
RTVSPost2010PropOp31
 70
     1
102
RTVSPost2010Prop32
280
     0
102
RTVSPost2010PropOp32
 70
     1
102
RTVSPost2010Prop33
280
     0
102
RTVSPost2010PropOp33
 70
     1
102
RTVSPost2010Prop34
280
     0
102
RTVSPost2010PropOp34
 70
     1
102
RTVSPost2010Prop35
280
     0
102
RTVSPost2010PropOp35
 70
     1
102
RTVSPost2010Prop36
280
     0
102
RTVSPost2010PropOp36
 70
     1
102
RTVSPost2010Prop37
 90
       50
102
RTVSPost2010PropOp37
 70
     1
102
RTVSPost2010Prop38
140
0.0
102
RTVSPost2010PropOp38
 70
     1
102
RTVSPost2010Prop39
140
1.0
102
RTVSPost2010PropOp39
 70
     1
102
RTVSPost2010Prop40
 90
        0
102
RTVSPost2010PropOp40
 70
     1
102
RTVSPost2010Prop41ColorIndex
 90
       18
102
RTVSPost2010Prop41ColorRGB
 90
        0
102
RTVSPost2010PropOp41
 70
     1
102
RTVSPost2010Prop42
 90
       50
102
RTVSPost2010PropOp42
 70
     1
102
RTVSPost2010Prop43
 90
        3
102
RTVSPost2010PropOp43
 70
     1
102
RTVSPost2010Prop44ColorIndex
 90
        5
102
RTVSPost2010Prop44ColorRGB
 90
      255
102
RTVSPost2010PropOp44
 70
     1
102
RTVSPost2010Prop45
280
     0
102
RTVSPost2010PropOp45
 70
     1
102
RTVSPost2010Prop46
 90
       50
102
RTVSPost2010PropOp46
 70
     1
102
RTVSPost2010Prop47
 90
       50
102
RTVSPost2010PropOp47
 70
     1
102
RTVSPost2010Prop48
 90
       50
102
RTVSPost2010PropOp48
 70
     1
102
RTVSPost2010Prop49
280
     0
102
RTVSPost2010PropOp49
 70
     1
102
RTVSPost2010Prop50
 90
       50
102
RTVSPost2010PropOp50
 70
     1
102
RTVSPost2010Prop51ColorIndex
 90
      256
102
RTVSPost2010Prop51ColorRGB
 90
-16777216
102
RTVSPost2010PropOp51
 70
     0
102
RTVSPost2010Prop52
140
1.0
102
RTVSPost2010PropOp52
 70
     0
102
RTVSPost2010Prop53
 90
        2
102
RTVSPost2010PropOp53
 70
     1
102
RTVSPost2010Prop54
  1
strokes_ogs.tif
102
RTVSPost2010PropOp54
 70
     1
102
RTVSPost2010Prop55
280
     0
102
RTVSPost2010PropOp55
 70
     1
102
RTVSPost2010Prop56
140
1.0
102
RTVSPost2010PropOp56
 70
     1
102
RTVSPost2010Prop57
140
1.0
102
RTVSPost2010PropOp57
 70
     1
  0
XRECORD
  5
1314
102
{ACAD_REACTORS
330
1313
102
}
330
1313
100
AcDbXrecord
280
     1
102
RTVSPropertyOp0
 70
     1
102
RTVSPropertyOp1
 70
     1
102
RTVSPropertyOp2
 70
     1
102
RTVSPropertyOp3
 70
     1
102
RTVSPropertyOp4
 70
     1
102
RTVSPropertyOp5
 70
     1
102
RTVSPropertyOp6
 70
     1
102
RTVSPropertyOp7
 70
     1
102
RTVSPropertyOp8
 70
     1
102
RTVSPropertyOp9
 70
     1
102
RTVSPropertyOp10
 70
     1
102
RTVSPropertyOp11
 70
     1
102
RTVSPropertyOp12
 70
     1
102
RTVSPropertyOp13
 70
     1
102
RTVSPropertyOp14
 70
     1
102
RTVSPropertyOp15
 70
     1
102
RTVSPropertyOp16
 70
     1
102
RTVSPropertyOp17
 70
     1
102
RTVSPropertyOp18
 70
     1
102
RTVSPropertyOp19
 70
     1
102
RTVSPropertyOp20
 70
     1
102
RTVSPropertyOp21
 70
     1
102
RTVSPropertyOp22
 70
     1
102
RTVSPropertyOp23
 70
     1
102
RTVSPropertyOp24
 70
     1
102
RTVSPropertyOp25
 70
     1
102
RTVSPropertyOp26
 70
     1
102
RTVSPropertyOp27
 70
     1
102
RTVSPropertyOp28
 70
     1
102
RTVSPropertyOp29
 70
     1
102
RTVSPropertyOp30
 70
     1
102
RTVSPropertyOp31
 70
     1
102
RTVSPropertyOp32
 70
     1
102
RTVSPropertyOp33
 70
     1
102
RTVSPropertyOp34
 70
     1
102
RTVSPropertyOp35
 70
     1
102
RTVSPropertyOp36
 70
     1
102
RTVSPropertyOp37
 70
     1
102
RTVSPropertyOp38
 70
     1
102
RTVSPropertyOp39
 70
     1
102
RTVSPropertyOp40
 70
     1
102
RTVSPropertyOp41
 70
     1
102
RTVSPropertyOp42
 70
     1
102
RTVSPropertyOp43
 70
     1
102
RTVSPropertyOp44
 70
     1
102
RTVSPropertyOp45
 70
     1
102
RTVSPropertyOp46
 70
     1
102
RTVSPropertyOp47
 70
     1
102
RTVSPropertyOp48
 70
     1
102
RTVSPropertyOp49
 70
     1
102
RTVSPropertyOp50
 70
     1
102
RTVSPropertyOp51
 70
     0
102
RTVSPropertyOp52
 70
     0
102
RTVSPropertyOp53
 70
     1
102
RTVSPropertyOp54
 70
     1
102
RTVSPropertyOp55
 70
     1
102
RTVSPropertyOp56
 70
     1
102
RTVSPropertyOp57
 70
     1
102
RTVSPost2010Prop28
280
     0
102
RTVSPost2010PropOp28
 70
     1
102
RTVSPost2010Prop29
280
     1
102
RTVSPost2010PropOp29
 70
     1
102
RTVSPost2010Prop30
280
     1
102
RTVSPost2010PropOp30
 70
     1
102
RTVSPost2010Prop31
280
     0
102
RTVSPost2010PropOp31
 70
     1
102
RTVSPost2010Prop32
280
     0
102
RTVSPost2010PropOp32
 70
     1
102
RTVSPost2010Prop33
280
     0
102
RTVSPost2010PropOp33
 70
     1
102
RTVSPost2010Prop34
280
     0
102
RTVSPost2010PropOp34
 70
     1
102
RTVSPost2010Prop35
280
     0
102
RTVSPost2010PropOp35
 70
     1
102
RTVSPost2010Prop36
280
     0
102
RTVSPost2010PropOp36
 70
     1
102
RTVSPost2010Prop37
 90
       50
102
RTVSPost2010PropOp37
 70
     1
102
RTVSPost2010Prop38
140
0.0
102
RTVSPost2010PropOp38
 70
     1
102
RTVSPost2010Prop39
140
1.0
102
RTVSPost2010PropOp39
 70
     1
102
RTVSPost2010Prop40
 90
        0
102
RTVSPost2010PropOp40
 70
     1
102
RTVSPost2010Prop41ColorIndex
 90
       18
102
RTVSPost2010Prop41ColorRGB
 90
        0
102
RTVSPost2010PropOp41
 70
     1
102
RTVSPost2010Prop42
 90
       50
102
RTVSPost2010PropOp42
 70
     1
102
RTVSPost2010Prop43
 90
        3
102
RTVSPost2010PropOp43
 70
     1
102
RTVSPost2010Prop44ColorIndex
 90
        5
102
RTVSPost2010Prop44ColorRGB
 90
      255
102
RTVSPost2010PropOp44
 70
     1
102
RTVSPost2010Prop45
280
     0
102
RTVSPost2010PropOp45
 70
     1
102
RTVSPost2010Prop46
 90
       50
102
RTVSPost2010PropOp46
 70
     1
102
RTVSPost2010Prop47
 90
       50
102
RTVSPost2010PropOp47
 70
     1
102
RTVSPost2010Prop48
 90
       50
102
RTVSPost2010PropOp48
 70
     1
102
RTVSPost2010Prop49
280
     0
102
RTVSPost2010PropOp49
 70
     1
102
RTVSPost2010Prop50
 90
       50
102
RTVSPost2010PropOp50
 70
     1
102
RTVSPost2010Prop51ColorIndex
 90
      256
102
RTVSPost2010Prop51ColorRGB
 90
-16777216
102
RTVSPost2010PropOp51
 70
     0
102
RTVSPost2010Prop52
140
1.0
102
RTVSPost2010PropOp52
 70
     0
102
RTVSPost2010Prop53
 90
        2
102
RTVSPost2010PropOp53
 70
     1
102
RTVSPost2010Prop54
  1
strokes_ogs.tif
102
RTVSPost2010PropOp54
 70
     1
102
RTVSPost2010Prop55
280
     0
102
RTVSPost2010PropOp55
 70
     1
102
RTVSPost2010Prop56
140
1.0
102
RTVSPost2010PropOp56
 70
     1
102
RTVSPost2010Prop57
140
1.0
102
RTVSPost2010PropOp57
 70
     1
  0
XRECORD
  5
1316
102
{ACAD_REACTORS
330
1315
102
}
330
1315
100
AcDbXrecord
280
     1
102
RTVSPropertyOp0
 70
     0
102
RTVSPropertyOp1
 70
     0
102
RTVSPropertyOp2
 70
     0
102
RTVSPropertyOp3
 70
     0
102
RTVSPropertyOp4
 70
     0
102
RTVSPropertyOp5
 70
     0
102
RTVSPropertyOp6
 70
     0
102
RTVSPropertyOp7
 70
     0
102
RTVSPropertyOp8
 70
     0
102
RTVSPropertyOp9
 70
     0
102
RTVSPropertyOp10
 70
     0
102
RTVSPropertyOp11
 70
     0
102
RTVSPropertyOp12
 70
     0
102
RTVSPropertyOp13
 70
     0
102
RTVSPropertyOp14
 70
     2
102
RTVSPropertyOp15
 70
     0
102
RTVSPropertyOp16
 70
     0
102
RTVSPropertyOp17
 70
     0
102
RTVSPropertyOp18
 70
     0
102
RTVSPropertyOp19
 70
     0
102
RTVSPropertyOp20
 70
     0
102
RTVSPropertyOp21
 70
     0
102
RTVSPropertyOp22
 70
     0
102
RTVSPropertyOp23
 70
     0
102
RTVSPropertyOp24
 70
     0
102
RTVSPropertyOp25
 70
     0
102
RTVSPropertyOp26
 70
     0
102
RTVSPropertyOp27
 70
     0
102
RTVSPropertyOp28
 70
     0
102
RTVSPropertyOp29
 70
     0
102
RTVSPropertyOp30
 70
     0
102
RTVSPropertyOp31
 70
     0
102
RTVSPropertyOp32
 70
     0
102
RTVSPropertyOp33
 70
     1
102
RTVSPropertyOp34
 70
     1
102
RTVSPropertyOp35
 70
     1
102
RTVSPropertyOp36
 70
     1
102
RTVSPropertyOp37
 70
     1
102
RTVSPropertyOp38
 70
     1
102
RTVSPropertyOp39
 70
     1
102
RTVSPropertyOp40
 70
     1
102
RTVSPropertyOp41
 70
     1
102
RTVSPropertyOp42
 70
     1
102
RTVSPropertyOp43
 70
     1
102
RTVSPropertyOp44
 70
     1
102
RTVSPropertyOp45
 70
     1
102
RTVSPropertyOp46
 70
     1
102
RTVSPropertyOp47
 70
     1
102
RTVSPropertyOp48
 70
     1
102
RTVSPropertyOp49
 70
     1
102
RTVSPropertyOp50
 70
     1
102
RTVSPropertyOp51
 70
     0
102
RTVSPropertyOp52
 70
     0
102
RTVSPropertyOp53
 70
     1
102
RTVSPropertyOp54
 70
     1
102
RTVSPropertyOp55
 70
     1
102
RTVSPropertyOp56
 70
     1
102
RTVSPropertyOp57
 70
     1
102
RTVSPost2010Prop28
280
     0
102
RTVSPost2010PropOp28
 70
     0
102
RTVSPost2010Prop29
280
     1
102
RTVSPost2010PropOp29
 70
     0
102
RTVSPost2010Prop30
280
     1
102
RTVSPost2010PropOp30
 70
     0
102
RTVSPost2010Prop31
280
     0
102
RTVSPost2010PropOp31
 70
     0
102
RTVSPost2010Prop32
280
     0
102
RTVSPost2010PropOp32
 70
     0
102
RTVSPost2010Prop33
280
     0
102
RTVSPost2010PropOp33
 70
     1
102
RTVSPost2010Prop34
280
     0
102
RTVSPost2010PropOp34
 70
     1
102
RTVSPost2010Prop35
280
     0
102
RTVSPost2010PropOp35
 70
     1
102
RTVSPost2010Prop36
280
     0
102
RTVSPost2010PropOp36
 70
     1
102
RTVSPost2010Prop37
 90
       50
102
RTVSPost2010PropOp37
 70
     1
102
RTVSPost2010Prop38
140
0.0
102
RTVSPost2010PropOp38
 70
     1
102
RTVSPost2010Prop39
140
1.0
102
RTVSPost2010PropOp39
 70
     1
102
RTVSPost2010Prop40
 90
        0
102
RTVSPost2010PropOp40
 70
     1
102
RTVSPost2010Prop41ColorIndex
 90
       18
102
RTVSPost2010Prop41ColorRGB
 90
        0
102
RTVSPost2010PropOp41
 70
     1
102
RTVSPost2010Prop42
 90
       50
102
RTVSPost2010PropOp42
 70
     1
102
RTVSPost2010Prop43
 90
        3
102
RTVSPost2010PropOp43
 70
     1
102
RTVSPost2010Prop44ColorIndex
 90
        5
102
RTVSPost2010Prop44ColorRGB
 90
      255
102
RTVSPost2010PropOp44
 70
     1
102
RTVSPost2010Prop45
280
     0
102
RTVSPost2010PropOp45
 70
     1
102
RTVSPost2010Prop46
 90
       50
102
RTVSPost2010PropOp46
 70
     1
102
RTVSPost2010Prop47
 90
       50
102
RTVSPost2010PropOp47
 70
     1
102
RTVSPost2010Prop48
 90
       50
102
RTVSPost2010PropOp48
 70
     1
102
RTVSPost2010Prop49
280
     0
102
RTVSPost2010PropOp49
 70
     1
102
RTVSPost2010Prop50
 90
       50
102
RTVSPost2010PropOp50
 70
     1
102
RTVSPost2010Prop51ColorIndex
 90
      256
102
RTVSPost2010Prop51ColorRGB
 90
-16777216
102
RTVSPost2010PropOp51
 70
     0
102
RTVSPost2010Prop52
140
1.0
102
RTVSPost2010PropOp52
 70
     0
102
RTVSPost2010Prop53
 90
        2
102
RTVSPost2010PropOp53
 70
     1
102
RTVSPost2010Prop54
  1
strokes_ogs.tif
102
RTVSPost2010PropOp54
 70
     1
102
RTVSPost2010Prop55
280
     0
102
RTVSPost2010PropOp55
 70
     1
102
RTVSPost2010Prop56
140
1.0
102
RTVSPost2010PropOp56
 70
     1
102
RTVSPost2010Prop57
140
1.0
102
RTVSPost2010PropOp57
 70
     1
  0
XRECORD
  5
1318
102
{ACAD_REACTORS
330
1317
102
}
330
1317
100
AcDbXrecord
280
     1
102
RTVSPropertyOp0
 70
     1
102
RTVSPropertyOp1
 70
     1
102
RTVSPropertyOp2
 70
     1
102
RTVSPropertyOp3
 70
     1
102
RTVSPropertyOp4
 70
     1
102
RTVSPropertyOp5
 70
     1
102
RTVSPropertyOp6
 70
     1
102
RTVSPropertyOp7
 70
     1
102
RTVSPropertyOp8
 70
     1
102
RTVSPropertyOp9
 70
     1
102
RTVSPropertyOp10
 70
     1
102
RTVSPropertyOp11
 70
     1
102
RTVSPropertyOp12
 70
     1
102
RTVSPropertyOp13
 70
     1
102
RTVSPropertyOp14
 70
     1
102
RTVSPropertyOp15
 70
     1
102
RTVSPropertyOp16
 70
     1
102
RTVSPropertyOp17
 70
     1
102
RTVSPropertyOp18
 70
     1
102
RTVSPropertyOp19
 70
     1
102
RTVSPropertyOp20
 70
     1
102
RTVSPropertyOp21
 70
     1
102
RTVSPropertyOp22
 70
     1
102
RTVSPropertyOp23
 70
     1
102
RTVSPropertyOp24
 70
     1
102
RTVSPropertyOp25
 70
     1
102
RTVSPropertyOp26
 70
     1
102
RTVSPropertyOp27
 70
     1
102
RTVSPropertyOp28
 70
     1
102
RTVSPropertyOp29
 70
     1
102
RTVSPropertyOp30
 70
     1
102
RTVSPropertyOp31
 70
     1
102
RTVSPropertyOp32
 70
     1
102
RTVSPropertyOp33
 70
     1
102
RTVSPropertyOp34
 70
     1
102
RTVSPropertyOp35
 70
     1
102
RTVSPropertyOp36
 70
     1
102
RTVSPropertyOp37
 70
     1
102
RTVSPropertyOp38
 70
     1
102
RTVSPropertyOp39
 70
     1
102
RTVSPropertyOp40
 70
     1
102
RTVSPropertyOp41
 70
     1
102
RTVSPropertyOp42
 70
     1
102
RTVSPropertyOp43
 70
     1
102
RTVSPropertyOp44
 70
     1
102
RTVSPropertyOp45
 70
     1
102
RTVSPropertyOp46
 70
     1
102
RTVSPropertyOp47
 70
     1
102
RTVSPropertyOp48
 70
     1
102
RTVSPropertyOp49
 70
     1
102
RTVSPropertyOp50
 70
     1
102
RTVSPropertyOp51
 70
     0
102
RTVSPropertyOp52
 70
     0
102
RTVSPropertyOp53
 70
     1
102
RTVSPropertyOp54
 70
     1
102
RTVSPropertyOp55
 70
     1
102
RTVSPropertyOp56
 70
     1
102
RTVSPropertyOp57
 70
     1
102
RTVSPost2010Prop28
280
     0
102
RTVSPost2010PropOp28
 70
     1
102
RTVSPost2010Prop29
280
     1
102
RTVSPost2010PropOp29
 70
     1
102
RTVSPost2010Prop30
280
     1
102
RTVSPost2010PropOp30
 70
     1
102
RTVSPost2010Prop31
280
     0
102
RTVSPost2010PropOp31
 70
     1
102
RTVSPost2010Prop32
280
     0
102
RTVSPost2010PropOp32
 70
     1
102
RTVSPost2010Prop33
280
     0
102
RTVSPost2010PropOp33
 70
     1
102
RTVSPost2010Prop34
280
     0
102
RTVSPost2010PropOp34
 70
     1
102
RTVSPost2010Prop35
280
     0
102
RTVSPost2010PropOp35
 70
     1
102
RTVSPost2010Prop36
280
     0
102
RTVSPost2010PropOp36
 70
     1
102
RTVSPost2010Prop37
 90
       50
102
RTVSPost2010PropOp37
 70
     1
102
RTVSPost2010Prop38
140
0.0
102
RTVSPost2010PropOp38
 70
     1
102
RTVSPost2010Prop39
140
1.0
102
RTVSPost2010PropOp39
 70
     1
102
RTVSPost2010Prop40
 90
        0
102
RTVSPost2010PropOp40
 70
     1
102
RTVSPost2010Prop41ColorIndex
 90
       18
102
RTVSPost2010Prop41ColorRGB
 90
        0
102
RTVSPost2010PropOp41
 70
     1
102
RTVSPost2010Prop42
 90
       50
102
RTVSPost2010PropOp42
 70
     1
102
RTVSPost2010Prop43
 90
        3
102
RTVSPost2010PropOp43
 70
     1
102
RTVSPost2010Prop44ColorIndex
 90
        5
102
RTVSPost2010Prop44ColorRGB
 90
      255
102
RTVSPost2010PropOp44
 70
     1
102
RTVSPost2010Prop45
280
     0
102
RTVSPost2010PropOp45
 70
     1
102
RTVSPost2010Prop46
 90
       50
102
RTVSPost2010PropOp46
 70
     1
102
RTVSPost2010Prop47
 90
       50
102
RTVSPost2010PropOp47
 70
     1
102
RTVSPost2010Prop48
 90
       50
102
RTVSPost2010PropOp48
 70
     1
102
RTVSPost2010Prop49
280
     0
102
RTVSPost2010PropOp49
 70
     1
102
RTVSPost2010Prop50
 90
       50
102
RTVSPost2010PropOp50
 70
     1
102
RTVSPost2010Prop51ColorIndex
 90
      256
102
RTVSPost2010Prop51ColorRGB
 90
-16777216
102
RTVSPost2010PropOp51
 70
     0
102
RTVSPost2010Prop52
140
1.0
102
RTVSPost2010PropOp52
 70
     0
102
RTVSPost2010Prop53
 90
        2
102
RTVSPost2010PropOp53
 70
     1
102
RTVSPost2010Prop54
  1
strokes_ogs.tif
102
RTVSPost2010PropOp54
 70
     1
102
RTVSPost2010Prop55
280
     0
102
RTVSPost2010PropOp55
 70
     1
102
RTVSPost2010Prop56
140
1.0
102
RTVSPost2010PropOp56
 70
     1
102
RTVSPost2010Prop57
140
1.0
102
RTVSPost2010PropOp57
 70
     1
  0
XRECORD
  5
131A
102
{ACAD_REACTORS
330
1319
102
}
330
1319
100
AcDbXrecord
280
     1
102
RTVSPropertyOp0
 70
     0
102
RTVSPropertyOp1
 70
     0
102
RTVSPropertyOp2
 70
     0
102
RTVSPropertyOp3
 70
     0
102
RTVSPropertyOp4
 70
     0
102
RTVSPropertyOp5
 70
     0
102
RTVSPropertyOp6
 70
     0
102
RTVSPropertyOp7
 70
     0
102
RTVSPropertyOp8
 70
     0
102
RTVSPropertyOp9
 70
     0
102
RTVSPropertyOp10
 70
     0
102
RTVSPropertyOp11
 70
     0
102
RTVSPropertyOp12
 70
     0
102
RTVSPropertyOp13
 70
     0
102
RTVSPropertyOp14
 70
     2
102
RTVSPropertyOp15
 70
     0
102
RTVSPropertyOp16
 70
     0
102
RTVSPropertyOp17
 70
     0
102
RTVSPropertyOp18
 70
     0
102
RTVSPropertyOp19
 70
     0
102
RTVSPropertyOp20
 70
     0
102
RTVSPropertyOp21
 70
     0
102
RTVSPropertyOp22
 70
     0
102
RTVSPropertyOp23
 70
     0
102
RTVSPropertyOp24
 70
     0
102
RTVSPropertyOp25
 70
     0
102
RTVSPropertyOp26
 70
     0
102
RTVSPropertyOp27
 70
     0
102
RTVSPropertyOp28
 70
     0
102
RTVSPropertyOp29
 70
     0
102
RTVSPropertyOp30
 70
     0
102
RTVSPropertyOp31
 70
     0
102
RTVSPropertyOp32
 70
     0
102
RTVSPropertyOp33
 70
     1
102
RTVSPropertyOp34
 70
     1
102
RTVSPropertyOp35
 70
     1
102
RTVSPropertyOp36
 70
     1
102
RTVSPropertyOp37
 70
     1
102
RTVSPropertyOp38
 70
     1
102
RTVSPropertyOp39
 70
     1
102
RTVSPropertyOp40
 70
     1
102
RTVSPropertyOp41
 70
     1
102
RTVSPropertyOp42
 70
     1
102
RTVSPropertyOp43
 70
     1
102
RTVSPropertyOp44
 70
     1
102
RTVSPropertyOp45
 70
     1
102
RTVSPropertyOp46
 70
     1
102
RTVSPropertyOp47
 70
     1
102
RTVSPropertyOp48
 70
     1
102
RTVSPropertyOp49
 70
     1
102
RTVSPropertyOp50
 70
     1
102
RTVSPropertyOp51
 70
     0
102
RTVSPropertyOp52
 70
     0
102
RTVSPropertyOp53
 70
     1
102
RTVSPropertyOp54
 70
     1
102
RTVSPropertyOp55
 70
     1
102
RTVSPropertyOp56
 70
     1
102
RTVSPropertyOp57
 70
     1
102
RTVSPost2010Prop28
280
     0
102
RTVSPost2010PropOp28
 70
     0
102
RTVSPost2010Prop29
280
     1
102
RTVSPost2010PropOp29
 70
     0
102
RTVSPost2010Prop30
280
     1
102
RTVSPost2010PropOp30
 70
     0
102
RTVSPost2010Prop31
280
     0
102
RTVSPost2010PropOp31
 70
     0
102
RTVSPost2010Prop32
280
     0
102
RTVSPost2010PropOp32
 70
     0
102
RTVSPost2010Prop33
280
     0
102
RTVSPost2010PropOp33
 70
     1
102
RTVSPost2010Prop34
280
     0
102
RTVSPost2010PropOp34
 70
     1
102
RTVSPost2010Prop35
280
     0
102
RTVSPost2010PropOp35
 70
     1
102
RTVSPost2010Prop36
280
     0
102
RTVSPost2010PropOp36
 70
     1
102
RTVSPost2010Prop37
 90
       50
102
RTVSPost2010PropOp37
 70
     1
102
RTVSPost2010Prop38
140
0.0
102
RTVSPost2010PropOp38
 70
     1
102
RTVSPost2010Prop39
140
1.0
102
RTVSPost2010PropOp39
 70
     1
102
RTVSPost2010Prop40
 90
        0
102
RTVSPost2010PropOp40
 70
     1
102
RTVSPost2010Prop41ColorIndex
 90
       18
102
RTVSPost2010Prop41ColorRGB
 90
        0
102
RTVSPost2010PropOp41
 70
     1
102
RTVSPost2010Prop42
 90
       50
102
RTVSPost2010PropOp42
 70
     1
102
RTVSPost2010Prop43
 90
        3
102
RTVSPost2010PropOp43
 70
     1
102
RTVSPost2010Prop44ColorIndex
 90
        5
102
RTVSPost2010Prop44ColorRGB
 90
      255
102
RTVSPost2010PropOp44
 70
     1
102
RTVSPost2010Prop45
280
     0
102
RTVSPost2010PropOp45
 70
     1
102
RTVSPost2010Prop46
 90
       50
102
RTVSPost2010PropOp46
 70
     1
102
RTVSPost2010Prop47
 90
       50
102
RTVSPost2010PropOp47
 70
     1
102
RTVSPost2010Prop48
 90
       50
102
RTVSPost2010PropOp48
 70
     1
102
RTVSPost2010Prop49
280
     0
102
RTVSPost2010PropOp49
 70
     1
102
RTVSPost2010Prop50
 90
       50
102
RTVSPost2010PropOp50
 70
     1
102
RTVSPost2010Prop51ColorIndex
 90
      256
102
RTVSPost2010Prop51ColorRGB
 90
-16777216
102
RTVSPost2010PropOp51
 70
     0
102
RTVSPost2010Prop52
140
1.0
102
RTVSPost2010PropOp52
 70
     0
102
RTVSPost2010Prop53
 90
        2
102
RTVSPost2010PropOp53
 70
     1
102
RTVSPost2010Prop54
  1
strokes_ogs.tif
102
RTVSPost2010PropOp54
 70
     1
102
RTVSPost2010Prop55
280
     0
102
RTVSPost2010PropOp55
 70
     1
102
RTVSPost2010Prop56
140
1.0
102
RTVSPost2010PropOp56
 70
     1
102
RTVSPost2010Prop57
140
1.0
102
RTVSPost2010PropOp57
 70
     1
  0
XRECORD
  5
131C
102
{ACAD_REACTORS
330
131B
102
}
330
131B
100
AcDbXrecord
280
     1
102
RTVSPropertyOp0
 70
     1
102
RTVSPropertyOp1
 70
     1
102
RTVSPropertyOp2
 70
     1
102
RTVSPropertyOp3
 70
     1
102
RTVSPropertyOp4
 70
     1
102
RTVSPropertyOp5
 70
     1
102
RTVSPropertyOp6
 70
     1
102
RTVSPropertyOp7
 70
     1
102
RTVSPropertyOp8
 70
     1
102
RTVSPropertyOp9
 70
     1
102
RTVSPropertyOp10
 70
     1
102
RTVSPropertyOp11
 70
     1
102
RTVSPropertyOp12
 70
     1
102
RTVSPropertyOp13
 70
     1
102
RTVSPropertyOp14
 70
     1
102
RTVSPropertyOp15
 70
     1
102
RTVSPropertyOp16
 70
     1
102
RTVSPropertyOp17
 70
     1
102
RTVSPropertyOp18
 70
     1
102
RTVSPropertyOp19
 70
     1
102
RTVSPropertyOp20
 70
     1
102
RTVSPropertyOp21
 70
     1
102
RTVSPropertyOp22
 70
     1
102
RTVSPropertyOp23
 70
     1
102
RTVSPropertyOp24
 70
     1
102
RTVSPropertyOp25
 70
     1
102
RTVSPropertyOp26
 70
     1
102
RTVSPropertyOp27
 70
     1
102
RTVSPropertyOp28
 70
     1
102
RTVSPropertyOp29
 70
     1
102
RTVSPropertyOp30
 70
     1
102
RTVSPropertyOp31
 70
     1
102
RTVSPropertyOp32
 70
     1
102
RTVSPropertyOp33
 70
     1
102
RTVSPropertyOp34
 70
     1
102
RTVSPropertyOp35
 70
     1
102
RTVSPropertyOp36
 70
     1
102
RTVSPropertyOp37
 70
     1
102
RTVSPropertyOp38
 70
     1
102
RTVSPropertyOp39
 70
     1
102
RTVSPropertyOp40
 70
     1
102
RTVSPropertyOp41
 70
     1
102
RTVSPropertyOp42
 70
     1
102
RTVSPropertyOp43
 70
     1
102
RTVSPropertyOp44
 70
     1
102
RTVSPropertyOp45
 70
     1
102
RTVSPropertyOp46
 70
     1
102
RTVSPropertyOp47
 70
     1
102
RTVSPropertyOp48
 70
     1
102
RTVSPropertyOp49
 70
     1
102
RTVSPropertyOp50
 70
     1
102
RTVSPropertyOp51
 70
     0
102
RTVSPropertyOp52
 70
     0
102
RTVSPropertyOp53
 70
     1
102
RTVSPropertyOp54
 70
     1
102
RTVSPropertyOp55
 70
     1
102
RTVSPropertyOp56
 70
     1
102
RTVSPropertyOp57
 70
     1
102
RTVSPost2010Prop28
280
     0
102
RTVSPost2010PropOp28
 70
     1
102
RTVSPost2010Prop29
280
     1
102
RTVSPost2010PropOp29
 70
     1
102
RTVSPost2010Prop30
280
     1
102
RTVSPost2010PropOp30
 70
     1
102
RTVSPost2010Prop31
280
     0
102
RTVSPost2010PropOp31
 70
     1
102
RTVSPost2010Prop32
280
     0
102
RTVSPost2010PropOp32
 70
     1
102
RTVSPost2010Prop33
280
     0
102
RTVSPost2010PropOp33
 70
     1
102
RTVSPost2010Prop34
280
     0
102
RTVSPost2010PropOp34
 70
     1
102
RTVSPost2010Prop35
280
     0
102
RTVSPost2010PropOp35
 70
     1
102
RTVSPost2010Prop36
280
     0
102
RTVSPost2010PropOp36
 70
     1
102
RTVSPost2010Prop37
 90
       50
102
RTVSPost2010PropOp37
 70
     1
102
RTVSPost2010Prop38
140
0.0
102
RTVSPost2010PropOp38
 70
     1
102
RTVSPost2010Prop39
140
1.0
102
RTVSPost2010PropOp39
 70
     1
102
RTVSPost2010Prop40
 90
        0
102
RTVSPost2010PropOp40
 70
     1
102
RTVSPost2010Prop41ColorIndex
 90
       18
102
RTVSPost2010Prop41ColorRGB
 90
        0
102
RTVSPost2010PropOp41
 70
     1
102
RTVSPost2010Prop42
 90
       50
102
RTVSPost2010PropOp42
 70
     1
102
RTVSPost2010Prop43
 90
        3
102
RTVSPost2010PropOp43
 70
     1
102
RTVSPost2010Prop44ColorIndex
 90
        5
102
RTVSPost2010Prop44ColorRGB
 90
      255
102
RTVSPost2010PropOp44
 70
     1
102
RTVSPost2010Prop45
280
     0
102
RTVSPost2010PropOp45
 70
     1
102
RTVSPost2010Prop46
 90
       50
102
RTVSPost2010PropOp46
 70
     1
102
RTVSPost2010Prop47
 90
       50
102
RTVSPost2010PropOp47
 70
     1
102
RTVSPost2010Prop48
 90
       50
102
RTVSPost2010PropOp48
 70
     1
102
RTVSPost2010Prop49
280
     0
102
RTVSPost2010PropOp49
 70
     1
102
RTVSPost2010Prop50
 90
       50
102
RTVSPost2010PropOp50
 70
     1
102
RTVSPost2010Prop51ColorIndex
 90
      256
102
RTVSPost2010Prop51ColorRGB
 90
-16777216
102
RTVSPost2010PropOp51
 70
     0
102
RTVSPost2010Prop52
140
1.0
102
RTVSPost2010PropOp52
 70
     0
102
RTVSPost2010Prop53
 90
        2
102
RTVSPost2010PropOp53
 70
     1
102
RTVSPost2010Prop54
  1
strokes_ogs.tif
102
RTVSPost2010PropOp54
 70
     1
102
RTVSPost2010Prop55
280
     0
102
RTVSPost2010PropOp55
 70
     1
102
RTVSPost2010Prop56
140
1.0
102
RTVSPost2010PropOp56
 70
     1
102
RTVSPost2010Prop57
140
1.0
102
RTVSPost2010PropOp57
 70
     1
  0
XRECORD
  5
131E
102
{ACAD_REACTORS
330
131D
102
}
330
131D
100
AcDbXrecord
280
     1
102
RTVSPropertyOp0
 70
     1
102
RTVSPropertyOp1
 70
     1
102
RTVSPropertyOp2
 70
     1
102
RTVSPropertyOp3
 70
     1
102
RTVSPropertyOp4
 70
     1
102
RTVSPropertyOp5
 70
     1
102
RTVSPropertyOp6
 70
     1
102
RTVSPropertyOp7
 70
     1
102
RTVSPropertyOp8
 70
     1
102
RTVSPropertyOp9
 70
     1
102
RTVSPropertyOp10
 70
     1
102
RTVSPropertyOp11
 70
     1
102
RTVSPropertyOp12
 70
     1
102
RTVSPropertyOp13
 70
     1
102
RTVSPropertyOp14
 70
     1
102
RTVSPropertyOp15
 70
     1
102
RTVSPropertyOp16
 70
     1
102
RTVSPropertyOp17
 70
     1
102
RTVSPropertyOp18
 70
     1
102
RTVSPropertyOp19
 70
     1
102
RTVSPropertyOp20
 70
     1
102
RTVSPropertyOp21
 70
     1
102
RTVSPropertyOp22
 70
     1
102
RTVSPropertyOp23
 70
     1
102
RTVSPropertyOp24
 70
     1
102
RTVSPropertyOp25
 70
     1
102
RTVSPropertyOp26
 70
     1
102
RTVSPropertyOp27
 70
     1
102
RTVSPropertyOp28
 70
     1
102
RTVSPropertyOp29
 70
     1
102
RTVSPropertyOp30
 70
     1
102
RTVSPropertyOp31
 70
     1
102
RTVSPropertyOp32
 70
     1
102
RTVSPropertyOp33
 70
     1
102
RTVSPropertyOp34
 70
     1
102
RTVSPropertyOp35
 70
     1
102
RTVSPropertyOp36
 70
     1
102
RTVSPropertyOp37
 70
     1
102
RTVSPropertyOp38
 70
     1
102
RTVSPropertyOp39
 70
     1
102
RTVSPropertyOp40
 70
     1
102
RTVSPropertyOp41
 70
     1
102
RTVSPropertyOp42
 70
     1
102
RTVSPropertyOp43
 70
     1
102
RTVSPropertyOp44
 70
     1
102
RTVSPropertyOp45
 70
     1
102
RTVSPropertyOp46
 70
     1
102
RTVSPropertyOp47
 70
     1
102
RTVSPropertyOp48
 70
     1
102
RTVSPropertyOp49
 70
     1
102
RTVSPropertyOp50
 70
     1
102
RTVSPropertyOp51
 70
     0
102
RTVSPropertyOp52
 70
     0
102
RTVSPropertyOp53
 70
     1
102
RTVSPropertyOp54
 70
     1
102
RTVSPropertyOp55
 70
     1
102
RTVSPropertyOp56
 70
     1
102
RTVSPropertyOp57
 70
     1
102
RTVSPost2010Prop28
280
     0
102
RTVSPost2010PropOp28
 70
     1
102
RTVSPost2010Prop29
280
     1
102
RTVSPost2010PropOp29
 70
     1
102
RTVSPost2010Prop30
280
     1
102
RTVSPost2010PropOp30
 70
     1
102
RTVSPost2010Prop31
280
     0
102
RTVSPost2010PropOp31
 70
     1
102
RTVSPost2010Prop32
280
     0
102
RTVSPost2010PropOp32
 70
     1
102
RTVSPost2010Prop33
280
     0
102
RTVSPost2010PropOp33
 70
     1
102
RTVSPost2010Prop34
280
     0
102
RTVSPost2010PropOp34
 70
     1
102
RTVSPost2010Prop35
280
     0
102
RTVSPost2010PropOp35
 70
     1
102
RTVSPost2010Prop36
280
     0
102
RTVSPost2010PropOp36
 70
     1
102
RTVSPost2010Prop37
 90
       50
102
RTVSPost2010PropOp37
 70
     1
102
RTVSPost2010Prop38
140
0.0
102
RTVSPost2010PropOp38
 70
     1
102
RTVSPost2010Prop39
140
1.0
102
RTVSPost2010PropOp39
 70
     1
102
RTVSPost2010Prop40
 90
        0
102
RTVSPost2010PropOp40
 70
     1
102
RTVSPost2010Prop41ColorIndex
 90
       18
102
RTVSPost2010Prop41ColorRGB
 90
        0
102
RTVSPost2010PropOp41
 70
     1
102
RTVSPost2010Prop42
 90
       50
102
RTVSPost2010PropOp42
 70
     1
102
RTVSPost2010Prop43
 90
        3
102
RTVSPost2010PropOp43
 70
     1
102
RTVSPost2010Prop44ColorIndex
 90
        5
102
RTVSPost2010Prop44ColorRGB
 90
      255
102
RTVSPost2010PropOp44
 70
     1
102
RTVSPost2010Prop45
280
     0
102
RTVSPost2010PropOp45
 70
     1
102
RTVSPost2010Prop46
 90
       50
102
RTVSPost2010PropOp46
 70
     1
102
RTVSPost2010Prop47
 90
       50
102
RTVSPost2010PropOp47
 70
     1
102
RTVSPost2010Prop48
 90
       50
102
RTVSPost2010PropOp48
 70
     1
102
RTVSPost2010Prop49
280
     0
102
RTVSPost2010PropOp49
 70
     1
102
RTVSPost2010Prop50
 90
       50
102
RTVSPost2010PropOp50
 70
     1
102
RTVSPost2010Prop51ColorIndex
 90
      256
102
RTVSPost2010Prop51ColorRGB
 90
-16777216
102
RTVSPost2010PropOp51
 70
     0
102
RTVSPost2010Prop52
140
1.0
102
RTVSPost2010PropOp52
 70
     0
102
RTVSPost2010Prop53
 90
        2
102
RTVSPost2010PropOp53
 70
     1
102
RTVSPost2010Prop54
  1
strokes_ogs.tif
102
RTVSPost2010PropOp54
 70
     1
102
RTVSPost2010Prop55
280
     0
102
RTVSPost2010PropOp55
 70
     1
102
RTVSPost2010Prop56
140
1.0
102
RTVSPost2010PropOp56
 70
     1
102
RTVSPost2010Prop57
140
1.0
102
RTVSPost2010PropOp57
 70
     1
  0
XRECORD
  5
1320
102
{ACAD_REACTORS
330
131F
102
}
330
131F
100
AcDbXrecord
280
     1
102
RTVSPropertyOp0
 70
     1
102
RTVSPropertyOp1
 70
     1
102
RTVSPropertyOp2
 70
     1
102
RTVSPropertyOp3
 70
     1
102
RTVSPropertyOp4
 70
     1
102
RTVSPropertyOp5
 70
     1
102
RTVSPropertyOp6
 70
     1
102
RTVSPropertyOp7
 70
     1
102
RTVSPropertyOp8
 70
     1
102
RTVSPropertyOp9
 70
     1
102
RTVSPropertyOp10
 70
     1
102
RTVSPropertyOp11
 70
     1
102
RTVSPropertyOp12
 70
     1
102
RTVSPropertyOp13
 70
     1
102
RTVSPropertyOp14
 70
     1
102
RTVSPropertyOp15
 70
     1
102
RTVSPropertyOp16
 70
     1
102
RTVSPropertyOp17
 70
     1
102
RTVSPropertyOp18
 70
     1
102
RTVSPropertyOp19
 70
     1
102
RTVSPropertyOp20
 70
     1
102
RTVSPropertyOp21
 70
     1
102
RTVSPropertyOp22
 70
     1
102
RTVSPropertyOp23
 70
     1
102
RTVSPropertyOp24
 70
     1
102
RTVSPropertyOp25
 70
     1
102
RTVSPropertyOp26
 70
     1
102
RTVSPropertyOp27
 70
     1
102
RTVSPropertyOp28
 70
     1
102
RTVSPropertyOp29
 70
     1
102
RTVSPropertyOp30
 70
     1
102
RTVSPropertyOp31
 70
     1
102
RTVSPropertyOp32
 70
     1
102
RTVSPropertyOp33
 70
     1
102
RTVSPropertyOp34
 70
     1
102
RTVSPropertyOp35
 70
     1
102
RTVSPropertyOp36
 70
     1
102
RTVSPropertyOp37
 70
     1
102
RTVSPropertyOp38
 70
     1
102
RTVSPropertyOp39
 70
     1
102
RTVSPropertyOp40
 70
     1
102
RTVSPropertyOp41
 70
     1
102
RTVSPropertyOp42
 70
     1
102
RTVSPropertyOp43
 70
     1
102
RTVSPropertyOp44
 70
     1
102
RTVSPropertyOp45
 70
     1
102
RTVSPropertyOp46
 70
     1
102
RTVSPropertyOp47
 70
     1
102
RTVSPropertyOp48
 70
     1
102
RTVSPropertyOp49
 70
     1
102
RTVSPropertyOp50
 70
     1
102
RTVSPropertyOp51
 70
     0
102
RTVSPropertyOp52
 70
     0
102
RTVSPropertyOp53
 70
     1
102
RTVSPropertyOp54
 70
     1
102
RTVSPropertyOp55
 70
     1
102
RTVSPropertyOp56
 70
     1
102
RTVSPropertyOp57
 70
     1
102
RTVSPost2010Prop28
280
     0
102
RTVSPost2010PropOp28
 70
     1
102
RTVSPost2010Prop29
280
     1
102
RTVSPost2010PropOp29
 70
     1
102
RTVSPost2010Prop30
280
     1
102
RTVSPost2010PropOp30
 70
     1
102
RTVSPost2010Prop31
280
     0
102
RTVSPost2010PropOp31
 70
     1
102
RTVSPost2010Prop32
280
     0
102
RTVSPost2010PropOp32
 70
     1
102
RTVSPost2010Prop33
280
     0
102
RTVSPost2010PropOp33
 70
     1
102
RTVSPost2010Prop34
280
     0
102
RTVSPost2010PropOp34
 70
     1
102
RTVSPost2010Prop35
280
     0
102
RTVSPost2010PropOp35
 70
     1
102
RTVSPost2010Prop36
280
     0
102
RTVSPost2010PropOp36
 70
     1
102
RTVSPost2010Prop37
 90
       50
102
RTVSPost2010PropOp37
 70
     1
102
RTVSPost2010Prop38
140
0.0
102
RTVSPost2010PropOp38
 70
     1
102
RTVSPost2010Prop39
140
1.0
102
RTVSPost2010PropOp39
 70
     1
102
RTVSPost2010Prop40
 90
        0
102
RTVSPost2010PropOp40
 70
     1
102
RTVSPost2010Prop41ColorIndex
 90
       18
102
RTVSPost2010Prop41ColorRGB
 90
        0
102
RTVSPost2010PropOp41
 70
     1
102
RTVSPost2010Prop42
 90
       50
102
RTVSPost2010PropOp42
 70
     1
102
RTVSPost2010Prop43
 90
        3
102
RTVSPost2010PropOp43
 70
     1
102
RTVSPost2010Prop44ColorIndex
 90
        5
102
RTVSPost2010Prop44ColorRGB
 90
      255
102
RTVSPost2010PropOp44
 70
     1
102
RTVSPost2010Prop45
280
     0
102
RTVSPost2010PropOp45
 70
     1
102
RTVSPost2010Prop46
 90
       50
102
RTVSPost2010PropOp46
 70
     1
102
RTVSPost2010Prop47
 90
       50
102
RTVSPost2010PropOp47
 70
     1
102
RTVSPost2010Prop48
 90
       50
102
RTVSPost2010PropOp48
 70
     1
102
RTVSPost2010Prop49
280
     0
102
RTVSPost2010PropOp49
 70
     1
102
RTVSPost2010Prop50
 90
       50
102
RTVSPost2010PropOp50
 70
     1
102
RTVSPost2010Prop51ColorIndex
 90
      256
102
RTVSPost2010Prop51ColorRGB
 90
-16777216
102
RTVSPost2010PropOp51
 70
     0
102
RTVSPost2010Prop52
140
1.0
102
RTVSPost2010PropOp52
 70
     0
102
RTVSPost2010Prop53
 90
        2
102
RTVSPost2010PropOp53
 70
     1
102
RTVSPost2010Prop54
  1
strokes_ogs.tif
102
RTVSPost2010PropOp54
 70
     1
102
RTVSPost2010Prop55
280
     0
102
RTVSPost2010PropOp55
 70
     1
102
RTVSPost2010Prop56
140
1.0
102
RTVSPost2010PropOp56
 70
     1
102
RTVSPost2010Prop57
140
1.0
102
RTVSPost2010PropOp57
 70
     1
  0
XRECORD
  5
1322
102
{ACAD_REACTORS
330
1321
102
}
330
1321
100
AcDbXrecord
280
     1
102
RTVSPropertyOp0
 70
     1
102
RTVSPropertyOp1
 70
     1
102
RTVSPropertyOp2
 70
     1
102
RTVSPropertyOp3
 70
     1
102
RTVSPropertyOp4
 70
     1
102
RTVSPropertyOp5
 70
     1
102
RTVSPropertyOp6
 70
     1
102
RTVSPropertyOp7
 70
     1
102
RTVSPropertyOp8
 70
     1
102
RTVSPropertyOp9
 70
     1
102
RTVSPropertyOp10
 70
     1
102
RTVSPropertyOp11
 70
     1
102
RTVSPropertyOp12
 70
     1
102
RTVSPropertyOp13
 70
     1
102
RTVSPropertyOp14
 70
     1
102
RTVSPropertyOp15
 70
     1
102
RTVSPropertyOp16
 70
     1
102
RTVSPropertyOp17
 70
     1
102
RTVSPropertyOp18
 70
     1
102
RTVSPropertyOp19
 70
     1
102
RTVSPropertyOp20
 70
     1
102
RTVSPropertyOp21
 70
     1
102
RTVSPropertyOp22
 70
     1
102
RTVSPropertyOp23
 70
     1
102
RTVSPropertyOp24
 70
     1
102
RTVSPropertyOp25
 70
     1
102
RTVSPropertyOp26
 70
     1
102
RTVSPropertyOp27
 70
     1
102
RTVSPropertyOp28
 70
     1
102
RTVSPropertyOp29
 70
     1
102
RTVSPropertyOp30
 70
     1
102
RTVSPropertyOp31
 70
     1
102
RTVSPropertyOp32
 70
     1
102
RTVSPropertyOp33
 70
     1
102
RTVSPropertyOp34
 70
     1
102
RTVSPropertyOp35
 70
     1
102
RTVSPropertyOp36
 70
     1
102
RTVSPropertyOp37
 70
     1
102
RTVSPropertyOp38
 70
     1
102
RTVSPropertyOp39
 70
     1
102
RTVSPropertyOp40
 70
     1
102
RTVSPropertyOp41
 70
     1
102
RTVSPropertyOp42
 70
     1
102
RTVSPropertyOp43
 70
     1
102
RTVSPropertyOp44
 70
     1
102
RTVSPropertyOp45
 70
     1
102
RTVSPropertyOp46
 70
     1
102
RTVSPropertyOp47
 70
     1
102
RTVSPropertyOp48
 70
     1
102
RTVSPropertyOp49
 70
     1
102
RTVSPropertyOp50
 70
     1
102
RTVSPropertyOp51
 70
     0
102
RTVSPropertyOp52
 70
     0
102
RTVSPropertyOp53
 70
     1
102
RTVSPropertyOp54
 70
     1
102
RTVSPropertyOp55
 70
     1
102
RTVSPropertyOp56
 70
     1
102
RTVSPropertyOp57
 70
     1
102
RTVSPost2010Prop28
280
     0
102
RTVSPost2010PropOp28
 70
     1
102
RTVSPost2010Prop29
280
     1
102
RTVSPost2010PropOp29
 70
     1
102
RTVSPost2010Prop30
280
     1
102
RTVSPost2010PropOp30
 70
     1
102
RTVSPost2010Prop31
280
     0
102
RTVSPost2010PropOp31
 70
     1
102
RTVSPost2010Prop32
280
     0
102
RTVSPost2010PropOp32
 70
     1
102
RTVSPost2010Prop33
280
     0
102
RTVSPost2010PropOp33
 70
     1
102
RTVSPost2010Prop34
280
     0
102
RTVSPost2010PropOp34
 70
     1
102
RTVSPost2010Prop35
280
     0
102
RTVSPost2010PropOp35
 70
     1
102
RTVSPost2010Prop36
280
     0
102
RTVSPost2010PropOp36
 70
     1
102
RTVSPost2010Prop37
 90
       50
102
RTVSPost2010PropOp37
 70
     1
102
RTVSPost2010Prop38
140
0.0
102
RTVSPost2010PropOp38
 70
     1
102
RTVSPost2010Prop39
140
1.0
102
RTVSPost2010PropOp39
 70
     1
102
RTVSPost2010Prop40
 90
        0
102
RTVSPost2010PropOp40
 70
     1
102
RTVSPost2010Prop41ColorIndex
 90
       18
102
RTVSPost2010Prop41ColorRGB
 90
        0
102
RTVSPost2010PropOp41
 70
     1
102
RTVSPost2010Prop42
 90
       50
102
RTVSPost2010PropOp42
 70
     1
102
RTVSPost2010Prop43
 90
        3
102
RTVSPost2010PropOp43
 70
     1
102
RTVSPost2010Prop44ColorIndex
 90
        5
102
RTVSPost2010Prop44ColorRGB
 90
      255
102
RTVSPost2010PropOp44
 70
     1
102
RTVSPost2010Prop45
280
     0
102
RTVSPost2010PropOp45
 70
     1
102
RTVSPost2010Prop46
 90
       50
102
RTVSPost2010PropOp46
 70
     1
102
RTVSPost2010Prop47
 90
       50
102
RTVSPost2010PropOp47
 70
     1
102
RTVSPost2010Prop48
 90
       50
102
RTVSPost2010PropOp48
 70
     1
102
RTVSPost2010Prop49
280
     0
102
RTVSPost2010PropOp49
 70
     1
102
RTVSPost2010Prop50
 90
       50
102
RTVSPost2010PropOp50
 70
     1
102
RTVSPost2010Prop51ColorIndex
 90
      256
102
RTVSPost2010Prop51ColorRGB
 90
-16777216
102
RTVSPost2010PropOp51
 70
     0
102
RTVSPost2010Prop52
140
1.0
102
RTVSPost2010PropOp52
 70
     0
102
RTVSPost2010Prop53
 90
        2
102
RTVSPost2010PropOp53
 70
     1
102
RTVSPost2010Prop54
  1
strokes_ogs.tif
102
RTVSPost2010PropOp54
 70
     1
102
RTVSPost2010Prop55
280
     0
102
RTVSPost2010PropOp55
 70
     1
102
RTVSPost2010Prop56
140
1.0
102
RTVSPost2010PropOp56
 70
     1
102
RTVSPost2010Prop57
140
1.0
102
RTVSPost2010PropOp57
 70
     1
  0
XRECORD
  5
1324
102
{ACAD_REACTORS
330
1323
102
}
330
1323
100
AcDbXrecord
280
     1
102
RTVSPropertyOp0
 70
     1
102
RTVSPropertyOp1
 70
     1
102
RTVSPropertyOp2
 70
     1
102
RTVSPropertyOp3
 70
     1
102
RTVSPropertyOp4
 70
     1
102
RTVSPropertyOp5
 70
     1
102
RTVSPropertyOp6
 70
     1
102
RTVSPropertyOp7
 70
     1
102
RTVSPropertyOp8
 70
     1
102
RTVSPropertyOp9
 70
     1
102
RTVSPropertyOp10
 70
     1
102
RTVSPropertyOp11
 70
     1
102
RTVSPropertyOp12
 70
     1
102
RTVSPropertyOp13
 70
     1
102
RTVSPropertyOp14
 70
     1
102
RTVSPropertyOp15
 70
     1
102
RTVSPropertyOp16
 70
     1
102
RTVSPropertyOp17
 70
     1
102
RTVSPropertyOp18
 70
     1
102
RTVSPropertyOp19
 70
     1
102
RTVSPropertyOp20
 70
     1
102
RTVSPropertyOp21
 70
     1
102
RTVSPropertyOp22
 70
     1
102
RTVSPropertyOp23
 70
     1
102
RTVSPropertyOp24
 70
     1
102
RTVSPropertyOp25
 70
     1
102
RTVSPropertyOp26
 70
     1
102
RTVSPropertyOp27
 70
     1
102
RTVSPropertyOp28
 70
     1
102
RTVSPropertyOp29
 70
     1
102
RTVSPropertyOp30
 70
     1
102
RTVSPropertyOp31
 70
     1
102
RTVSPropertyOp32
 70
     1
102
RTVSPropertyOp33
 70
     1
102
RTVSPropertyOp34
 70
     1
102
RTVSPropertyOp35
 70
     1
102
RTVSPropertyOp36
 70
     1
102
RTVSPropertyOp37
 70
     1
102
RTVSPropertyOp38
 70
     1
102
RTVSPropertyOp39
 70
     1
102
RTVSPropertyOp40
 70
     1
102
RTVSPropertyOp41
 70
     1
102
RTVSPropertyOp42
 70
     1
102
RTVSPropertyOp43
 70
     1
102
RTVSPropertyOp44
 70
     1
102
RTVSPropertyOp45
 70
     1
102
RTVSPropertyOp46
 70
     1
102
RTVSPropertyOp47
 70
     1
102
RTVSPropertyOp48
 70
     1
102
RTVSPropertyOp49
 70
     1
102
RTVSPropertyOp50
 70
     1
102
RTVSPropertyOp51
 70
     0
102
RTVSPropertyOp52
 70
     0
102
RTVSPropertyOp53
 70
     1
102
RTVSPropertyOp54
 70
     1
102
RTVSPropertyOp55
 70
     1
102
RTVSPropertyOp56
 70
     1
102
RTVSPropertyOp57
 70
     1
102
RTVSPost2010Prop28
280
     0
102
RTVSPost2010PropOp28
 70
     1
102
RTVSPost2010Prop29
280
     1
102
RTVSPost2010PropOp29
 70
     1
102
RTVSPost2010Prop30
280
     1
102
RTVSPost2010PropOp30
 70
     1
102
RTVSPost2010Prop31
280
     0
102
RTVSPost2010PropOp31
 70
     1
102
RTVSPost2010Prop32
280
     0
102
RTVSPost2010PropOp32
 70
     1
102
RTVSPost2010Prop33
280
     0
102
RTVSPost2010PropOp33
 70
     1
102
RTVSPost2010Prop34
280
     0
102
RTVSPost2010PropOp34
 70
     1
102
RTVSPost2010Prop35
280
     0
102
RTVSPost2010PropOp35
 70
     1
102
RTVSPost2010Prop36
280
     0
102
RTVSPost2010PropOp36
 70
     1
102
RTVSPost2010Prop37
 90
       50
102
RTVSPost2010PropOp37
 70
     1
102
RTVSPost2010Prop38
140
0.0
102
RTVSPost2010PropOp38
 70
     1
102
RTVSPost2010Prop39
140
1.0
102
RTVSPost2010PropOp39
 70
     1
102
RTVSPost2010Prop40
 90
        0
102
RTVSPost2010PropOp40
 70
     1
102
RTVSPost2010Prop41ColorIndex
 90
       18
102
RTVSPost2010Prop41ColorRGB
 90
        0
102
RTVSPost2010PropOp41
 70
     1
102
RTVSPost2010Prop42
 90
       50
102
RTVSPost2010PropOp42
 70
     1
102
RTVSPost2010Prop43
 90
        3
102
RTVSPost2010PropOp43
 70
     1
102
RTVSPost2010Prop44ColorIndex
 90
        5
102
RTVSPost2010Prop44ColorRGB
 90
      255
102
RTVSPost2010PropOp44
 70
     1
102
RTVSPost2010Prop45
280
     0
102
RTVSPost2010PropOp45
 70
     1
102
RTVSPost2010Prop46
 90
       50
102
RTVSPost2010PropOp46
 70
     1
102
RTVSPost2010Prop47
 90
       50
102
RTVSPost2010PropOp47
 70
     1
102
RTVSPost2010Prop48
 90
       50
102
RTVSPost2010PropOp48
 70
     1
102
RTVSPost2010Prop49
280
     0
102
RTVSPost2010PropOp49
 70
     1
102
RTVSPost2010Prop50
 90
       50
102
RTVSPost2010PropOp50
 70
     1
102
RTVSPost2010Prop51ColorIndex
 90
      256
102
RTVSPost2010Prop51ColorRGB
 90
-16777216
102
RTVSPost2010PropOp51
 70
     0
102
RTVSPost2010Prop52
140
1.0
102
RTVSPost2010PropOp52
 70
     0
102
RTVSPost2010Prop53
 90
        2
102
RTVSPost2010PropOp53
 70
     1
102
RTVSPost2010Prop54
  1
strokes_ogs.tif
102
RTVSPost2010PropOp54
 70
     1
102
RTVSPost2010Prop55
280
     0
102
RTVSPost2010PropOp55
 70
     1
102
RTVSPost2010Prop56
140
1.0
102
RTVSPost2010PropOp56
 70
     1
102
RTVSPost2010Prop57
140
1.0
102
RTVSPost2010PropOp57
 70
     1
  0
XRECORD
  5
1326
102
{ACAD_REACTORS
330
1325
102
}
330
1325
100
AcDbXrecord
280
     1
102
RTVSPropertyOp0
 70
     1
102
RTVSPropertyOp1
 70
     1
102
RTVSPropertyOp2
 70
     1
102
RTVSPropertyOp3
 70
     1
102
RTVSPropertyOp4
 70
     1
102
RTVSPropertyOp5
 70
     1
102
RTVSPropertyOp6
 70
     1
102
RTVSPropertyOp7
 70
     1
102
RTVSPropertyOp8
 70
     1
102
RTVSPropertyOp9
 70
     1
102
RTVSPropertyOp10
 70
     1
102
RTVSPropertyOp11
 70
     1
102
RTVSPropertyOp12
 70
     1
102
RTVSPropertyOp13
 70
     1
102
RTVSPropertyOp14
 70
     1
102
RTVSPropertyOp15
 70
     1
102
RTVSPropertyOp16
 70
     1
102
RTVSPropertyOp17
 70
     1
102
RTVSPropertyOp18
 70
     1
102
RTVSPropertyOp19
 70
     1
102
RTVSPropertyOp20
 70
     1
102
RTVSPropertyOp21
 70
     1
102
RTVSPropertyOp22
 70
     1
102
RTVSPropertyOp23
 70
     1
102
RTVSPropertyOp24
 70
     1
102
RTVSPropertyOp25
 70
     1
102
RTVSPropertyOp26
 70
     1
102
RTVSPropertyOp27
 70
     1
102
RTVSPropertyOp28
 70
     1
102
RTVSPropertyOp29
 70
     1
102
RTVSPropertyOp30
 70
     1
102
RTVSPropertyOp31
 70
     1
102
RTVSPropertyOp32
 70
     1
102
RTVSPropertyOp33
 70
     1
102
RTVSPropertyOp34
 70
     1
102
RTVSPropertyOp35
 70
     1
102
RTVSPropertyOp36
 70
     1
102
RTVSPropertyOp37
 70
     1
102
RTVSPropertyOp38
 70
     1
102
RTVSPropertyOp39
 70
     1
102
RTVSPropertyOp40
 70
     1
102
RTVSPropertyOp41
 70
     1
102
RTVSPropertyOp42
 70
     1
102
RTVSPropertyOp43
 70
     1
102
RTVSPropertyOp44
 70
     1
102
RTVSPropertyOp45
 70
     1
102
RTVSPropertyOp46
 70
     1
102
RTVSPropertyOp47
 70
     1
102
RTVSPropertyOp48
 70
     1
102
RTVSPropertyOp49
 70
     1
102
RTVSPropertyOp50
 70
     1
102
RTVSPropertyOp51
 70
     0
102
RTVSPropertyOp52
 70
     0
102
RTVSPropertyOp53
 70
     1
102
RTVSPropertyOp54
 70
     1
102
RTVSPropertyOp55
 70
     1
102
RTVSPropertyOp56
 70
     1
102
RTVSPropertyOp57
 70
     1
102
RTVSPost2010Prop28
280
     0
102
RTVSPost2010PropOp28
 70
     1
102
RTVSPost2010Prop29
280
     1
102
RTVSPost2010PropOp29
 70
     1
102
RTVSPost2010Prop30
280
     1
102
RTVSPost2010PropOp30
 70
     1
102
RTVSPost2010Prop31
280
     0
102
RTVSPost2010PropOp31
 70
     1
102
RTVSPost2010Prop32
280
     0
102
RTVSPost2010PropOp32
 70
     1
102
RTVSPost2010Prop33
280
     0
102
RTVSPost2010PropOp33
 70
     1
102
RTVSPost2010Prop34
280
     0
102
RTVSPost2010PropOp34
 70
     1
102
RTVSPost2010Prop35
280
     0
102
RTVSPost2010PropOp35
 70
     1
102
RTVSPost2010Prop36
280
     0
102
RTVSPost2010PropOp36
 70
     1
102
RTVSPost2010Prop37
 90
       50
102
RTVSPost2010PropOp37
 70
     1
102
RTVSPost2010Prop38
140
0.0
102
RTVSPost2010PropOp38
 70
     1
102
RTVSPost2010Prop39
140
1.0
102
RTVSPost2010PropOp39
 70
     1
102
RTVSPost2010Prop40
 90
        0
102
RTVSPost2010PropOp40
 70
     1
102
RTVSPost2010Prop41ColorIndex
 90
       18
102
RTVSPost2010Prop41ColorRGB
 90
        0
102
RTVSPost2010PropOp41
 70
     1
102
RTVSPost2010Prop42
 90
       50
102
RTVSPost2010PropOp42
 70
     1
102
RTVSPost2010Prop43
 90
        3
102
RTVSPost2010PropOp43
 70
     1
102
RTVSPost2010Prop44ColorIndex
 90
        5
102
RTVSPost2010Prop44ColorRGB
 90
      255
102
RTVSPost2010PropOp44
 70
     1
102
RTVSPost2010Prop45
280
     0
102
RTVSPost2010PropOp45
 70
     1
102
RTVSPost2010Prop46
 90
       50
102
RTVSPost2010PropOp46
 70
     1
102
RTVSPost2010Prop47
 90
       50
102
RTVSPost2010PropOp47
 70
     1
102
RTVSPost2010Prop48
 90
       50
102
RTVSPost2010PropOp48
 70
     1
102
RTVSPost2010Prop49
280
     0
102
RTVSPost2010PropOp49
 70
     1
102
RTVSPost2010Prop50
 90
       50
102
RTVSPost2010PropOp50
 70
     1
102
RTVSPost2010Prop51ColorIndex
 90
      256
102
RTVSPost2010Prop51ColorRGB
 90
-16777216
102
RTVSPost2010PropOp51
 70
     0
102
RTVSPost2010Prop52
140
1.0
102
RTVSPost2010PropOp52
 70
     0
102
RTVSPost2010Prop53
 90
        2
102
RTVSPost2010PropOp53
 70
     1
102
RTVSPost2010Prop54
  1
strokes_ogs.tif
102
RTVSPost2010PropOp54
 70
     1
102
RTVSPost2010Prop55
280
     0
102
RTVSPost2010PropOp55
 70
     1
102
RTVSPost2010Prop56
140
1.0
102
RTVSPost2010PropOp56
 70
     1
102
RTVSPost2010Prop57
140
1.0
102
RTVSPost2010PropOp57
 70
     1
  0
XRECORD
  5
1328
102
{ACAD_REACTORS
330
1327
102
}
330
1327
100
AcDbXrecord
280
     1
102
RTVSPropertyOp0
 70
     1
102
RTVSPropertyOp1
 70
     1
102
RTVSPropertyOp2
 70
     1
102
RTVSPropertyOp3
 70
     1
102
RTVSPropertyOp4
 70
     1
102
RTVSPropertyOp5
 70
     1
102
RTVSPropertyOp6
 70
     1
102
RTVSPropertyOp7
 70
     1
102
RTVSPropertyOp8
 70
     1
102
RTVSPropertyOp9
 70
     1
102
RTVSPropertyOp10
 70
     1
102
RTVSPropertyOp11
 70
     1
102
RTVSPropertyOp12
 70
     1
102
RTVSPropertyOp13
 70
     1
102
RTVSPropertyOp14
 70
     1
102
RTVSPropertyOp15
 70
     1
102
RTVSPropertyOp16
 70
     1
102
RTVSPropertyOp17
 70
     1
102
RTVSPropertyOp18
 70
     1
102
RTVSPropertyOp19
 70
     1
102
RTVSPropertyOp20
 70
     1
102
RTVSPropertyOp21
 70
     1
102
RTVSPropertyOp22
 70
     1
102
RTVSPropertyOp23
 70
     1
102
RTVSPropertyOp24
 70
     1
102
RTVSPropertyOp25
 70
     1
102
RTVSPropertyOp26
 70
     1
102
RTVSPropertyOp27
 70
     1
102
RTVSPropertyOp28
 70
     1
102
RTVSPropertyOp29
 70
     1
102
RTVSPropertyOp30
 70
     1
102
RTVSPropertyOp31
 70
     1
102
RTVSPropertyOp32
 70
     1
102
RTVSPropertyOp33
 70
     1
102
RTVSPropertyOp34
 70
     1
102
RTVSPropertyOp35
 70
     1
102
RTVSPropertyOp36
 70
     1
102
RTVSPropertyOp37
 70
     1
102
RTVSPropertyOp38
 70
     1
102
RTVSPropertyOp39
 70
     1
102
RTVSPropertyOp40
 70
     1
102
RTVSPropertyOp41
 70
     1
102
RTVSPropertyOp42
 70
     1
102
RTVSPropertyOp43
 70
     1
102
RTVSPropertyOp44
 70
     1
102
RTVSPropertyOp45
 70
     1
102
RTVSPropertyOp46
 70
     1
102
RTVSPropertyOp47
 70
     1
102
RTVSPropertyOp48
 70
     1
102
RTVSPropertyOp49
 70
     1
102
RTVSPropertyOp50
 70
     1
102
RTVSPropertyOp51
 70
     0
102
RTVSPropertyOp52
 70
     0
102
RTVSPropertyOp53
 70
     1
102
RTVSPropertyOp54
 70
     1
102
RTVSPropertyOp55
 70
     1
102
RTVSPropertyOp56
 70
     1
102
RTVSPropertyOp57
 70
     1
102
RTVSPost2010Prop28
280
     0
102
RTVSPost2010PropOp28
 70
     1
102
RTVSPost2010Prop29
280
     1
102
RTVSPost2010PropOp29
 70
     1
102
RTVSPost2010Prop30
280
     1
102
RTVSPost2010PropOp30
 70
     1
102
RTVSPost2010Prop31
280
     0
102
RTVSPost2010PropOp31
 70
     1
102
RTVSPost2010Prop32
280
     0
102
RTVSPost2010PropOp32
 70
     1
102
RTVSPost2010Prop33
280
     0
102
RTVSPost2010PropOp33
 70
     1
102
RTVSPost2010Prop34
280
     0
102
RTVSPost2010PropOp34
 70
     1
102
RTVSPost2010Prop35
280
     0
102
RTVSPost2010PropOp35
 70
     1
102
RTVSPost2010Prop36
280
     0
102
RTVSPost2010PropOp36
 70
     1
102
RTVSPost2010Prop37
 90
       50
102
RTVSPost2010PropOp37
 70
     1
102
RTVSPost2010Prop38
140
0.0
102
RTVSPost2010PropOp38
 70
     1
102
RTVSPost2010Prop39
140
1.0
102
RTVSPost2010PropOp39
 70
     1
102
RTVSPost2010Prop40
 90
        0
102
RTVSPost2010PropOp40
 70
     1
102
RTVSPost2010Prop41ColorIndex
 90
       18
102
RTVSPost2010Prop41ColorRGB
 90
        0
102
RTVSPost2010PropOp41
 70
     1
102
RTVSPost2010Prop42
 90
       50
102
RTVSPost2010PropOp42
 70
     1
102
RTVSPost2010Prop43
 90
        3
102
RTVSPost2010PropOp43
 70
     1
102
RTVSPost2010Prop44ColorIndex
 90
        5
102
RTVSPost2010Prop44ColorRGB
 90
      255
102
RTVSPost2010PropOp44
 70
     1
102
RTVSPost2010Prop45
280
     0
102
RTVSPost2010PropOp45
 70
     1
102
RTVSPost2010Prop46
 90
       50
102
RTVSPost2010PropOp46
 70
     1
102
RTVSPost2010Prop47
 90
       50
102
RTVSPost2010PropOp47
 70
     1
102
RTVSPost2010Prop48
 90
       50
102
RTVSPost2010PropOp48
 70
     1
102
RTVSPost2010Prop49
280
     0
102
RTVSPost2010PropOp49
 70
     1
102
RTVSPost2010Prop50
 90
       50
102
RTVSPost2010PropOp50
 70
     1
102
RTVSPost2010Prop51ColorIndex
 90
      256
102
RTVSPost2010Prop51ColorRGB
 90
-16777216
102
RTVSPost2010PropOp51
 70
     0
102
RTVSPost2010Prop52
140
1.0
102
RTVSPost2010PropOp52
 70
     0
102
RTVSPost2010Prop53
 90
        2
102
RTVSPost2010PropOp53
 70
     1
102
RTVSPost2010Prop54
  1
strokes_ogs.tif
102
RTVSPost2010PropOp54
 70
     1
102
RTVSPost2010Prop55
280
     0
102
RTVSPost2010PropOp55
 70
     1
102
RTVSPost2010Prop56
140
1.0
102
RTVSPost2010PropOp56
 70
     1
102
RTVSPost2010Prop57
140
1.0
102
RTVSPost2010PropOp57
 70
     1
  0
XRECORD
  5
132A
102
{ACAD_REACTORS
330
1329
102
}
330
1329
100
AcDbXrecord
280
     1
102
RTVSPropertyOp0
 70
     1
102
RTVSPropertyOp1
 70
     1
102
RTVSPropertyOp2
 70
     1
102
RTVSPropertyOp3
 70
     1
102
RTVSPropertyOp4
 70
     1
102
RTVSPropertyOp5
 70
     1
102
RTVSPropertyOp6
 70
     1
102
RTVSPropertyOp7
 70
     1
102
RTVSPropertyOp8
 70
     1
102
RTVSPropertyOp9
 70
     1
102
RTVSPropertyOp10
 70
     1
102
RTVSPropertyOp11
 70
     1
102
RTVSPropertyOp12
 70
     1
102
RTVSPropertyOp13
 70
     1
102
RTVSPropertyOp14
 70
     1
102
RTVSPropertyOp15
 70
     1
102
RTVSPropertyOp16
 70
     1
102
RTVSPropertyOp17
 70
     1
102
RTVSPropertyOp18
 70
     1
102
RTVSPropertyOp19
 70
     1
102
RTVSPropertyOp20
 70
     1
102
RTVSPropertyOp21
 70
     1
102
RTVSPropertyOp22
 70
     1
102
RTVSPropertyOp23
 70
     1
102
RTVSPropertyOp24
 70
     1
102
RTVSPropertyOp25
 70
     1
102
RTVSPropertyOp26
 70
     1
102
RTVSPropertyOp27
 70
     1
102
RTVSPropertyOp28
 70
     1
102
RTVSPropertyOp29
 70
     1
102
RTVSPropertyOp30
 70
     1
102
RTVSPropertyOp31
 70
     1
102
RTVSPropertyOp32
 70
     1
102
RTVSPropertyOp33
 70
     1
102
RTVSPropertyOp34
 70
     1
102
RTVSPropertyOp35
 70
     1
102
RTVSPropertyOp36
 70
     1
102
RTVSPropertyOp37
 70
     1
102
RTVSPropertyOp38
 70
     1
102
RTVSPropertyOp39
 70
     1
102
RTVSPropertyOp40
 70
     1
102
RTVSPropertyOp41
 70
     1
102
RTVSPropertyOp42
 70
     1
102
RTVSPropertyOp43
 70
     1
102
RTVSPropertyOp44
 70
     1
102
RTVSPropertyOp45
 70
     1
102
RTVSPropertyOp46
 70
     1
102
RTVSPropertyOp47
 70
     1
102
RTVSPropertyOp48
 70
     1
102
RTVSPropertyOp49
 70
     1
102
RTVSPropertyOp50
 70
     1
102
RTVSPropertyOp51
 70
     0
102
RTVSPropertyOp52
 70
     0
102
RTVSPropertyOp53
 70
     1
102
RTVSPropertyOp54
 70
     1
102
RTVSPropertyOp55
 70
     1
102
RTVSPropertyOp56
 70
     1
102
RTVSPropertyOp57
 70
     1
102
RTVSPost2010Prop28
280
     0
102
RTVSPost2010PropOp28
 70
     1
102
RTVSPost2010Prop29
280
     1
102
RTVSPost2010PropOp29
 70
     1
102
RTVSPost2010Prop30
280
     1
102
RTVSPost2010PropOp30
 70
     1
102
RTVSPost2010Prop31
280
     0
102
RTVSPost2010PropOp31
 70
     1
102
RTVSPost2010Prop32
280
     0
102
RTVSPost2010PropOp32
 70
     1
102
RTVSPost2010Prop33
280
     0
102
RTVSPost2010PropOp33
 70
     1
102
RTVSPost2010Prop34
280
     0
102
RTVSPost2010PropOp34
 70
     1
102
RTVSPost2010Prop35
280
     0
102
RTVSPost2010PropOp35
 70
     1
102
RTVSPost2010Prop36
280
     0
102
RTVSPost2010PropOp36
 70
     1
102
RTVSPost2010Prop37
 90
       50
102
RTVSPost2010PropOp37
 70
     1
102
RTVSPost2010Prop38
140
0.0
102
RTVSPost2010PropOp38
 70
     1
102
RTVSPost2010Prop39
140
1.0
102
RTVSPost2010PropOp39
 70
     1
102
RTVSPost2010Prop40
 90
        0
102
RTVSPost2010PropOp40
 70
     1
102
RTVSPost2010Prop41ColorIndex
 90
       18
102
RTVSPost2010Prop41ColorRGB
 90
        0
102
RTVSPost2010PropOp41
 70
     1
102
RTVSPost2010Prop42
 90
       50
102
RTVSPost2010PropOp42
 70
     1
102
RTVSPost2010Prop43
 90
        3
102
RTVSPost2010PropOp43
 70
     1
102
RTVSPost2010Prop44ColorIndex
 90
        5
102
RTVSPost2010Prop44ColorRGB
 90
      255
102
RTVSPost2010PropOp44
 70
     1
102
RTVSPost2010Prop45
280
     0
102
RTVSPost2010PropOp45
 70
     1
102
RTVSPost2010Prop46
 90
       50
102
RTVSPost2010PropOp46
 70
     1
102
RTVSPost2010Prop47
 90
       50
102
RTVSPost2010PropOp47
 70
     1
102
RTVSPost2010Prop48
 90
       50
102
RTVSPost2010PropOp48
 70
     1
102
RTVSPost2010Prop49
280
     0
102
RTVSPost2010PropOp49
 70
     1
102
RTVSPost2010Prop50
 90
       50
102
RTVSPost2010PropOp50
 70
     1
102
RTVSPost2010Prop51ColorIndex
 90
      256
102
RTVSPost2010Prop51ColorRGB
 90
-16777216
102
RTVSPost2010PropOp51
 70
     0
102
RTVSPost2010Prop52
140
1.0
102
RTVSPost2010PropOp52
 70
     0
102
RTVSPost2010Prop53
 90
        2
102
RTVSPost2010PropOp53
 70
     1
102
RTVSPost2010Prop54
  1
strokes_ogs.tif
102
RTVSPost2010PropOp54
 70
     1
102
RTVSPost2010Prop55
280
     0
102
RTVSPost2010PropOp55
 70
     1
102
RTVSPost2010Prop56
140
1.0
102
RTVSPost2010PropOp56
 70
     1
102
RTVSPost2010Prop57
140
1.0
102
RTVSPost2010PropOp57
 70
     1
  0
ENDSEC
  0
EOF
