  0
SECTION
  2
HEADER
  9
$ACADVER
  1
AC1021
  9
$ACADMAINTVER
 70
    25
  9
$DWGCODEPAGE
  3
ANSI_932
  9
$LASTSAVEDBY
  1
nakashinde
  9
$INSBASE
 10
0.0
 20
0.0
 30
0.0
  9
$EXTMIN
 10
5.0
 20
10.0
 30
0.0
  9
$EXTMAX
 10
410.0
 20
287.0
 30
0.0
  9
$LIMMIN
 10
4.998999999999997
 20
9.999
  9
$LIMMAX
 10
410.123528
 20
287.001
  9
$ORTHOMODE
 70
     1
  9
$REGENMODE
 70
     1
  9
$FILLMODE
 70
     1
  9
$QTEXTMODE
 70
     0
  9
$MIRRTEXT
 70
     0
  9
$LTSCALE
 40
6.752041999999997
  9
$ATTMODE
 70
     1
  9
$TEXTSIZE
 40
3.2
  9
$TRACEWID
 40
0.05
  9
$TEXTSTYLE
  7
高3.2
  9
$CLAYER
  8
0
  9
$CELTYPE
  6
CONTINUOUS
  9
$CECOLOR
 62
   256
  9
$CELTSCALE
 40
1.0
  9
$DISPSILH
 70
     0
  9
$DIMSCALE
 40
1.0
  9
$DIMASZ
 40
2.5
  9
$DIMEXO
 40
0.25
  9
$DIMDLI
 40
0.2
  9
$DIMRND
 40
0.0
  9
$DIMDLE
 40
0.0
  9
$DIMEXE
 40
1.25
  9
$DIMTP
 40
0.0
  9
$DIMTM
 40
0.0
  9
$DIMTXT
 40
3.0
  9
$DIMCEN
 40
0.0
  9
$DIMTSZ
 40
0.0
  9
$DIMTOL
 70
     0
  9
$DIMLIM
 70
     0
  9
$DIMTIH
 70
     0
  9
$DIMTOH
 70
     0
  9
$DIMSE1
 70
     0
  9
$DIMSE2
 70
     0
  9
$DIMTAD
 70
     3
  9
$DIMZIN
 70
     8
  9
$DIMBLK
  1
Open30
  9
$DIMASO
 70
     1
  9
$DIMSHO
 70
     1
  9
$DIMPOST
  1

  9
$DIMAPOST
  1

  9
$DIMALT
 70
     0
  9
$DIMALTD
 70
     3
  9
$DIMALTF
 40
0.03937007874016
  9
$DIMLFAC
 40
1.0
  9
$DIMTOFL
 70
     1
  9
$DIMTVP
 40
0.0
  9
$DIMTIX
 70
     0
  9
$DIMSOXD
 70
     0
  9
$DIMSAH
 70
     0
  9
$DIMBLK1
  1

  9
$DIMBLK2
  1

  9
$DIMSTYLE
  2
FREE
  9
$DIMCLRD
 70
     0
  9
$DIMCLRE
 70
     0
  9
$DIMCLRT
 70
     4
  9
$DIMTFAC
 40
1.0
  9
$DIMGAP
 40
0.625
  9
$DIMJUST
 70
     0
  9
$DIMSD1
 70
     0
  9
$DIMSD2
 70
     0
  9
$DIMTOLJ
 70
     0
  9
$DIMTZIN
 70
     8
  9
$DIMALTZ
 70
     0
  9
$DIMALTTZ
 70
     0
  9
$DIMUPT
 70
     1
  9
$DIMDEC
 70
     2
  9
$DIMTDEC
 70
     2
  9
$DIMALTU
 70
     2
  9
$DIMALTTD
 70
     3
  9
$DIMTXSTY
  7
STANDARD
  9
$DIMAUNIT
 70
     0
  9
$DIMADEC
 70
     1
  9
$DIMALTRND
 40
0.0
  9
$DIMAZIN
 70
     2
  9
$DIMDSEP
 70
    46
  9
$DIMATFIT
 70
     0
  9
$DIMFRAC
 70
     0
  9
$DIMLDRBLK
  1
Open30
  9
$DIMLUNIT
 70
     2
  9
$DIMLWD
 70
    -2
  9
$DIMLWE
 70
    -2
  9
$DIMTMOVE
 70
     0
  9
$DIMFXL
 40
1.0
  9
$DIMFXLON
 70
     0
  9
$DIMJOGANG
 40
0.7853981633974483
  9
$DIMTFILL
 70
     0
  9
$DIMTFILLCLR
 70
     0
  9
$DIMARCSYM
 70
     0
  9
$DIMLTYPE
  6

  9
$DIMLTEX1
  6

  9
$DIMLTEX2
  6

  9
$LUNITS
 70
     2
  9
$LUPREC
 70
     4
  9
$SKETCHINC
 40
0.1
  9
$FILLETRAD
 40
0.0
  9
$AUNITS
 70
     0
  9
$AUPREC
 70
     0
  9
$MENU
  1
.
  9
$ELEVATION
 40
0.0
  9
$PELEVATION
 40
0.0
  9
$THICKNESS
 40
0.0
  9
$LIMCHECK
 70
     0
  9
$CHAMFERA
 40
0.0
  9
$CHAMFERB
 40
0.0
  9
$CHAMFERC
 40
0.0
  9
$CHAMFERD
 40
0.0
  9
$SKPOLY
 70
     0
  9
$TDCREATE
 40
2455894.490252083
  9
$TDUCREATE
 40
2455894.115252083
  9
$TDUPDATE
 40
2458962.614891146
  9
$TDUUPDATE
 40
2458962.239891146
  9
$TDINDWG
 40
0.0480615741
  9
$TDUSRTIMER
 40
0.0480612269
  9
$USRTIMER
 70
     1
  9
$ANGBASE
 50
0.0
  9
$ANGDIR
 70
     0
  9
$PDMODE
 70
     0
  9
$PDSIZE
 40
0.0
  9
$PLINEWID
 40
0.0
  9
$SPLFRAME
 70
     0
  9
$SPLINETYPE
 70
     6
  9
$SPLINESEGS
 70
     8
  9
$HANDSEED
  5
CC6
  9
$SURFTAB1
 70
     6
  9
$SURFTAB2
 70
     6
  9
$SURFTYPE
 70
     6
  9
$SURFU
 70
     6
  9
$SURFV
 70
     6
  9
$UCSBASE
  2

  9
$UCSNAME
  2

  9
$UCSORG
 10
0.0
 20
0.0
 30
0.0
  9
$UCSXDIR
 10
1.0
 20
0.0
 30
0.0
  9
$UCSYDIR
 10
0.0
 20
1.0
 30
0.0
  9
$UCSORTHOREF
  2

  9
$UCSORTHOVIEW
 70
     0
  9
$UCSORGTOP
 10
0.0
 20
0.0
 30
0.0
  9
$UCSORGBOTTOM
 10
0.0
 20
0.0
 30
0.0
  9
$UCSORGLEFT
 10
0.0
 20
0.0
 30
0.0
  9
$UCSORGRIGHT
 10
0.0
 20
0.0
 30
0.0
  9
$UCSORGFRONT
 10
0.0
 20
0.0
 30
0.0
  9
$UCSORGBACK
 10
0.0
 20
0.0
 30
0.0
  9
$PUCSBASE
  2

  9
$PUCSNAME
  2

  9
$PUCSORG
 10
0.0
 20
0.0
 30
0.0
  9
$PUCSXDIR
 10
1.0
 20
0.0
 30
0.0
  9
$PUCSYDIR
 10
0.0
 20
1.0
 30
0.0
  9
$PUCSORTHOREF
  2

  9
$PUCSORTHOVIEW
 70
     0
  9
$PUCSORGTOP
 10
0.0
 20
0.0
 30
0.0
  9
$PUCSORGBOTTOM
 10
0.0
 20
0.0
 30
0.0
  9
$PUCSORGLEFT
 10
0.0
 20
0.0
 30
0.0
  9
$PUCSORGRIGHT
 10
0.0
 20
0.0
 30
0.0
  9
$PUCSORGFRONT
 10
0.0
 20
0.0
 30
0.0
  9
$PUCSORGBACK
 10
0.0
 20
0.0
 30
0.0
  9
$USERI1
 70
     0
  9
$USERI2
 70
     0
  9
$USERI3
 70
     0
  9
$USERI4
 70
     0
  9
$USERI5
 70
     0
  9
$USERR1
 40
0.0
  9
$USERR2
 40
0.0
  9
$USERR3
 40
0.0
  9
$USERR4
 40
0.0
  9
$USERR5
 40
0.0
  9
$WORLDVIEW
 70
     1
  9
$SHADEDGE
 70
     3
  9
$SHADEDIF
 70
    70
  9
$TILEMODE
 70
     1
  9
$MAXACTVP
 70
    64
  9
$PINSBASE
 10
0.0
 20
0.0
 30
0.0
  9
$PLIMCHECK
 70
     0
  9
$PEXTMIN
 10
1.000000000000000E+20
 20
1.000000000000000E+20
 30
1.000000000000000E+20
  9
$PEXTMAX
 10
-1.000000000000000E+20
 20
-1.000000000000000E+20
 30
-1.000000000000000E+20
  9
$PLIMMIN
 10
0.0
 20
0.0
  9
$PLIMMAX
 10
12.0
 20
9.0
  9
$UNITMODE
 70
     0
  9
$VISRETAIN
 70
     1
  9
$PLINEGEN
 70
     0
  9
$PSLTSCALE
 70
     1
  9
$TREEDEPTH
 70
  3020
  9
$CMLSTYLE
  2
Standard
  9
$CMLJUST
 70
     0
  9
$CMLSCALE
 40
1.0
  9
$PROXYGRAPHICS
 70
     1
  9
$MEASUREMENT
 70
     0
  9
$CELWEIGHT
370
    -1
  9
$ENDCAPS
280
     0
  9
$JOINSTYLE
280
     0
  9
$LWDISPLAY
290
     0
  9
$INSUNITS
 70
     0
  9
$HYPERLINKBASE
  1

  9
$STYLESHEET
  1
N-PLOT.CTB
  9
$XEDIT
290
     1
  9
$CEPSNTYPE
380
     0
  9
$PSTYLEMODE
290
     1
  9
$FINGERPRINTGUID
  2
{F72F9BB2-92C1-4FAA-A6CD-6E1BC871DE24}
  9
$VERSIONGUID
  2
{CB2A89EE-9C21-4844-8246-5776D940FFE6}
  9
$EXTNAMES
290
     1
  9
$PSVPSCALE
 40
0.0
  9
$OLESTARTUP
290
     0
  9
$SORTENTS
280
   127
  9
$INDEXCTL
280
     0
  9
$HIDETEXT
280
     1
  9
$XCLIPFRAME
290
     0
  9
$HALOGAP
280
     0
  9
$OBSCOLOR
 70
   257
  9
$OBSLTYPE
280
     0
  9
$INTERSECTIONDISPLAY
280
     0
  9
$INTERSECTIONCOLOR
 70
   257
  9
$DIMASSOC
280
     1
  9
$PROJECTNAME
  1

  9
$CAMERADISPLAY
290
     0
  9
$LENSLENGTH
 40
50.0
  9
$CAMERAHEIGHT
 40
0.0
  9
$STEPSPERSEC
 40
2.0
  9
$STEPSIZE
 40
6.0
  9
$3DDWFPREC
 40
2.0
  9
$PSOLWIDTH
 40
0.25
  9
$PSOLHEIGHT
 40
4.0
  9
$LOFTANG1
 40
1.570796326794897
  9
$LOFTANG2
 40
1.570796326794897
  9
$LOFTMAG1
 40
0.0
  9
$LOFTMAG2
 40
0.0
  9
$LOFTPARAM
 70
     7
  9
$LOFTNORMALS
280
     1
  9
$LATITUDE
 40
37.795
  9
$LONGITUDE
 40
-122.394
  9
$NORTHDIRECTION
 40
0.0
  9
$TIMEZONE
 70
 -8000
  9
$LIGHTGLYPHDISPLAY
280
     1
  9
$TILEMODELIGHTSYNCH
280
     1
  9
$CMATERIAL
347
11
  9
$SOLIDHIST
280
     1
  9
$SHOWHIST
280
     1
  9
$DWFFRAME
280
     2
  9
$DGNFRAME
280
     0
  9
$REALWORLDSCALE
290
     1
  9
$INTERFERECOLOR
 62
   256
  9
$INTERFEREOBJVS
345
1E
  9
$INTERFEREVPVS
346
50E
  9
$CSHADOW
280
     0
  9
$SHADOWPLANELOCATION
 40
0.0
  0
ENDSEC
  0
SECTION
  2
CLASSES
  0
CLASS
  1
ACDBDICTIONARYWDFLT
  2
AcDbDictionaryWithDefault
  3
ObjectDBX Classes
 90
        0
 91
        4
280
     0
281
     0
  0
CLASS
  1
MATERIAL
  2
AcDbMaterial
  3
ObjectDBX Classes
 90
     1153
 91
        4
280
     0
281
     0
  0
CLASS
  1
VISUALSTYLE
  2
AcDbVisualStyle
  3
ObjectDBX Classes
 90
     4095
 91
        4
280
     0
281
     0
  0
CLASS
  1
TABLESTYLE
  2
AcDbTableStyle
  3
ObjectDBX Classes
 90
     4095
 91
        4
280
     0
281
     0
  0
CLASS
  1
SORTENTSTABLE
  2
AcDbSortentsTable
  3
ObjectDBX Classes
 90
        0
 91
        4
280
     0
281
     0
  0
CLASS
  1
DICTIONARYVAR
  2
AcDbDictionaryVar
  3
ObjectDBX Classes
 90
        0
 91
        4
280
     0
281
     0
  0
CLASS
  1
ACDBPLACEHOLDER
  2
AcDbPlaceHolder
  3
ObjectDBX Classes
 90
        0
 91
        1
280
     0
281
     0
  0
CLASS
  1
LAYOUT
  2
AcDbLayout
  3
ObjectDBX Classes
 90
        0
 91
        1
280
     0
281
     0
  0
CLASS
  1
SCALE
  2
AcDbScale
  3
ObjectDBX Classes
 90
     1153
 91
        4
280
     0
281
     0
  0
CLASS
  1
MLEADERSTYLE
  2
AcDbMLeaderStyle
  3
ACDB_MLEADERSTYLE_CLASS
 90
     4095
 91
        4
280
     0
281
     0
  0
CLASS
  1
CELLSTYLEMAP
  2
AcDbCellStyleMap
  3
ObjectDBX Classes
 90
     1152
 91
        4
280
     0
281
     0
  0
ENDSEC
  0
SECTION
  2
TABLES
  0
TABLE
  2
VPORT
  5
8
330
0
100
AcDbSymbolTable
 70
     1
  0
VPORT
  5
56
330
8
100
AcDbSymbolTableRecord
100
AcDbViewportTableRecord
  2
*Active
 70
     0
 10
0.0
 20
0.0
 11
1.0
 21
1.0
 12
207.5
 22
148.5
 13
0.0
 23
0.0
 14
1.0
 24
1.0
 15
0.0
 25
0.0
 16
0.0
 26
0.0
 36
1.0
 17
0.0
 27
0.0
 37
0.0
 40
280.1566951566952
 41
1.756338028169014
 42
50.0
 43
0.0
 44
0.0
 50
0.0
 51
0.0
 71
     0
 72
   100
 73
     1
 74
     1
 75
     0
 76
     0
 77
     0
 78
     0
281
     0
 65
     1
110
0.0
120
0.0
130
0.0
111
1.0
121
0.0
131
0.0
112
0.0
122
1.0
132
0.0
 79
     0
146
0.0
348
1A
 60
     3
 61
     5
292
     1
282
     1
141
0.0
142
0.0
 63
   250
  0
ENDTAB
  0
TABLE
  2
LTYPE
  5
5
330
0
100
AcDbSymbolTable
 70
     2
  0
LTYPE
  5
28
330
5
100
AcDbSymbolTableRecord
100
AcDbLinetypeTableRecord
  2
ByBlock
 70
     0
  3

 72
    65
 73
     0
 40
0.0
  0
LTYPE
  5
29
330
5
100
AcDbSymbolTableRecord
100
AcDbLinetypeTableRecord
  2
ByLayer
 70
     0
  3

 72
    65
 73
     0
 40
0.0
  0
LTYPE
  5
2A
330
5
100
AcDbSymbolTableRecord
100
AcDbLinetypeTableRecord
  2
CONTINUOUS
 70
     0
  3
Solid-line
 72
    65
 73
     0
 40
0.0
  0
LTYPE
  5
3D
330
5
100
AcDbSymbolTableRecord
100
AcDbLinetypeTableRecord
  2
CENTER
 70
     0
  3
CENTER
 72
    65
 73
     4
 40
2.0
 49
1.25
 74
     0
 49
-0.25
 74
     0
 49
0.25
 74
     0
 49
-0.25
 74
     0
  0
ENDTAB
  0
TABLE
  2
LAYER
  5
2
102
{ACAD_XDICTIONARY
360
4A2
102
}
330
0
100
AcDbSymbolTable
 70
     2
  0
LAYER
  5
25
102
{ACAD_XDICTIONARY
360
7A6
102
}
330
2
100
AcDbSymbolTableRecord
100
AcDbLayerTableRecord
  2
0
 70
     0
 62
     7
  6
CONTINUOUS
370
    -3
390
F
347
13
  0
LAYER
  5
5B7
330
2
100
AcDbSymbolTableRecord
100
AcDbLayerTableRecord
  2
Defpoints
 70
     0
 62
     7
  6
CONTINUOUS
290
     0
370
    -3
390
F
347
13
  0
ENDTAB
  0
TABLE
  2
STYLE
  5
3
330
0
100
AcDbSymbolTable
 70
     6
  0
STYLE
  5
26
330
3
100
AcDbSymbolTableRecord
100
AcDbTextStyleTableRecord
  2
STANDARD
 70
     0
 40
0.0
 41
1.0
 50
0.0
 71
     0
 42
0.2
  3
TXT
  4
BIGFONT
  0
STYLE
  5
496
330
3
100
AcDbSymbolTableRecord
100
AcDbTextStyleTableRecord
  2
高2.5
 70
     0
 40
2.5
 41
1.0
 50
0.0
 71
     0
 42
2.5
  3
txt.shx
  4
bigfont.shx
  0
STYLE
  5
497
330
3
100
AcDbSymbolTableRecord
100
AcDbTextStyleTableRecord
  2
高2
 70
     0
 40
2.0
 41
1.0
 50
0.0
 71
     0
 42
6.299999999999998
  3
txt.shx
  4
bigfont.shx
  0
STYLE
  5
5B8
330
3
100
AcDbSymbolTableRecord
100
AcDbTextStyleTableRecord
  2
高3.2
 70
     0
 40
3.2
 41
1.0
 50
0.0
 71
     0
 42
3.2
  3
txt.shx
  4
bigfont.shx
  0
STYLE
  5
5B9
330
3
100
AcDbSymbolTableRecord
100
AcDbTextStyleTableRecord
  2
高6.3
 70
     0
 40
6.299999999999998
 41
1.0
 50
0.0
 71
     0
 42
6.299999999999998
  3
txt.shx
  4
bigfont.shx
  0
STYLE
  5
5BA
330
3
100
AcDbSymbolTableRecord
100
AcDbTextStyleTableRecord
  2
高4.5
 70
     0
 40
4.5
 41
1.0
 50
0.0
 71
     0
 42
6.299999999999998
  3
txt.shx
  4
bigfont.shx
  0
ENDTAB
  0
TABLE
  2
VIEW
  5
6
330
0
100
AcDbSymbolTable
 70
     0
  0
ENDTAB
  0
TABLE
  2
UCS
  5
7
330
0
100
AcDbSymbolTable
 70
     0
  0
ENDTAB
  0
TABLE
  2
APPID
  5
9
330
0
100
AcDbSymbolTable
 70
    11
  0
APPID
  5
27
330
9
100
AcDbSymbolTableRecord
100
AcDbRegAppTableRecord
  2
ACAD
 70
     0
  0
APPID
  5
49D
330
9
100
AcDbSymbolTableRecord
100
AcDbRegAppTableRecord
  2
ACAD_DSTYLE_DIMJOGGED_JOGANGLE_SYMBOL
 70
     0
  0
APPID
  5
49E
330
9
100
AcDbSymbolTableRecord
100
AcDbRegAppTableRecord
  2
ACAD_DSTYLE_DIMJAG
 70
     0
  0
APPID
  5
49F
330
9
100
AcDbSymbolTableRecord
100
AcDbRegAppTableRecord
  2
ACAD_DSTYLE_DIMBREAK
 70
     0
  0
APPID
  5
4A0
330
9
100
AcDbSymbolTableRecord
100
AcDbRegAppTableRecord
  2
ACAD_DSTYLE_DIMTALN
 70
     0
  0
APPID
  5
4A1
330
9
100
AcDbSymbolTableRecord
100
AcDbRegAppTableRecord
  2
ACAD_PSEXT
 70
     0
  0
APPID
  5
507
330
9
100
AcDbSymbolTableRecord
100
AcDbRegAppTableRecord
  2
ACAD_DSTYLE_DIMARC_LENGTH_SYMBOL
 70
     0
  0
APPID
  5
508
330
9
100
AcDbSymbolTableRecord
100
AcDbRegAppTableRecord
  2
ACAD_DSTYLE_DIMEXT_LENGTH
 70
     0
  0
APPID
  5
6D0
330
9
100
AcDbSymbolTableRecord
100
AcDbRegAppTableRecord
  2
ACAD_EXEMPT_FROM_CAD_STANDARDS
 70
     0
  0
APPID
  5
882
330
9
100
AcDbSymbolTableRecord
100
AcDbRegAppTableRecord
  2
ACAD_MLEADERVER
 70
     0
  0
APPID
  5
A93
330
9
100
AcDbSymbolTableRecord
100
AcDbRegAppTableRecord
  2
AcadAnnoPO
 70
     0
  0
ENDTAB
  0
TABLE
  2
DIMSTYLE
  5
A
330
0
100
AcDbSymbolTable
 70
     2
100
AcDbDimStyleTable
  0
DIMSTYLE
105
48E
330
A
100
AcDbSymbolTableRecord
100
AcDbDimStyleTableRecord
  2
Standard
 70
     0
178
     0
340
26
  0
DIMSTYLE
105
49C
102
{ACAD_REACTORS
330
B5
330
B9
330
B8
330
B4
330
B3
330
B7
330
B6
102
}
330
A
100
AcDbSymbolTableRecord
100
AcDbDimStyleTableRecord
  2
FREE
 70
     0
 41
2.5
 42
0.25
 43
0.2
 44
1.25
 49
1.25
 50
89.99999999999996
 90
        2
 73
     0
 74
     0
 77
     3
 78
     8
 79
     2
140
3.0
141
0.0
143
0.03937007874016
147
0.625
171
     3
172
     1
271
     2
178
     4
179
     1
271
     2
272
     2
274
     3
283
     0
284
     8
288
     1
289
     0
340
26
341
490
342
490
1001
ACAD_DSTYLE_DIMBREAK
1070
   391
1040
3.75
1001
ACAD_DSTYLE_DIMJAG
1070
   388
1040
1.5
1001
ACAD_DSTYLE_DIMTALN
1070
   392
1070
     0
  0
ENDTAB
  0
TABLE
  2
BLOCK_RECORD
  5
1
330
0
100
AcDbSymbolTable
 70
     9
  0
BLOCK_RECORD
  5
36
102
{ACAD_XDICTIONARY
360
750
102
}
330
1
100
AcDbSymbolTableRecord
100
AcDbBlockTableRecord
  2
*Model_Space
340
39
 70
     0
280
     1
281
     0
  0
BLOCK_RECORD
  5
32
330
1
100
AcDbSymbolTableRecord
100
AcDbBlockTableRecord
  2
*Paper_Space
340
35
 70
     0
280
     1
281
     0
  0
BLOCK_RECORD
  5
490
330
1
100
AcDbSymbolTableRecord
100
AcDbBlockTableRecord
  2
_Open30
340
0
102
{BLKREFS
331
BB6
331
BB7
331
BAD
331
BAE
331
BA4
331
BA5
331
BBF
331
BC0
331
BC8
331
BC9
331
BD1
331
BD2
331
BDA
331
BDB
331
BB6
331
BB7
331
BAD
331
BAE
331
BA4
331
BA5
331
BBF
331
BC0
331
BC8
331
BC9
331
BD1
331
BD2
331
BDA
331
BDB
102
}
 70
     0
280
     1
281
     0
  0
BLOCK_RECORD
  5
6D3
330
1
100
AcDbSymbolTableRecord
100
AcDbBlockTableRecord
  2
*D1
340
0
 70
     0
280
     1
281
     0
  0
BLOCK_RECORD
  5
6E0
330
1
100
AcDbSymbolTableRecord
100
AcDbBlockTableRecord
  2
*D2
340
0
 70
     0
280
     1
281
     0
  0
BLOCK_RECORD
  5
6ED
330
1
100
AcDbSymbolTableRecord
100
AcDbBlockTableRecord
  2
*D3
340
0
 70
     0
280
     1
281
     0
  0
BLOCK_RECORD
  5
71F
330
1
100
AcDbSymbolTableRecord
100
AcDbBlockTableRecord
  2
*D4
340
0
 70
     0
280
     1
281
     0
  0
BLOCK_RECORD
  5
72B
330
1
100
AcDbSymbolTableRecord
100
AcDbBlockTableRecord
  2
*D5
340
0
 70
     0
280
     1
281
     0
  0
BLOCK_RECORD
  5
737
330
1
100
AcDbSymbolTableRecord
100
AcDbBlockTableRecord
  2
*D6
340
0
 70
     0
280
     1
281
     0
  0
BLOCK_RECORD
  5
743
330
1
100
AcDbSymbolTableRecord
100
AcDbBlockTableRecord
  2
*D7
340
0
 70
     0
280
     1
281
     0
  0
ENDTAB
  0
ENDSEC
  0
SECTION
  2
BLOCKS
  0
BLOCK
  5
37
330
36
100
AcDbEntity
  8
0
  6
Continuous
100
AcDbBlockBegin
  2
*Model_Space
 70
     0
 10
0.0
 20
0.0
 30
0.0
  3
*Model_Space
  1

  0
ENDBLK
  5
38
330
36
100
AcDbEntity
  8
0
  6
Continuous
100
AcDbBlockEnd
  0
BLOCK
  5
33
330
32
100
AcDbEntity
 67
     1
  8
0
  6
Continuous
100
AcDbBlockBegin
  2
*Paper_Space
 70
     0
 10
0.0
 20
0.0
 30
0.0
  3
*Paper_Space
  1

  0
ENDBLK
  5
34
330
32
100
AcDbEntity
 67
     1
  8
0
  6
Continuous
100
AcDbBlockEnd
  0
BLOCK
  5
491
330
490
100
AcDbEntity
  8
0
  6
Continuous
100
AcDbBlockBegin
  2
_Open30
 70
     0
 10
0.0
 20
0.0
 30
0.0
  3
_Open30
  1

  0
LINE
  5
492
330
490
100
AcDbEntity
  8
0
  6
ByBlock
 62
     0
370
    -2
100
AcDbLine
 10
-1.0
 20
0.267949
 30
0.0
 11
0.0
 21
0.0
 31
0.0
  0
LINE
  5
493
330
490
100
AcDbEntity
  8
0
  6
ByBlock
 62
     0
370
    -2
100
AcDbLine
 10
0.0
 20
0.0
 30
0.0
 11
-1.0
 21
-0.267949
 31
0.0
  0
LINE
  5
494
330
490
100
AcDbEntity
  8
0
  6
ByBlock
 62
     0
370
    -2
100
AcDbLine
 10
0.0
 20
0.0
 30
0.0
 11
-1.0
 21
0.0
 31
0.0
  0
ENDBLK
  5
495
330
490
100
AcDbEntity
  8
0
  6
Continuous
100
AcDbBlockEnd
  0
BLOCK
  5
6D4
330
6D3
100
AcDbEntity
  8
0
100
AcDbBlockBegin
  2
*D1
 70
     1
 10
0.0
 20
0.0
 30
0.0
  3
*D1
  1

  0
LINE
  5
BB3
330
6D3
100
AcDbEntity
  8
0
 62
     0
370
    -2
100
AcDbLine
 10
252.710373
 20
152.101089
 30
0.0
 11
252.710373
 21
131.799035
 31
0.0
  0
LINE
  5
BB4
330
6D3
100
AcDbEntity
  8
0
 62
     0
370
    -2
100
AcDbLine
 10
302.705373
 20
160.337765
 30
0.0
 11
302.705373
 21
131.799035
 31
0.0
  0
LINE
  5
BB5
330
6D3
100
AcDbEntity
  8
0
 62
     0
370
    -2
100
AcDbLine
 10
255.210373
 20
133.049035
 30
0.0
 11
300.205373
 21
133.049035
 31
0.0
  0
INSERT
  5
BB6
330
6D3
100
AcDbEntity
  8
0
 62
     0
370
    -2
100
AcDbBlockReference
  2
_Open30
 10
252.710373
 20
133.049035
 30
0.0
 41
2.5
 42
2.5
 43
2.5
 50
180.0
  0
INSERT
  5
BB7
330
6D3
100
AcDbEntity
  8
0
 62
     0
370
    -2
100
AcDbBlockReference
  2
_Open30
 10
302.705373
 20
133.049035
 30
0.0
 41
2.5
 42
2.5
 43
2.5
  0
MTEXT
  5
BB8
330
6D3
100
AcDbEntity
  8
0
 62
     4
100
AcDbMText
 10
277.707873
 20
135.174035
 30
0.0
 40
3.0
 41
0.0
 46
0.0
 71
     5
 72
     1
  1
201
 73
     1
 44
1.0
  0
POINT
  5
BB9
330
6D3
100
AcDbEntity
  8
Defpoints
 62
     0
100
AcDbPoint
 10
252.710373
 20
152.351089
 30
0.0
  0
POINT
  5
BBA
330
6D3
100
AcDbEntity
  8
Defpoints
 62
     0
100
AcDbPoint
 10
302.705373
 20
160.587765
 30
0.0
  0
POINT
  5
BBB
330
6D3
100
AcDbEntity
  8
Defpoints
 62
     0
100
AcDbPoint
 10
302.705373
 20
133.049035
 30
0.0
  0
ENDBLK
  5
6D5
330
6D3
100
AcDbEntity
  8
0
100
AcDbBlockEnd
  0
BLOCK
  5
6E1
330
6E0
100
AcDbEntity
  8
0
100
AcDbBlockBegin
  2
*D2
 70
     1
 10
0.0
 20
0.0
 30
0.0
  3
*D2
  1

  0
LINE
  5
BAA
330
6E0
100
AcDbEntity
  8
0
 62
     0
370
    -2
100
AcDbLine
 10
263.773946
 20
170.136785
 30
0.0
 11
263.773946
 21
139.855618
 31
0.0
  0
LINE
  5
BAB
330
6E0
100
AcDbEntity
  8
0
 62
     0
370
    -2
100
AcDbLine
 10
293.770946
 20
170.136785
 30
0.0
 11
293.770946
 21
139.855618
 31
0.0
  0
LINE
  5
BAC
330
6E0
100
AcDbEntity
  8
0
 62
     0
370
    -2
100
AcDbLine
 10
266.273946
 20
141.105618
 30
0.0
 11
291.270946
 21
141.105618
 31
0.0
  0
INSERT
  5
BAD
330
6E0
100
AcDbEntity
  8
0
 62
     0
370
    -2
100
AcDbBlockReference
  2
_Open30
 10
263.773946
 20
141.105618
 30
0.0
 41
2.5
 42
2.5
 43
2.5
 50
180.0
  0
INSERT
  5
BAE
330
6E0
100
AcDbEntity
  8
0
 62
     0
370
    -2
100
AcDbBlockReference
  2
_Open30
 10
293.770946
 20
141.105618
 30
0.0
 41
2.5
 42
2.5
 43
2.5
  0
MTEXT
  5
BAF
330
6E0
100
AcDbEntity
  8
0
 62
     4
100
AcDbMText
 10
278.772446
 20
143.230618
 30
0.0
 40
3.0
 41
0.0
 46
0.0
 71
     5
 72
     1
  1
120
 73
     1
 44
1.0
  0
POINT
  5
BB0
330
6E0
100
AcDbEntity
  8
Defpoints
 62
     0
100
AcDbPoint
 10
263.773946
 20
170.386785
 30
0.0
  0
POINT
  5
BB1
330
6E0
100
AcDbEntity
  8
Defpoints
 62
     0
100
AcDbPoint
 10
293.770946
 20
170.386785
 30
0.0
  0
POINT
  5
BB2
330
6E0
100
AcDbEntity
  8
Defpoints
 62
     0
100
AcDbPoint
 10
293.770946
 20
141.105618
 30
0.0
  0
ENDBLK
  5
6E2
330
6E0
100
AcDbEntity
  8
0
100
AcDbBlockEnd
  0
BLOCK
  5
6EE
330
6ED
100
AcDbEntity
  8
0
100
AcDbBlockBegin
  2
*D3
 70
     1
 10
0.0
 20
0.0
 30
0.0
  3
*D3
  1

  0
LINE
  5
BA1
330
6ED
100
AcDbEntity
  8
0
 62
     0
370
    -2
100
AcDbLine
 10
263.560991
 20
170.386785
 30
0.0
 11
246.904601
 21
170.386785
 31
0.0
  0
LINE
  5
BA2
330
6ED
100
AcDbEntity
  8
0
 62
     0
370
    -2
100
AcDbLine
 10
263.560991
 20
205.33329
 30
0.0
 11
246.904601
 21
205.33329
 31
0.0
  0
LINE
  5
BA3
330
6ED
100
AcDbEntity
  8
0
 62
     0
370
    -2
100
AcDbLine
 10
248.154601
 20
172.886785
 30
0.0
 11
248.154601
 21
202.83329
 31
0.0
  0
INSERT
  5
BA4
330
6ED
100
AcDbEntity
  8
0
 62
     0
370
    -2
100
AcDbBlockReference
  2
_Open30
 10
248.154601
 20
170.386785
 30
0.0
 41
2.5
 42
2.5
 43
2.5
 50
270.0
  0
INSERT
  5
BA5
330
6ED
100
AcDbEntity
  8
0
 62
     0
370
    -2
100
AcDbBlockReference
  2
_Open30
 10
248.154601
 20
205.33329
 30
0.0
 41
2.5
 42
2.5
 43
2.5
 50
90.0
  0
MTEXT
  5
BA6
330
6ED
100
AcDbEntity
  8
0
 62
     4
100
AcDbMText
 10
246.0296009999999
 20
187.8600375
 30
0.0
 40
3.0
 41
0.0
 46
0.0
 71
     5
 72
     1
  1
%%C135
 11
1.000000000000000E-16
 21
1.0
 31
0.0
 73
     1
 44
1.0
  0
POINT
  5
BA7
330
6ED
100
AcDbEntity
  8
Defpoints
 62
     0
100
AcDbPoint
 10
263.810991
 20
170.386785
 30
0.0
  0
POINT
  5
BA8
330
6ED
100
AcDbEntity
  8
Defpoints
 62
     0
100
AcDbPoint
 10
263.810991
 20
205.33329
 30
0.0
  0
POINT
  5
BA9
330
6ED
100
AcDbEntity
  8
Defpoints
 62
     0
100
AcDbPoint
 10
248.154601
 20
205.33329
 30
0.0
  0
ENDBLK
  5
6EF
330
6ED
100
AcDbEntity
  8
0
100
AcDbBlockEnd
  0
BLOCK
  5
720
330
71F
100
AcDbEntity
  8
0
100
AcDbBlockBegin
  2
*D4
 70
     1
 10
0.0
 20
0.0
 30
0.0
  3
*D4
  1

  0
LINE
  5
BBC
330
71F
100
AcDbEntity
  8
0
 62
     0
370
    -2
100
AcDbLine
 10
261.829482
 20
156.613163
 30
0.0
 11
235.987868
 21
156.613163
 31
0.0
  0
LINE
  5
BBD
330
71F
100
AcDbEntity
  8
0
 62
     0
370
    -2
100
AcDbLine
 10
261.829482
 20
219.106913
 30
0.0
 11
235.987868
 21
219.106913
 31
0.0
  0
LINE
  5
BBE
330
71F
100
AcDbEntity
  8
0
 62
     0
370
    -2
100
AcDbLine
 10
237.237868
 20
159.113163
 30
0.0
 11
237.237868
 21
216.606913
 31
0.0
  0
INSERT
  5
BBF
330
71F
100
AcDbEntity
  8
0
 62
     0
370
    -2
100
AcDbBlockReference
  2
_Open30
 10
237.237868
 20
156.613163
 30
0.0
 41
2.5
 42
2.5
 43
2.5
 50
270.0
  0
INSERT
  5
BC0
330
71F
100
AcDbEntity
  8
0
 62
     0
370
    -2
100
AcDbBlockReference
  2
_Open30
 10
237.237868
 20
219.106913
 30
0.0
 41
2.5
 42
2.5
 43
2.5
 50
90.0
  0
MTEXT
  5
BC1
330
71F
100
AcDbEntity
  8
0
 62
     4
100
AcDbMText
 10
235.1128679999999
 20
187.860038
 30
0.0
 40
3.0
 41
0.0
 46
0.0
 71
     5
 72
     1
  1
%%C250
 11
1.000000000000000E-16
 21
1.0
 31
0.0
 73
     1
 44
1.0
  0
POINT
  5
BC2
330
71F
100
AcDbEntity
  8
Defpoints
 62
     0
100
AcDbPoint
 10
262.079482
 20
156.613163
 30
0.0
  0
POINT
  5
BC3
330
71F
100
AcDbEntity
  8
Defpoints
 62
     0
100
AcDbPoint
 10
262.079482
 20
219.106913
 30
0.0
  0
POINT
  5
BC4
330
71F
100
AcDbEntity
  8
Defpoints
 62
     0
100
AcDbPoint
 10
237.237868
 20
219.106913
 30
0.0
  0
ENDBLK
  5
721
330
71F
100
AcDbEntity
  8
0
100
AcDbBlockEnd
  0
BLOCK
  5
72C
330
72B
100
AcDbEntity
  8
0
100
AcDbBlockBegin
  2
*D5
 70
     1
 10
0.0
 20
0.0
 30
0.0
  3
*D5
  1

  0
LINE
  5
BC5
330
72B
100
AcDbEntity
  8
0
 62
     0
370
    -2
100
AcDbLine
 10
191.044389
 20
149.991818
 30
0.0
 11
220.815572
 21
149.9918179999999
 31
0.0
  0
LINE
  5
BC6
330
72B
100
AcDbEntity
  8
0
 62
     0
370
    -2
100
AcDbLine
 10
165.551448
 20
228.243166
 30
0.0
 11
220.815572
 21
228.243166
 31
0.0
  0
LINE
  5
BC7
330
72B
100
AcDbEntity
  8
0
 62
     0
370
    -2
100
AcDbLine
 10
219.565572
 20
152.491818
 30
0.0
 11
219.565572
 21
225.743166
 31
0.0
  0
INSERT
  5
BC8
330
72B
100
AcDbEntity
  8
0
 62
     0
370
    -2
100
AcDbBlockReference
  2
_Open30
 10
219.565572
 20
149.9918179999999
 30
0.0
 41
2.5
 42
2.5
 43
2.5
 50
270.0
  0
INSERT
  5
BC9
330
72B
100
AcDbEntity
  8
0
 62
     0
370
    -2
100
AcDbBlockReference
  2
_Open30
 10
219.565572
 20
228.243166
 30
0.0
 41
2.5
 42
2.5
 43
2.5
 50
90.0
  0
MTEXT
  5
BCA
330
72B
100
AcDbEntity
  8
0
 62
     4
100
AcDbMText
 10
217.440572
 20
189.117492
 30
0.0
 40
3.0
 41
0.0
 46
0.0
 71
     5
 72
     1
  1
316
 11
1.000000000000000E-16
 21
1.0
 31
0.0
 73
     1
 44
1.0
  0
POINT
  5
BCB
330
72B
100
AcDbEntity
  8
Defpoints
 62
     0
100
AcDbPoint
 10
190.794389
 20
149.991818
 30
0.0
  0
POINT
  5
BCC
330
72B
100
AcDbEntity
  8
Defpoints
 62
     0
100
AcDbPoint
 10
165.301448
 20
228.243166
 30
0.0
  0
POINT
  5
BCD
330
72B
100
AcDbEntity
  8
Defpoints
 62
     0
100
AcDbPoint
 10
219.565572
 20
228.243166
 30
0.0
  0
ENDBLK
  5
72D
330
72B
100
AcDbEntity
  8
0
100
AcDbBlockEnd
  0
BLOCK
  5
738
330
737
100
AcDbEntity
  8
0
100
AcDbBlockBegin
  2
*D6
 70
     1
 10
0.0
 20
0.0
 30
0.0
  3
*D6
  1

  0
LINE
  5
BCE
330
737
100
AcDbEntity
  8
0
 62
     0
370
    -2
100
AcDbLine
 10
191.044389
 20
149.991818
 30
0.0
 11
209.222547
 21
149.9918179999999
 31
0.0
  0
LINE
  5
BCF
330
737
100
AcDbEntity
  8
0
 62
     0
370
    -2
100
AcDbLine
 10
199.387244
 20
187.859704
 30
0.0
 11
209.222547
 21
187.859704
 31
0.0
  0
LINE
  5
BD0
330
737
100
AcDbEntity
  8
0
 62
     0
370
    -2
100
AcDbLine
 10
207.972547
 20
152.491818
 30
0.0
 11
207.972547
 21
185.359704
 31
0.0
  0
INSERT
  5
BD1
330
737
100
AcDbEntity
  8
0
 62
     0
370
    -2
100
AcDbBlockReference
  2
_Open30
 10
207.972547
 20
149.9918179999999
 30
0.0
 41
2.5
 42
2.5
 43
2.5
 50
270.0
  0
INSERT
  5
BD2
330
737
100
AcDbEntity
  8
0
 62
     0
370
    -2
100
AcDbBlockReference
  2
_Open30
 10
207.972547
 20
187.859704
 30
0.0
 41
2.5
 42
2.5
 43
2.5
 50
90.0
  0
MTEXT
  5
BD3
330
737
100
AcDbEntity
  8
0
 62
     4
100
AcDbMText
 10
205.847547
 20
168.925761
 30
0.0
 40
3.0
 41
0.0
 46
0.0
 71
     5
 72
     1
  1
152
 11
1.000000000000000E-16
 21
1.0
 31
0.0
 73
     1
 44
1.0
  0
POINT
  5
BD4
330
737
100
AcDbEntity
  8
Defpoints
 62
     0
100
AcDbPoint
 10
190.794389
 20
149.991818
 30
0.0
  0
POINT
  5
BD5
330
737
100
AcDbEntity
  8
Defpoints
 62
     0
100
AcDbPoint
 10
199.137244
 20
187.859704
 30
0.0
  0
POINT
  5
BD6
330
737
100
AcDbEntity
  8
Defpoints
 62
     0
100
AcDbPoint
 10
207.972547
 20
187.859704
 30
0.0
  0
ENDBLK
  5
739
330
737
100
AcDbEntity
  8
0
100
AcDbBlockEnd
  0
BLOCK
  5
744
330
743
100
AcDbEntity
  8
0
100
AcDbBlockBegin
  2
*D7
 70
     1
 10
0.0
 20
0.0
 30
0.0
  3
*D7
  1

  0
LINE
  5
BD7
330
743
100
AcDbEntity
  8
0
 62
     0
370
    -2
100
AcDbLine
 10
137.804198
 20
152.100756
 30
0.0
 11
137.804198
 21
135.549868
 31
0.0
  0
LINE
  5
BD8
330
743
100
AcDbEntity
  8
0
 62
     0
370
    -2
100
AcDbLine
 10
192.798698
 20
152.100756
 30
0.0
 11
192.798698
 21
135.549868
 31
0.0
  0
LINE
  5
BD9
330
743
100
AcDbEntity
  8
0
 62
     0
370
    -2
100
AcDbLine
 10
140.304198
 20
136.799868
 30
0.0
 11
190.298698
 21
136.799868
 31
0.0
  0
INSERT
  5
BDA
330
743
100
AcDbEntity
  8
0
 62
     0
370
    -2
100
AcDbBlockReference
  2
_Open30
 10
137.804198
 20
136.799868
 30
0.0
 41
2.5
 42
2.5
 43
2.5
 50
180.0
  0
INSERT
  5
BDB
330
743
100
AcDbEntity
  8
0
 62
     0
370
    -2
100
AcDbBlockReference
  2
_Open30
 10
192.798698
 20
136.799868
 30
0.0
 41
2.5
 42
2.5
 43
2.5
  0
MTEXT
  5
BDC
330
743
100
AcDbEntity
  8
0
 62
     4
100
AcDbMText
 10
165.301448
 20
138.924868
 30
0.0
 40
3.0
 41
0.0
 46
0.0
 71
     5
 72
     1
  1
254
 73
     1
 44
1.0
  0
POINT
  5
BDD
330
743
100
AcDbEntity
  8
Defpoints
 62
     0
100
AcDbPoint
 10
137.804198
 20
152.350756
 30
0.0
  0
POINT
  5
BDE
330
743
100
AcDbEntity
  8
Defpoints
 62
     0
100
AcDbPoint
 10
192.798698
 20
152.350756
 30
0.0
  0
POINT
  5
BDF
330
743
100
AcDbEntity
  8
Defpoints
 62
     0
100
AcDbPoint
 10
192.798698
 20
136.799868
 30
0.0
  0
ENDBLK
  5
745
330
743
100
AcDbEntity
  8
0
100
AcDbBlockEnd
  0
ENDSEC
  0
SECTION
  2
ENTITIES
  0
DIMENSION
  5
B3
330
36
100
AcDbEntity
  8
0
100
AcDbDimension
  2
*D5
 10
219.565572
 20
228.243166
 30
0.0
 11
217.440572
 21
189.117492
 31
0.0
 70
    32
  1
316
 71
     5
 42
78.251348
 73
     0
 74
     0
 75
     0
  3
FREE
100
AcDbAlignedDimension
 13
190.794389
 23
149.991818
 33
0.0
 14
165.301448
 24
228.243166
 34
0.0
 50
90.0
100
AcDbRotatedDimension
  0
DIMENSION
  5
B4
330
36
100
AcDbEntity
  8
0
100
AcDbDimension
  2
*D4
 10
237.237868
 20
219.106913
 30
0.0
 11
235.1128679999999
 21
187.860038
 31
0.0
 70
    32
  1
%%C250
 71
     5
 42
62.49375
 73
     0
 74
     0
 75
     0
  3
FREE
100
AcDbAlignedDimension
 13
262.079482
 23
156.613163
 33
0.0
 14
262.079482
 24
219.106913
 34
0.0
 50
90.0
100
AcDbRotatedDimension
  0
DIMENSION
  5
B5
330
36
100
AcDbEntity
  8
0
100
AcDbDimension
  2
*D3
 10
248.154601
 20
205.33329
 30
0.0
 11
246.0296009999999
 21
187.8600375
 31
0.0
 70
    32
  1
%%C135
 71
     5
 42
34.94650499999997
 73
     0
 74
     0
 75
     0
  3
FREE
100
AcDbAlignedDimension
 13
263.810991
 23
170.386785
 33
0.0
 14
263.810991
 24
205.33329
 34
0.0
 50
90.0
100
AcDbRotatedDimension
  0
DIMENSION
  5
B6
330
36
100
AcDbEntity
  8
0
100
AcDbDimension
  2
*D7
 10
192.798698
 20
136.799868
 30
0.0
 11
165.301448
 21
138.924868
 31
0.0
 70
    32
  1
254
 71
     5
 42
54.99450000000002
 73
     0
 74
     0
 75
     0
  3
FREE
100
AcDbAlignedDimension
 13
137.804198
 23
152.350756
 33
0.0
 14
192.798698
 24
152.350756
 34
0.0
100
AcDbRotatedDimension
  0
DIMENSION
  5
B7
330
36
100
AcDbEntity
  8
0
100
AcDbDimension
  2
*D6
 10
207.972547
 20
187.859704
 30
0.0
 11
205.847547
 21
168.925761
 31
0.0
 70
    32
  1
152
 71
     5
 42
37.86788600000003
 73
     0
 74
     0
 75
     0
  3
FREE
100
AcDbAlignedDimension
 13
190.794389
 23
149.991818
 33
0.0
 14
199.137244
 24
187.859704
 34
0.0
 50
90.0
100
AcDbRotatedDimension
  0
DIMENSION
  5
B8
330
36
100
AcDbEntity
  8
0
100
AcDbDimension
  2
*D1
 10
302.705373
 20
133.049035
 30
0.0
 11
277.707873
 21
135.174035
 31
0.0
 70
    32
  1
201
 71
     5
 42
49.99500000000001
 73
     0
 74
     0
 75
     0
  3
FREE
100
AcDbAlignedDimension
 13
252.710373
 23
152.351089
 33
0.0
 14
302.705373
 24
160.587765
 34
0.0
100
AcDbRotatedDimension
  0
DIMENSION
  5
B9
330
36
100
AcDbEntity
  8
0
100
AcDbDimension
  2
*D2
 10
293.770946
 20
141.105618
 30
0.0
 11
278.772446
 21
143.230618
 31
0.0
 70
    32
  1
120
 71
     5
 42
29.99699999999996
 73
     0
 74
     0
 75
     0
  3
FREE
100
AcDbAlignedDimension
 13
263.773946
 23
170.386785
 33
0.0
 14
293.770946
 24
170.386785
 34
0.0
100
AcDbRotatedDimension
  0
TEXT
  5
BA
330
36
100
AcDbEntity
  8
0
 62
     3
100
AcDbText
 10
75.81789399999998
 20
40.49999999999999
 30
0.0
 40
3.2
  1
1
 41
0.8
  7
高3.2
100
AcDbText
  0
TEXT
  5
BC
330
36
100
AcDbEntity
  8
0
 62
     3
100
AcDbText
 10
75.81789399999998
 20
25.5
 30
0.0
 40
3.2
  1
1
 41
0.8
  7
高3.2
100
AcDbText
  0
TEXT
  5
BD
330
36
100
AcDbEntity
  8
0
 62
     3
100
AcDbText
 10
75.81789399999998
 20
20.5
 30
0.0
 40
3.2
  1
1
 41
0.8
  7
高3.2
100
AcDbText
  0
TEXT
  5
BE
330
36
100
AcDbEntity
  8
0
 62
     3
100
AcDbText
 10
75.81789399999998
 20
50.5
 30
0.0
 40
3.2
  1
2
 41
0.8
  7
高3.2
100
AcDbText
  0
TEXT
  5
BF
330
36
100
AcDbEntity
  8
0
 62
     3
100
AcDbText
 10
75.81789399999998
 20
15.5
 30
0.0
 40
3.2
  1
1
 41
0.8
  7
高3.2
100
AcDbText
  0
TEXT
  5
D8
330
36
100
AcDbEntity
  8
0
 62
     3
100
AcDbText
 10
361.7134924893096
 20
10.89373986051464
 30
0.0
 40
6.299999999999998
  1
RSA-20S
  7
高6.3
100
AcDbText
  0
TEXT
  5
D9
330
36
100
AcDbEntity
  8
0
 62
     3
100
AcDbText
 10
321.154743
 20
34.43575300000001
 30
0.0
 40
4.5
  1
RSA-20S
  7
高4.5
100
AcDbText
  0
TEXT
  5
DA
330
36
100
AcDbEntity
  8
0
 62
     3
100
AcDbText
 10
375.454115
 20
20.869825
 30
0.0
 40
3.2
  1
1995.8.9
  7
高3.2
100
AcDbText
  0
TEXT
  5
DB
330
36
100
AcDbEntity
  8
0
 62
     3
100
AcDbText
 10
75.81789399999998
 20
35.5
 30
0.0
 40
3.2
  1
1
 41
0.8
  7
高3.2
100
AcDbText
  0
TEXT
  5
DC
330
36
100
AcDbEntity
  8
0
 62
     3
100
AcDbText
 10
75.81789399999998
 20
30.5
 30
0.0
 40
3.2
  1
1
 41
0.8
  7
高3.2
100
AcDbText
  0
LWPOLYLINE
  5
DD
330
36
100
AcDbEntity
  8
0
100
AcDbPolyline
 90
        3
 70
     0
 43
0.0
 10
361.498462
 20
208.235114
 10
363.432503
 20
207.495741
 10
362.127261
 20
209.103077
  0
LINE
  5
E2
330
36
100
AcDbEntity
  8
0
100
AcDbLine
 10
363.432503
 20
207.495741
 30
0.0
 11
346.030906
 21
220.102391
 31
0.0
  0
CIRCLE
  5
E3
330
36
100
AcDbEntity
  8
0
100
AcDbCircle
 10
341.981803
 20
223.035778
 30
0.0
 40
5.0
  0
TEXT
  5
E4
330
36
100
AcDbEntity
  8
0
 62
     4
100
AcDbText
 10
338.7781948928732
 20
220.8479583535131
 30
0.0
 40
4.5
  1
09
  7
高4.5
100
AcDbText
  0
TEXT
  5
E5
330
36
100
AcDbEntity
  8
0
 62
     4
100
AcDbText
 10
53.69416604330035
 20
135.456575562589
 30
0.0
 40
3.2
  1
<PS>E JET 15A125V
  7
高3.2
100
AcDbText
  0
TEXT
  5
E7
330
36
100
AcDbEntity
  8
0
 62
     4
100
AcDbText
 10
341.814636683848
 20
135.3838810365389
 30
0.0
 40
3.2
  1
<PS>E JET 15A 125V
  7
高3.2
100
AcDbText
  0
ARC
  5
E8
330
36
100
AcDbEntity
  8
0
 62
     3
100
AcDbCircle
 10
79.10179599999998
 20
161.636593
 30
0.0
 40
1.0
100
AcDbArc
 50
4.459399999999995
 51
81.86506899999998
  0
ARC
  5
E9
330
36
100
AcDbEntity
  8
0
 62
     3
100
AcDbCircle
 10
75.815089
 20
138.643492
 30
0.0
 40
24.22682
100
AcDbArc
 50
81.86506899999998
 51
98.13493100000002
  0
ARC
  5
EA
330
36
100
AcDbEntity
  8
0
 62
     3
100
AcDbCircle
 10
8.858840999999998
 20
156.158432
 30
0.0
 40
71.456248
100
AcDbArc
 50
355.5406
 51
4.459399999999995
  0
ARC
  5
EB
330
36
100
AcDbEntity
  8
0
 62
     3
100
AcDbCircle
 10
72.52838299999998
 20
161.636593
 30
0.0
 40
1.0
100
AcDbArc
 50
98.13493100000002
 51
175.5406
  0
ARC
  5
EC
330
36
100
AcDbEntity
  8
0
 62
     3
100
AcDbCircle
 10
142.771338
 20
156.158432
 30
0.0
 40
71.456248
100
AcDbArc
 50
175.5406
 51
184.4594
  0
ARC
  5
ED
330
36
100
AcDbEntity
  8
0
 62
     3
100
AcDbCircle
 10
72.52838299999998
 20
150.680271
 30
0.0
 40
1.0
100
AcDbArc
 50
184.4594
 51
261.865069
  0
ARC
  5
EE
330
36
100
AcDbEntity
  8
0
 62
     3
100
AcDbCircle
 10
75.815089
 20
173.673373
 30
0.0
 40
24.22682
100
AcDbArc
 50
261.865069
 51
278.134931
  0
ARC
  5
EF
330
36
100
AcDbEntity
  8
0
 62
     3
100
AcDbCircle
 10
79.10179599999998
 20
150.680271
 30
0.0
 40
1.0
100
AcDbArc
 50
278.134931
 51
355.5406
  0
LINE
  5
F0
330
36
100
AcDbEntity
  8
0
 62
     3
100
AcDbLine
 10
372.032503
 20
175.690489
 30
0.0
 11
371.032503
 21
172.690489
 31
0.0
  0
LINE
  5
F1
330
36
100
AcDbEntity
  8
0
 62
     3
100
AcDbLine
 10
372.032503
 20
176.690489
 30
0.0
 11
372.032503
 21
175.690489
 31
0.0
  0
LINE
  5
F2
330
36
100
AcDbEntity
  8
0
 62
     3
100
AcDbLine
 10
360.032503
 20
175.690489
 30
0.0
 11
361.032503
 21
172.690489
 31
0.0
  0
LINE
  5
F3
330
36
100
AcDbEntity
  8
0
 62
     3
100
AcDbLine
 10
369.532503
 20
181.690489
 30
0.0
 11
369.532503
 21
176.690489
 31
0.0
  0
LINE
  5
F4
330
36
100
AcDbEntity
  8
0
 62
     3
100
AcDbLine
 10
362.5325029999999
 20
181.690489
 30
0.0
 11
362.5325029999999
 21
176.690489
 31
0.0
  0
ARC
  5
F5
330
36
100
AcDbEntity
  8
0
 62
     3
100
AcDbCircle
 10
362.032503
 20
182.190489
 30
0.0
 40
0.5
100
AcDbArc
 50
180.0
 51
270.0
  0
ARC
  5
F6
330
36
100
AcDbEntity
  8
0
 62
     3
100
AcDbCircle
 10
362.032503
 20
182.190489
 30
0.0
 40
0.5
100
AcDbArc
 50
90.0
 51
180.0
  0
ARC
  5
F7
330
36
100
AcDbEntity
  8
0
 62
     3
100
AcDbCircle
 10
370.032503
 20
182.190489
 30
0.0
 40
0.5
100
AcDbArc
 50
0.0
 51
90.0
  0
ARC
  5
F8
330
36
100
AcDbEntity
  8
0
 62
     3
100
AcDbCircle
 10
370.032503
 20
182.190489
 30
0.0
 40
0.5
100
AcDbArc
 50
270.0
 51
0.0
  0
LINE
  5
F9
330
36
100
AcDbEntity
  8
0
 62
     3
100
AcDbLine
 10
369.532503
 20
185.690489
 30
0.0
 11
369.532503
 21
182.6904889999999
 31
0.0
  0
ARC
  5
FA
330
36
100
AcDbEntity
  8
0
 62
     3
100
AcDbCircle
 10
370.032503
 20
186.190489
 30
0.0
 40
0.5
100
AcDbArc
 50
270.0
 51
0.0
  0
ARC
  5
FB
330
36
100
AcDbEntity
  8
0
 62
     3
100
AcDbCircle
 10
370.032503
 20
186.190489
 30
0.0
 40
0.5
100
AcDbArc
 50
0.0
 51
90.0
  0
LINE
  5
FC
330
36
100
AcDbEntity
  8
0
 62
     3
100
AcDbLine
 10
369.532503
 20
189.690489
 30
0.0
 11
369.532503
 21
186.6904889999999
 31
0.0
  0
LINE
  5
FD
330
36
100
AcDbEntity
  8
0
 62
     3
100
AcDbLine
 10
362.5325029999999
 20
189.690489
 30
0.0
 11
362.5325029999999
 21
186.6904889999999
 31
0.0
  0
ARC
  5
FE
330
36
100
AcDbEntity
  8
0
 62
     3
100
AcDbCircle
 10
362.032503
 20
186.190489
 30
0.0
 40
0.5
100
AcDbArc
 50
90.0
 51
180.0
  0
ARC
  5
FF
330
36
100
AcDbEntity
  8
0
 62
     3
100
AcDbCircle
 10
362.032503
 20
186.190489
 30
0.0
 40
0.5
100
AcDbArc
 50
180.0
 51
270.0
  0
LINE
  5
100
330
36
100
AcDbEntity
  8
0
 62
     3
100
AcDbLine
 10
362.5325029999999
 20
185.690489
 30
0.0
 11
362.5325029999999
 21
182.6904889999999
 31
0.0
  0
LINE
  5
101
330
36
100
AcDbEntity
  8
0
 62
     3
100
AcDbLine
 10
360.032503
 20
176.690489
 30
0.0
 11
372.032503
 21
176.690489
 31
0.0
  0
LINE
  5
102
330
36
100
AcDbEntity
  8
0
 62
     3
100
AcDbLine
 10
360.032503
 20
176.690489
 30
0.0
 11
360.032503
 21
175.690489
 31
0.0
  0
ARC
  5
103
330
36
100
AcDbEntity
  8
0
 62
     3
100
AcDbCircle
 10
362.032503
 20
190.190489
 30
0.0
 40
0.5
100
AcDbArc
 50
180.0
 51
270.0
  0
ARC
  5
104
330
36
100
AcDbEntity
  8
0
 62
     3
100
AcDbCircle
 10
362.032503
 20
190.190489
 30
0.0
 40
0.5
100
AcDbArc
 50
90.0
 51
180.0
  0
ARC
  5
105
330
36
100
AcDbEntity
  8
0
 62
     3
100
AcDbCircle
 10
370.032503
 20
190.190489
 30
0.0
 40
0.5
100
AcDbArc
 50
270.0
 51
0.0
  0
ARC
  5
106
330
36
100
AcDbEntity
  8
0
 62
     3
100
AcDbCircle
 10
370.032503
 20
190.190489
 30
0.0
 40
0.5
100
AcDbArc
 50
0.0
 51
90.0
  0
LINE
  5
107
330
36
100
AcDbEntity
  8
0
 62
     3
100
AcDbLine
 10
363.432503
 20
225.709638
 30
0.0
 11
363.432503
 21
190.690489
 31
0.0
  0
LINE
  5
108
330
36
100
AcDbEntity
  8
0
 62
     3
100
AcDbLine
 10
368.632503
 20
225.709638
 30
0.0
 11
368.632503
 21
190.690489
 31
0.0
  0
LINE
  5
109
330
36
100
AcDbEntity
  8
0
 62
     3
100
AcDbLine
 10
358.032503
 20
161.6904889999999
 30
0.0
 11
358.032503
 21
159.690489
 31
0.0
  0
LINE
  5
10A
330
36
100
AcDbEntity
  8
0
 62
     3
100
AcDbLine
 10
358.032503
 20
159.690489
 30
0.0
 11
374.032503
 21
159.690489
 31
0.0
  0
LINE
  5
10B
330
36
100
AcDbEntity
  8
0
 62
     3
100
AcDbLine
 10
374.032503
 20
161.6904889999999
 30
0.0
 11
374.032503
 21
159.690489
 31
0.0
  0
ARC
  5
10C
330
36
100
AcDbEntity
  8
0
 62
     3
100
AcDbCircle
 10
276.213022
 20
140.921539
 30
0.0
 40
100.0
100
AcDbArc
 50
11.986985
 51
18.523253
  0
ARC
  5
10D
330
36
100
AcDbEntity
  8
0
 62
     3
100
AcDbCircle
 10
455.851983
 20
140.921539
 30
0.0
 40
100.0
100
AcDbArc
 50
161.476747
 51
168.013015
  0
LINE
  5
10E
330
36
100
AcDbEntity
  8
0
100
AcDbLine
 10
362.032503
 20
150.690489
 30
0.0
 11
363.032503
 21
150.690489
 31
0.0
  0
LINE
  5
10F
330
36
100
AcDbEntity
  8
0
100
AcDbLine
 10
369.032503
 20
150.690489
 30
0.0
 11
370.032503
 21
150.690489
 31
0.0
  0
LINE
  5
110
330
36
100
AcDbEntity
  8
0
100
AcDbLine
 10
362.032503
 20
159.690489
 30
0.0
 11
362.032503
 21
150.690489
 31
0.0
  0
LINE
  5
111
330
36
100
AcDbEntity
  8
0
100
AcDbLine
 10
363.032503
 20
159.690489
 30
0.0
 11
363.032503
 21
150.690489
 31
0.0
  0
LINE
  5
112
330
36
100
AcDbEntity
  8
0
100
AcDbLine
 10
363.032503
 20
150.690489
 30
0.0
 11
362.782503
 21
149.690489
 31
0.0
  0
LINE
  5
113
330
36
100
AcDbEntity
  8
0
100
AcDbLine
 10
362.032503
 20
150.690489
 30
0.0
 11
362.282503
 21
149.690489
 31
0.0
  0
LINE
  5
114
330
36
100
AcDbEntity
  8
0
100
AcDbLine
 10
362.282503
 20
149.690489
 30
0.0
 11
362.782503
 21
149.690489
 31
0.0
  0
LINE
  5
115
330
36
100
AcDbEntity
  8
0
100
AcDbLine
 10
369.282503
 20
149.690489
 30
0.0
 11
369.782503
 21
149.690489
 31
0.0
  0
LINE
  5
116
330
36
100
AcDbEntity
  8
0
100
AcDbLine
 10
369.032503
 20
150.690489
 30
0.0
 11
369.282503
 21
149.690489
 31
0.0
  0
LINE
  5
117
330
36
100
AcDbEntity
  8
0
100
AcDbLine
 10
369.032503
 20
159.690489
 30
0.0
 11
369.032503
 21
150.690489
 31
0.0
  0
LINE
  5
118
330
36
100
AcDbEntity
  8
0
100
AcDbLine
 10
370.032503
 20
159.690489
 30
0.0
 11
370.032503
 21
150.690489
 31
0.0
  0
LINE
  5
119
330
36
100
AcDbEntity
  8
0
100
AcDbLine
 10
370.032503
 20
150.690489
 30
0.0
 11
369.782503
 21
149.690489
 31
0.0
  0
LINE
  5
11A
330
36
100
AcDbEntity
  8
0
100
AcDbLine
 10
363.432503
 20
188.690489
 30
0.0
 11
368.632503
 21
188.690489
 31
0.0
  0
LINE
  5
11B
330
36
100
AcDbEntity
  8
0
100
AcDbLine
 10
363.432503
 20
187.690489
 30
0.0
 11
368.632503
 21
187.690489
 31
0.0
  0
LINE
  5
11C
330
36
100
AcDbEntity
  8
0
100
AcDbLine
 10
363.432503
 20
184.690489
 30
0.0
 11
368.632503
 21
184.690489
 31
0.0
  0
LINE
  5
11D
330
36
100
AcDbEntity
  8
0
100
AcDbLine
 10
363.432503
 20
183.6904889999999
 30
0.0
 11
368.632503
 21
183.6904889999999
 31
0.0
  0
LINE
  5
11E
330
36
100
AcDbEntity
  8
0
100
AcDbLine
 10
363.432503
 20
178.690489
 30
0.0
 11
368.632503
 21
178.690489
 31
0.0
  0
LINE
  5
11F
330
36
100
AcDbEntity
  8
0
100
AcDbLine
 10
363.432503
 20
179.690489
 30
0.0
 11
368.632503
 21
179.690489
 31
0.0
  0
LINE
  5
120
330
36
100
AcDbEntity
  8
0
100
AcDbLine
 10
362.032503
 20
181.690489
 30
0.0
 11
370.032503
 21
181.690489
 31
0.0
  0
LINE
  5
121
330
36
100
AcDbEntity
  8
0
100
AcDbLine
 10
362.032503
 20
182.6904889999999
 30
0.0
 11
370.032503
 21
182.6904889999999
 31
0.0
  0
LINE
  5
122
330
36
100
AcDbEntity
  8
0
100
AcDbLine
 10
370.032503
 20
185.690489
 30
0.0
 11
362.032503
 21
185.690489
 31
0.0
  0
LINE
  5
123
330
36
100
AcDbEntity
  8
0
100
AcDbLine
 10
370.032503
 20
186.6904889999999
 30
0.0
 11
362.032503
 21
186.6904889999999
 31
0.0
  0
LINE
  5
124
330
36
100
AcDbEntity
  8
0
100
AcDbLine
 10
370.032503
 20
189.690489
 30
0.0
 11
362.032503
 21
189.690489
 31
0.0
  0
LINE
  5
125
330
36
100
AcDbEntity
  8
0
100
AcDbLine
 10
363.432503
 20
184.690489
 30
0.0
 11
363.432503
 21
183.6904889999999
 31
0.0
  0
LINE
  5
126
330
36
100
AcDbEntity
  8
0
100
AcDbLine
 10
363.432503
 20
188.690489
 30
0.0
 11
363.432503
 21
187.690489
 31
0.0
  0
LINE
  5
127
330
36
100
AcDbEntity
  8
0
100
AcDbLine
 10
368.632503
 20
188.690489
 30
0.0
 11
368.632503
 21
187.690489
 31
0.0
  0
LINE
  5
128
330
36
100
AcDbEntity
  8
0
100
AcDbLine
 10
368.632503
 20
184.690489
 30
0.0
 11
368.632503
 21
183.6904889999999
 31
0.0
  0
LINE
  5
129
330
36
100
AcDbEntity
  8
0
100
AcDbLine
 10
363.432503
 20
179.690489
 30
0.0
 11
363.432503
 21
178.690489
 31
0.0
  0
LINE
  5
12A
330
36
100
AcDbEntity
  8
0
100
AcDbLine
 10
368.632503
 20
179.690489
 30
0.0
 11
368.632503
 21
178.690489
 31
0.0
  0
LINE
  5
12B
330
36
100
AcDbEntity
  8
0
100
AcDbLine
 10
360.032503
 20
175.690489
 30
0.0
 11
372.032503
 21
175.690489
 31
0.0
  0
LINE
  5
12C
330
36
100
AcDbEntity
  8
0
  6
CENTER
100
AcDbLine
 10
165.301448
 20
232.497814
 30
0.0
 11
165.301448
 21
154.501733
 31
0.0
  0
LINE
  5
12D
330
36
100
AcDbEntity
  8
0
 62
     3
100
AcDbLine
 10
253.210323
 20
220.994224
 30
0.0
 11
252.960348
 21
220.994224
 31
0.0
  0
LINE
  5
12E
330
36
100
AcDbEntity
  8
0
 62
     3
100
AcDbLine
 10
276.473795
 20
224.046765
 30
0.0
 11
276.473795
 21
228.046365
 31
0.0
  0
LINE
  5
12F
330
36
100
AcDbEntity
  8
0
 62
     3
100
AcDbLine
 10
252.960348
 20
228.243499
 30
0.0
 11
276.208023
 21
228.243499
 31
0.0
  0
ARC
  5
130
330
36
100
AcDbEntity
  8
0
 62
     3
100
AcDbCircle
 10
259.03474
 20
223.86692
 30
0.0
 40
1.499849999999999
100
AcDbArc
 50
234.62346
 51
305.37654
  0
ARC
  5
131
330
36
100
AcDbEntity
  8
0
 62
     3
100
AcDbCircle
 10
261.784465
 20
219.994324
 30
0.0
 40
3.249674999999998
100
AcDbArc
 50
54.62346
 51
125.37654
  0
ARC
  5
132
330
36
100
AcDbEntity
  8
0
 62
     3
100
AcDbCircle
 10
264.549987
 20
223.919761
 30
0.0
 40
1.499849999999999
100
AcDbArc
 50
234.62346
 51
305.37654
  0
ARC
  5
133
330
36
100
AcDbEntity
  8
0
 62
     3
100
AcDbCircle
 10
267.299712
 20
220.047165
 30
0.0
 40
3.249674999999998
100
AcDbArc
 50
54.62346
 51
125.37654
  0
ARC
  5
134
330
36
100
AcDbEntity
  8
0
 62
     3
100
AcDbCircle
 10
270.049437
 20
223.919761
 30
0.0
 40
1.499849999999999
100
AcDbArc
 50
234.62346
 51
305.37654
  0
ARC
  5
135
330
36
100
AcDbEntity
  8
0
 62
     3
100
AcDbCircle
 10
272.799162
 20
220.047165
 30
0.0
 40
3.249674999999998
100
AcDbArc
 50
57.363102
 51
125.37654
  0
ARC
  5
136
330
36
100
AcDbEntity
  8
0
 62
     3
100
AcDbCircle
 10
275.360644
 20
224.046765
 30
0.0
 40
1.499849999999999
100
AcDbArc
 50
237.363102
 51
262.593242
  0
ARC
  5
137
330
36
100
AcDbEntity
  8
0
 62
     3
100
AcDbCircle
 10
274.973945
 20
224.046765
 30
0.0
 40
1.499849999999999
100
AcDbArc
 50
277.406758
 51
0.0
  0
ARC
  5
138
330
36
100
AcDbEntity
  8
0
 62
     3
100
AcDbCircle
 10
252.960348
 20
221.244199
 30
0.0
 40
0.249975
100
AcDbArc
 50
180.0
 51
270.0
  0
ARC
  5
139
330
36
100
AcDbEntity
  8
0
 62
     3
100
AcDbCircle
 10
252.960348
 20
227.993524
 30
0.0
 40
0.249975
100
AcDbArc
 50
90.0
 51
180.0
  0
ARC
  5
13A
330
36
100
AcDbEntity
  8
0
 62
     3
100
AcDbCircle
 10
276.22382
 20
228.046365
 30
0.0
 40
0.249975
100
AcDbArc
 50
0.0
 51
90.0
  0
LINE
  5
13B
330
36
100
AcDbEntity
  8
0
 62
     3
100
AcDbLine
 10
262.499073
 20
184.626238
 30
0.0
 11
262.499073
 21
191.093837
 31
0.0
  0
LINE
  5
13C
330
36
100
AcDbEntity
  8
0
 62
     3
100
AcDbLine
 10
163.09366
 20
190.244251
 30
0.0
 11
163.270561
 21
190.06735
 31
0.0
  0
LINE
  5
13D
330
36
100
AcDbEntity
  8
0
 62
     3
100
AcDbLine
 10
167.509094
 20
185.828818
 30
0.0
 11
167.685994
 21
185.651917
 31
0.0
  0
LINE
  5
13E
330
36
100
AcDbEntity
  8
0
 62
     3
100
AcDbLine
 10
167.332335
 20
185.652059
 30
0.0
 11
167.509235
 21
185.475158
 31
0.0
  0
LINE
  5
13F
330
36
100
AcDbEntity
  8
0
 62
     3
100
AcDbLine
 10
162.916901
 20
190.067492
 30
0.0
 11
163.093802
 21
189.890591
 31
0.0
  0
LINE
  5
140
330
36
100
AcDbEntity
  8
0
 62
     3
100
AcDbLine
 10
163.003581
 20
190.157572
 30
0.0
 11
163.18034
 21
189.980813
 31
0.0
  0
LINE
  5
141
330
36
100
AcDbEntity
  8
0
 62
     3
100
AcDbLine
 10
167.422556
 20
185.738596
 30
0.0
 11
167.599315
 21
185.561837
 31
0.0
  0
LINE
  5
142
330
36
100
AcDbEntity
  8
0
 62
     3
100
AcDbLine
 10
163.270561
 20
185.652059
 30
0.0
 11
163.09366
 21
185.475158
 31
0.0
  0
LINE
  5
143
330
36
100
AcDbEntity
  8
0
 62
     3
100
AcDbLine
 10
163.18034
 20
185.738596
 30
0.0
 11
163.003581
 21
185.561837
 31
0.0
  0
LINE
  5
144
330
36
100
AcDbEntity
  8
0
 62
     3
100
AcDbLine
 10
163.093802
 20
185.828818
 30
0.0
 11
162.916901
 21
185.651917
 31
0.0
  0
LINE
  5
145
330
36
100
AcDbEntity
  8
0
 62
     3
100
AcDbLine
 10
167.685994
 20
190.067492
 30
0.0
 11
167.509094
 21
189.890591
 31
0.0
  0
LINE
  5
146
330
36
100
AcDbEntity
  8
0
 62
     3
100
AcDbLine
 10
167.599315
 20
190.157572
 30
0.0
 11
167.422556
 21
189.980813
 31
0.0
  0
LINE
  5
147
330
36
100
AcDbEntity
  8
0
 62
     3
100
AcDbLine
 10
167.509235
 20
190.244251
 30
0.0
 11
167.332335
 21
190.06735
 31
0.0
  0
LINE
  5
148
330
36
100
AcDbEntity
  8
0
  6
CENTER
100
AcDbLine
 10
168.298543
 20
187.984692
 30
0.0
 11
168.5487179999999
 21
187.984692
 31
0.0
  0
LINE
  5
149
330
36
100
AcDbEntity
  8
0
  6
CENTER
100
AcDbLine
 10
168.298543
 20
187.734717
 30
0.0
 11
168.5487179999999
 21
187.734717
 31
0.0
  0
LINE
  5
14A
330
36
100
AcDbEntity
  8
0
  6
CENTER
100
AcDbLine
 10
165.426435
 20
191.106975
 30
0.0
 11
165.426435
 21
190.856799
 31
0.0
  0
LINE
  5
14B
330
36
100
AcDbEntity
  8
0
  6
CENTER
100
AcDbLine
 10
165.17646
 20
191.106975
 30
0.0
 11
165.17646
 21
190.856799
 31
0.0
  0
LINE
  5
14C
330
36
100
AcDbEntity
  8
0
  6
CENTER
100
AcDbLine
 10
162.054177
 20
187.984692
 30
0.0
 11
162.304353
 21
187.984692
 31
0.0
  0
LINE
  5
14D
330
36
100
AcDbEntity
  8
0
  6
CENTER
100
AcDbLine
 10
162.054177
 20
187.734717
 30
0.0
 11
162.304353
 21
187.734717
 31
0.0
  0
LINE
  5
14E
330
36
100
AcDbEntity
  8
0
  6
CENTER
100
AcDbLine
 10
165.17646
 20
184.862609
 30
0.0
 11
165.17646
 21
184.612434
 31
0.0
  0
LINE
  5
14F
330
36
100
AcDbEntity
  8
0
  6
CENTER
100
AcDbLine
 10
165.426435
 20
184.862609
 30
0.0
 11
165.426435
 21
184.612434
 31
0.0
  0
ARC
  5
150
330
36
100
AcDbEntity
  8
0
 62
     3
100
AcDbCircle
 10
165.301448
 20
187.859704
 30
0.0
 40
3.249674999999998
100
AcDbArc
 50
357.795772
 51
2.204228
  0
ARC
  5
151
330
36
100
AcDbEntity
  8
0
 62
     3
100
AcDbCircle
 10
165.301448
 20
187.859704
 30
0.0
 40
3.249674999999998
100
AcDbArc
 50
312.795772
 51
317.204228
  0
ARC
  5
152
330
36
100
AcDbEntity
  8
0
 62
     3
100
AcDbCircle
 10
165.301448
 20
187.859704
 30
0.0
 40
3.249674999999998
100
AcDbArc
 50
42.79577200000001
 51
47.204228
  0
ARC
  5
153
330
36
100
AcDbEntity
  8
0
 62
     3
100
AcDbCircle
 10
165.301448
 20
187.859704
 30
0.0
 40
3.249674999999998
100
AcDbArc
 50
87.795772
 51
92.20422799999999
  0
ARC
  5
154
330
36
100
AcDbEntity
  8
0
 62
     3
100
AcDbCircle
 10
165.301448
 20
187.859704
 30
0.0
 40
3.249674999999998
100
AcDbArc
 50
132.795772
 51
137.204228
  0
ARC
  5
155
330
36
100
AcDbEntity
  8
0
 62
     3
100
AcDbCircle
 10
165.301448
 20
187.859704
 30
0.0
 40
3.249674999999998
100
AcDbArc
 50
177.795772
 51
182.204228
  0
ARC
  5
156
330
36
100
AcDbEntity
  8
0
 62
     3
100
AcDbCircle
 10
165.301448
 20
187.859704
 30
0.0
 40
3.249674999999998
100
AcDbArc
 50
222.795772
 51
227.204228
  0
ARC
  5
157
330
36
100
AcDbEntity
  8
0
 62
     3
100
AcDbCircle
 10
165.301448
 20
187.859704
 30
0.0
 40
3.249674999999998
100
AcDbArc
 50
267.795772
 51
272.204228
  0
LINE
  5
158
330
36
100
AcDbEntity
  8
0
 62
     3
100
AcDbLine
 10
258.197004
 20
154.33839
 30
0.0
 11
258.197004
 21
150.363788
 31
0.0
  0
CIRCLE
  5
159
330
36
100
AcDbEntity
  8
0
 62
     3
100
AcDbCircle
 10
178.800098
 20
164.479357
 30
0.0
 40
2.464983
  0
LINE
  5
15A
330
36
100
AcDbEntity
  8
0
 62
     3
100
AcDbLine
 10
167.288749
 20
228.243166
 30
0.0
 11
163.314147
 21
228.243166
 31
0.0
  0
ARC
  5
15B
330
36
100
AcDbEntity
  8
0
 62
     3
100
AcDbCircle
 10
163.314147
 20
225.868403
 30
0.0
 40
2.374763
100
AcDbArc
 50
90.0
 51
180.0
  0
LINE
  5
15C
330
36
100
AcDbEntity
  8
0
 62
     3
100
AcDbLine
 10
160.939384
 20
225.868403
 30
0.0
 11
160.939384
 21
223.3686529999999
 31
0.0
  0
ARC
  5
15D
330
36
100
AcDbEntity
  8
0
 62
     3
100
AcDbCircle
 10
163.314147
 20
223.3686529999999
 30
0.0
 40
2.374763
100
AcDbArc
 50
180.0
 51
270.0
  0
LINE
  5
15E
330
36
100
AcDbEntity
  8
0
 62
     3
100
AcDbLine
 10
163.741803
 20
220.993891
 30
0.0
 11
163.113398
 21
219.029877
 31
0.0
  0
LINE
  5
15F
330
36
100
AcDbEntity
  8
0
 62
     3
100
AcDbLine
 10
160.939384
 20
224.657432
 30
0.0
 11
158.954948
 21
218.455278
 31
0.0
  0
ARC
  5
160
330
36
100
AcDbEntity
  8
0
 62
     3
100
AcDbCircle
 10
167.288749
 20
223.3686529999999
 30
0.0
 40
2.374763
100
AcDbArc
 50
270.0
 51
0.0
  0
LINE
  5
161
330
36
100
AcDbEntity
  8
0
 62
     3
100
AcDbLine
 10
169.663512
 20
225.868403
 30
0.0
 11
169.663512
 21
223.3686529999999
 31
0.0
  0
LINE
  5
162
330
36
100
AcDbEntity
  8
0
 62
     3
100
AcDbLine
 10
169.663512
 20
224.657432
 30
0.0
 11
171.647948
 21
218.455278
 31
0.0
  0
LINE
  5
163
330
36
100
AcDbEntity
  8
0
 62
     3
100
AcDbLine
 10
166.861093
 20
220.993891
 30
0.0
 11
167.489497
 21
219.029877
 31
0.0
  0
LINE
  5
164
330
36
100
AcDbEntity
  8
0
 62
     3
100
AcDbLine
 10
167.288749
 20
220.993891
 30
0.0
 11
163.314147
 21
220.993891
 31
0.0
  0
ARC
  5
165
330
36
100
AcDbEntity
  8
0
 62
     3
100
AcDbCircle
 10
167.288749
 20
225.868403
 30
0.0
 40
2.374763
100
AcDbArc
 50
0.0
 51
90.0
  0
CIRCLE
  5
166
330
36
100
AcDbEntity
  8
0
 62
     3
100
AcDbCircle
 10
165.301448
 20
187.859704
 30
0.0
 40
2.999699999999998
  0
CIRCLE
  5
167
330
36
100
AcDbEntity
  8
0
 62
     3
100
AcDbCircle
 10
165.301448
 20
187.859704
 30
0.0
 40
1.9998
  0
LINE
  5
168
330
36
100
AcDbEntity
  8
0
 62
     3
100
AcDbLine
 10
138.433476
 20
154.317502
 30
0.0
 11
142.373243
 21
166.630842
 31
0.0
  0
LINE
  5
169
330
36
100
AcDbEntity
  8
0
 62
     3
100
AcDbLine
 10
142.032034
 20
153.142211
 30
0.0
 11
145.42578
 21
163.749021
 31
0.0
  0
LINE
  5
16A
330
36
100
AcDbEntity
  8
0
 62
     3
100
AcDbLine
 10
188.560884
 20
153.173396
 30
0.0
 11
185.177115
 21
163.749021
 31
0.0
  0
LINE
  5
16B
330
36
100
AcDbEntity
  8
0
 62
     3
100
AcDbLine
 10
192.175529
 20
154.298406
 30
0.0
 11
188.229653
 21
166.630842
 31
0.0
  0
LINE
  5
16C
330
36
100
AcDbEntity
  8
0
 62
     3
100
AcDbLine
 10
256.561121
 20
162.504828
 30
0.0
 11
256.561121
 21
162.598943
 31
0.0
  0
ARC
  5
16D
330
36
100
AcDbEntity
  8
0
 62
     3
100
AcDbCircle
 10
260.890234
 20
163.042575
 30
0.0
 40
0.855452
100
AcDbArc
 50
245.810011
 51
280.91675
  0
ARC
  5
16E
330
36
100
AcDbEntity
  8
0
 62
     3
100
AcDbCircle
 10
258.479713
 20
158.242493
 30
0.0
 40
4.516848
100
AcDbArc
 50
62.86634200000001
 51
81.175563
  0
ARC
  5
16F
330
36
100
AcDbEntity
  8
0
 62
     3
100
AcDbCircle
 10
258.226555
 20
154.362226
 30
0.0
 40
8.397115
100
AcDbArc
 50
83.53094200000004
 51
100.883254
  0
ARC
  5
170
330
36
100
AcDbEntity
  8
0
 62
     3
100
AcDbCircle
 10
256.668052
 20
162.504828
 30
0.0
 40
0.106931
100
AcDbArc
 50
97.077178
 51
180.0
  0
LINE
  5
171
330
36
100
AcDbEntity
  8
0
 62
     3
100
AcDbLine
 10
256.561121
 20
162.331615
 30
0.0
 11
256.561121
 21
162.504828
 31
0.0
  0
LINE
  5
172
330
36
100
AcDbEntity
  8
0
 62
     3
100
AcDbLine
 10
256.561121
 20
162.331615
 30
0.0
 11
256.561121
 21
160.88804
 31
0.0
  0
LINE
  5
173
330
36
100
AcDbEntity
  8
0
 62
     3
100
AcDbLine
 10
256.561121
 20
159.271252
 30
0.0
 11
256.561121
 21
160.88804
 31
0.0
  0
ARC
  5
174
330
36
100
AcDbEntity
  8
0
 62
     3
100
AcDbCircle
 10
256.668052
 20
159.271252
 30
0.0
 40
0.106931
100
AcDbArc
 50
180.0
 51
262.922822
  0
ARC
  5
175
330
36
100
AcDbEntity
  8
0
 62
     3
100
AcDbCircle
 10
258.226555
 20
167.413854
 30
0.0
 40
8.397115
100
AcDbArc
 50
259.116746
 51
276.4690580000001
  0
ARC
  5
176
330
36
100
AcDbEntity
  8
0
 62
     3
100
AcDbCircle
 10
258.479713
 20
163.533587
 30
0.0
 40
4.516848
100
AcDbArc
 50
278.824437
 51
297.133658
  0
ARC
  5
177
330
36
100
AcDbEntity
  8
0
 62
     3
100
AcDbCircle
 10
260.890234
 20
158.733505
 30
0.0
 40
0.855452
100
AcDbArc
 50
79.08325000000002
 51
114.1899889999999
  0
LINE
  5
178
330
36
100
AcDbEntity
  8
0
 62
     3
100
AcDbLine
 10
261.20457
 20
157.488075
 30
0.0
 11
261.20457
 21
162.323163
 31
0.0
  0
LINE
  5
179
330
36
100
AcDbEntity
  8
0
 62
     3
100
AcDbLine
 10
262.124111
 20
190.609763
 30
0.0
 11
262.124111
 21
185.110313
 31
0.0
  0
ARC
  5
17A
330
36
100
AcDbEntity
  8
0
 62
     3
100
AcDbCircle
 10
262.624061
 20
185.110313
 30
0.0
 40
0.4999500000000002
100
AcDbArc
 50
180.0
 51
270.0
  0
ARC
  5
17B
330
36
100
AcDbEntity
  8
0
 62
     3
100
AcDbCircle
 10
262.624061
 20
190.609763
 30
0.0
 40
0.4999500000000002
100
AcDbArc
 50
90.0
 51
180.0
  0
LINE
  5
17C
330
36
100
AcDbEntity
  8
0
 62
     3
100
AcDbLine
 10
264.123911
 20
191.109713
 30
0.0
 11
262.624061
 21
191.109713
 31
0.0
  0
LINE
  5
17D
330
36
100
AcDbEntity
  8
0
 62
     3
100
AcDbLine
 10
264.123911
 20
184.6103629999999
 30
0.0
 11
262.624061
 21
184.6103629999999
 31
0.0
  0
LINE
  5
17E
330
36
100
AcDbEntity
  8
0
 62
     3
100
AcDbLine
 10
252.710373
 20
221.244199
 30
0.0
 11
252.710373
 21
227.993524
 31
0.0
  0
ARC
  5
17F
330
36
100
AcDbEntity
  8
0
 62
     3
100
AcDbCircle
 10
256.285015
 20
219.994324
 30
0.0
 40
3.249674999999998
100
AcDbArc
 50
54.62346
 51
161.112118
  0
ARC
  5
180
330
36
100
AcDbEntity
  8
0
 62
     3
100
AcDbCircle
 10
276.9727759999999
 20
211.83264
 30
0.0
 40
1.29987
100
AcDbArc
 50
0.0
 51
179.99999
  0
ARC
  5
181
330
36
100
AcDbEntity
  8
0
 62
     3
100
AcDbCircle
 10
274.373036
 20
211.83264
 30
0.0
 40
1.29987
100
AcDbArc
 50
0.0
 51
179.99999
  0
ARC
  5
182
330
36
100
AcDbEntity
  8
0
 62
     3
100
AcDbCircle
 10
271.773296
 20
211.83264
 30
0.0
 40
1.29987
100
AcDbArc
 50
0.0
 51
179.99999
  0
ARC
  5
183
330
36
100
AcDbEntity
  8
0
 62
     3
100
AcDbCircle
 10
269.173556
 20
211.83264
 30
0.0
 40
1.29987
100
AcDbArc
 50
0.0
 51
179.99999
  0
ARC
  5
184
330
36
100
AcDbEntity
  8
0
 62
     3
100
AcDbCircle
 10
266.573816
 20
211.83264
 30
0.0
 40
1.29987
100
AcDbArc
 50
0.0
 51
179.99999
  0
ARC
  5
185
330
36
100
AcDbEntity
  8
0
 62
     3
100
AcDbCircle
 10
279.572516
 20
211.83264
 30
0.0
 40
1.29987
100
AcDbArc
 50
0.0
 51
179.99999
  0
ARC
  5
186
330
36
100
AcDbEntity
  8
0
 62
     3
100
AcDbCircle
 10
282.172256
 20
211.83264
 30
0.0
 40
1.29987
100
AcDbArc
 50
0.0
 51
179.99999
  0
ARC
  5
187
330
36
100
AcDbEntity
  8
0
 62
     3
100
AcDbCircle
 10
284.771996
 20
211.83264
 30
0.0
 40
1.29987
100
AcDbArc
 50
0.0
 51
179.99999
  0
ARC
  5
188
330
36
100
AcDbEntity
  8
0
 62
     3
100
AcDbCircle
 10
287.371736
 20
211.83264
 30
0.0
 40
1.29987
100
AcDbArc
 50
0.0
 51
179.99999
  0
ARC
  5
189
330
36
100
AcDbEntity
  8
0
 62
     3
100
AcDbCircle
 10
289.971476
 20
211.83264
 30
0.0
 40
1.29987
100
AcDbArc
 50
0.0
 51
179.99999
  0
ARC
  5
18A
330
36
100
AcDbEntity
  8
0
 62
     3
100
AcDbCircle
 10
292.571216
 20
211.83264
 30
0.0
 40
1.29987
100
AcDbArc
 50
0.0
 51
180.000007
  0
ARC
  5
18B
330
36
100
AcDbEntity
  8
0
 62
     3
100
AcDbCircle
 10
291.071216
 20
163.887435
 30
0.0
 40
1.29987
100
AcDbArc
 50
179.999993
 51
0.0
  0
ARC
  5
18C
330
36
100
AcDbEntity
  8
0
 62
     3
100
AcDbCircle
 10
288.471476
 20
163.887435
 30
0.0
 40
1.29987
100
AcDbArc
 50
180.00001
 51
0.0
  0
ARC
  5
18D
330
36
100
AcDbEntity
  8
0
 62
     3
100
AcDbCircle
 10
275.472776
 20
163.887435
 30
0.0
 40
1.29987
100
AcDbArc
 50
180.00001
 51
0.0
  0
ARC
  5
18E
330
36
100
AcDbEntity
  8
0
 62
     3
100
AcDbCircle
 10
272.873036
 20
163.887435
 30
0.0
 40
1.29987
100
AcDbArc
 50
180.00001
 51
0.0
  0
ARC
  5
18F
330
36
100
AcDbEntity
  8
0
 62
     3
100
AcDbCircle
 10
270.273296
 20
163.887435
 30
0.0
 40
1.29987
100
AcDbArc
 50
180.00001
 51
0.0
  0
ARC
  5
190
330
36
100
AcDbEntity
  8
0
 62
     3
100
AcDbCircle
 10
267.673556
 20
163.887435
 30
0.0
 40
1.29987
100
AcDbArc
 50
180.00001
 51
0.0
  0
ARC
  5
191
330
36
100
AcDbEntity
  8
0
 62
     3
100
AcDbCircle
 10
278.072516
 20
163.887435
 30
0.0
 40
1.29987
100
AcDbArc
 50
180.00001
 51
0.0
  0
ARC
  5
192
330
36
100
AcDbEntity
  8
0
 62
     3
100
AcDbCircle
 10
280.672256
 20
163.887435
 30
0.0
 40
1.29987
100
AcDbArc
 50
180.00001
 51
0.0
  0
ARC
  5
193
330
36
100
AcDbEntity
  8
0
 62
     3
100
AcDbCircle
 10
283.271996
 20
163.887435
 30
0.0
 40
1.29987
100
AcDbArc
 50
180.00001
 51
0.0
  0
ARC
  5
194
330
36
100
AcDbEntity
  8
0
 62
     3
100
AcDbCircle
 10
285.871736
 20
163.887435
 30
0.0
 40
1.29987
100
AcDbArc
 50
180.00001
 51
0.0
  0
ARC
  5
195
330
36
100
AcDbEntity
  8
0
 62
     3
100
AcDbCircle
 10
265.073816
 20
163.887435
 30
0.0
 40
1.29987
100
AcDbArc
 50
180.00001
 51
0.0
  0
LWPOLYLINE
  5
196
330
36
100
AcDbEntity
  8
0
100
AcDbPolyline
 90
       27
 70
     0
 43
0.0
 10
297.626323
 20
207.945271
 10
295.242322
 20
207.721743
 10
292.8696720000001
 20
207.374409
 10
290.519725
 20
206.779463
 10
288.161052
 20
205.796196
 10
286.039385
 20
204.412467
 10
284.355439
 20
202.623629
 10
283.394602
 20
200.879514
 10
282.66731
 20
198.980793
 10
281.981457
 20
197.046049
 10
281.144936
 20
195.193867
 10
279.891713
 20
193.25933
 10
278.67741
 20
191.300792
 10
277.941111
 20
189.273563
 10
277.636823
 20
187.097896
 10
277.747875
 20
184.890642
 10
278.257598
 20
182.768647
 10
279.337165
 20
180.466697
 10
280.785529
 20
178.356093
 10
282.171547
 20
176.701575
 10
283.720209
 20
175.225689
 10
285.457822
 20
174.040187
 10
288.186776
 20
172.978108
 10
291.105649
 20
172.3549
 10
293.170368
 20
172.012922
 10
295.223138
 20
171.7043929999999
 10
297.269936
 20
171.412588
  0
LINE
  5
1B3
330
36
100
AcDbEntity
  8
0
 62
     3
100
AcDbLine
 10
278.272646
 20
211.83264
 30
0.0
 11
276.772646
 21
163.887435
 31
0.0
  0
LINE
  5
1B4
330
36
100
AcDbEntity
  8
0
 62
     3
100
AcDbLine
 10
275.672906
 20
211.83264
 30
0.0
 11
274.172906
 21
163.887435
 31
0.0
  0
LINE
  5
1B5
330
36
100
AcDbEntity
  8
0
 62
     3
100
AcDbLine
 10
273.073166
 20
211.83264
 30
0.0
 11
271.573166
 21
163.887435
 31
0.0
  0
LINE
  5
1B6
330
36
100
AcDbEntity
  8
0
 62
     3
100
AcDbLine
 10
270.4734259999999
 20
211.83264
 30
0.0
 11
268.973426
 21
163.887435
 31
0.0
  0
LINE
  5
1B7
330
36
100
AcDbEntity
  8
0
 62
     3
100
AcDbLine
 10
267.873686
 20
211.83264
 30
0.0
 11
266.373686
 21
163.887435
 31
0.0
  0
LINE
  5
1B8
330
36
100
AcDbEntity
  8
0
 62
     3
100
AcDbLine
 10
265.273946
 20
211.83264
 30
0.0
 11
264.123911
 21
171.961628
 31
0.0
  0
LINE
  5
1B9
330
36
100
AcDbEntity
  8
0
 62
     3
100
AcDbLine
 10
291.118975
 20
206.962333
 30
0.0
 11
291.271346
 21
211.83264
 31
0.0
  0
LINE
  5
1BA
330
36
100
AcDbEntity
  8
0
 62
     3
100
AcDbLine
 10
290.042389
 20
172.550927
 30
0.0
 11
289.771346
 21
163.887435
 31
0.0
  0
LINE
  5
1BB
330
36
100
AcDbEntity
  8
0
 62
     3
100
AcDbLine
 10
288.487906
 20
205.960941
 30
0.0
 11
288.671606
 21
211.83264
 31
0.0
  0
LINE
  5
1BC
330
36
100
AcDbEntity
  8
0
 62
     3
100
AcDbLine
 10
287.462774
 20
173.194174
 30
0.0
 11
287.171606
 21
163.887435
 31
0.0
  0
LINE
  5
1BD
330
36
100
AcDbEntity
  8
0
 62
     3
100
AcDbLine
 10
285.834329
 20
204.24014
 30
0.0
 11
286.071866
 21
211.83264
 31
0.0
  0
LINE
  5
1BE
330
36
100
AcDbEntity
  8
0
 62
     3
100
AcDbLine
 10
284.89977
 20
174.368383
 30
0.0
 11
284.571866
 21
163.887435
 31
0.0
  0
LINE
  5
1BF
330
36
100
AcDbEntity
  8
0
 62
     3
100
AcDbLine
 10
283.107778
 20
200.186826
 30
0.0
 11
283.472126
 21
211.83264
 31
0.0
  0
LINE
  5
1C0
330
36
100
AcDbEntity
  8
0
 62
     3
100
AcDbLine
 10
282.36652
 20
176.493647
 30
0.0
 11
281.972126
 21
163.887435
 31
0.0
  0
LINE
  5
1C1
330
36
100
AcDbEntity
  8
0
 62
     3
100
AcDbLine
 10
280.310265
 20
193.865307
 30
0.0
 11
280.872386
 21
211.83264
 31
0.0
  0
LINE
  5
1C2
330
36
100
AcDbEntity
  8
0
 62
     3
100
AcDbLine
 10
279.864909
 20
179.630175
 30
0.0
 11
279.372386
 21
163.887435
 31
0.0
  0
LINE
  5
1C3
330
36
100
AcDbEntity
  8
0
 62
     3
100
AcDbLine
 10
293.736279
 20
207.52376
 30
0.0
 11
293.871086
 21
211.83264
 31
0.0
  0
LINE
  5
1C4
330
36
100
AcDbEntity
  8
0
 62
     3
100
AcDbLine
 10
292.627992
 20
172.09906
 30
0.0
 11
292.371086
 21
163.887435
 31
0.0
  0
LINE
  5
1C5
330
36
100
AcDbEntity
  8
0
 62
     3
100
AcDbLine
 10
306.948241
 20
181.239155
 30
0.0
 11
306.948241
 21
169.057343
 31
0.0
  0
LINE
  5
1C6
330
36
100
AcDbEntity
  8
0
 62
     3
100
AcDbLine
 10
309.558796
 20
181.389832
 30
0.0
 11
309.558796
 21
169.208022
 31
0.0
  0
TEXT
  5
1C8
330
36
100
AcDbEntity
  8
0
 62
     3
100
AcDbText
 10
343.861413070679
 20
21.03666
 30
0.0
 40
3.2
  1
FREE
  7
高3.2
100
AcDbText
  0
ARC
  5
1D1
330
36
100
AcDbEntity
  8
0
100
AcDbCircle
 10
165.301448
 20
187.859704
 30
0.0
 40
22.248492
100
AcDbArc
 50
253.817409
 51
286.182591
  0
LINE
  5
1D2
330
36
100
AcDbEntity
  8
0
100
AcDbLine
 10
159.100809
 20
166.492733
 30
0.0
 11
157.361273
 21
160.498415
 31
0.0
  0
ARC
  5
1D3
330
36
100
AcDbEntity
  8
0
100
AcDbCircle
 10
165.301448
 20
187.859704
 30
0.0
 40
28.490113
100
AcDbArc
 50
253.817409
 51
286.182591
  0
LINE
  5
1D4
330
36
100
AcDbEntity
  8
0
100
AcDbLine
 10
171.502087
 20
166.492733
 30
0.0
 11
173.241623
 21
160.498415
 31
0.0
  0
LWPOLYLINE
  5
1D5
330
36
100
AcDbEntity
  8
0
100
AcDbPolyline
 90
        3
 70
     0
 43
0.0
 10
162.465191
 20
159.377345
 10
163.006987
 20
161.375756
 10
161.538573
 20
159.915979
  0
LINE
  5
1DA
330
36
100
AcDbEntity
  8
0
100
AcDbLine
 10
163.006987
 20
161.375756
 30
0.0
 11
154.340889
 21
146.467373
 31
0.0
  0
LINE
  5
1DB
330
36
100
AcDbEntity
  8
0
100
AcDbLine
 10
154.340889
 20
146.467373
 30
0.0
 11
173.5908889999999
 21
146.467373
 31
0.0
  0
TEXT
  5
1DC
330
36
100
AcDbEntity
  8
0
 62
     4
100
AcDbText
 10
157.090889
 20
147.467373
 30
0.0
 40
3.2
  1
型式ラベル
 41
0.716146
100
AcDbText
  0
TEXT
  5
1DD
330
36
100
AcDbEntity
  8
0
 62
     3
100
AcDbText
 10
21.5
 20
10.5
 30
0.0
 40
3.2
  1
番号　
 41
0.8
  7
高3.2
100
AcDbText
  0
TEXT
  5
1DE
330
36
100
AcDbEntity
  8
0
 62
     3
100
AcDbText
 10
31.513998
 20
10.5
 30
0.0
 40
3.2
  1
部　品　名
 41
0.8
  7
高3.2
100
AcDbText
  0
TEXT
  5
1DF
330
36
100
AcDbEntity
  8
0
 62
     3
100
AcDbText
 10
75.81789399999998
 20
10.5
 30
0.0
 40
3.2
  1
個数　
 41
0.8
  7
高3.2
100
AcDbText
  0
TEXT
  5
1E1
330
36
100
AcDbEntity
  8
0
 62
     3
100
AcDbText
 10
31.513998
 20
65.5
 30
0.0
 40
3.2
  1
集電子（2Pリードパック）
 41
0.8
  7
高3.2
100
AcDbText
  0
TEXT
  5
1E2
330
36
100
AcDbEntity
  8
0
 62
     3
100
AcDbText
 10
31.513998
 20
60.5
 30
0.0
 40
3.2
  1
2次電線　コンセント付き
 41
0.8
  7
高3.2
100
AcDbText
  0
TEXT
  5
1E3
330
36
100
AcDbEntity
  8
0
 62
     3
100
AcDbText
 10
31.513998
 20
55.5
 30
0.0
 40
3.2
  1
1次電線　プラグ付き
 41
0.8
  7
高3.2
100
AcDbText
  0
TEXT
  5
1E4
330
36
100
AcDbEntity
  8
0
 62
     3
100
AcDbText
 10
31.513998
 20
50.5
 30
0.0
 40
3.2
  1
フレームキャップ16
 41
0.8
  7
高3.2
100
AcDbText
  0
TEXT
  5
1E5
330
36
100
AcDbEntity
  8
0
 62
     3
100
AcDbText
 10
31.513998
 20
45.49999999999999
 30
0.0
 40
3.2
  1
ハンドルツマミ（小）
 41
0.8
  7
高3.2
100
AcDbText
  0
TEXT
  5
1E6
330
36
100
AcDbEntity
  8
0
 62
     3
100
AcDbText
 10
31.513998
 20
40.49999999999999
 30
0.0
 40
3.2
  1
ブッシング
 41
0.8
  7
高3.2
100
AcDbText
  0
TEXT
  5
1E7
330
36
100
AcDbEntity
  8
0
 62
     3
100
AcDbText
 10
31.513998
 20
35.5
 30
0.0
 40
3.2
  1
B側板
 41
0.8
  7
高3.2
100
AcDbText
  0
TEXT
  5
1E8
330
36
100
AcDbEntity
  8
0
 62
     3
100
AcDbText
 10
31.513998
 20
30.5
 30
0.0
 40
3.2
  1
A側板
 41
0.8
  7
高3.2
100
AcDbText
  0
TEXT
  5
1EA
330
36
100
AcDbEntity
  8
0
 62
     3
100
AcDbText
 10
31.513998
 20
25.5
 30
0.0
 40
3.2
  1
巻胴
 41
0.8
  7
高3.2
100
AcDbText
  0
TEXT
  5
1EB
330
36
100
AcDbEntity
  8
0
 62
     3
100
AcDbText
 10
31.513998
 20
20.5
 30
0.0
 40
3.2
  1
フレーム
 41
0.8
  7
高3.2
100
AcDbText
  0
TEXT
  5
1EC
330
36
100
AcDbEntity
  8
0
 62
     3
100
AcDbText
 10
31.513998
 20
15.5
 30
0.0
 40
3.2
  1
グリップ
 41
0.8
  7
高3.2
100
AcDbText
  0
TEXT
  5
1ED
330
36
100
AcDbEntity
  8
0
 62
     3
100
AcDbText
 10
114.2439400879112
 20
40.49999999999999
 30
0.0
 40
3.2
  1
CP-19
 41
0.8
  7
高3.2
100
AcDbText
  0
TEXT
  5
1EF
330
36
100
AcDbEntity
  8
0
 62
     3
100
AcDbText
 10
114.2439400879112
 20
20.5
 30
0.0
 40
3.2
  1
RSA-120B
 41
0.8
  7
高3.2
100
AcDbText
  0
TEXT
  5
1F0
330
36
100
AcDbEntity
  8
0
 62
     3
100
AcDbText
 10
114.2439400879112
 20
15.5
 30
0.0
 40
3.2
  1
G-03
 41
0.8
  7
高3.2
100
AcDbText
  0
TEXT
  5
1F1
330
36
100
AcDbEntity
  8
0
 62
     3
100
AcDbText
 10
114.2439400879112
 20
10.5
 30
0.0
 40
3.2
  1
備　　　　考　
 41
0.8
  7
高3.2
100
AcDbText
  0
TEXT
  5
1F2
330
36
100
AcDbEntity
  8
0
 62
     3
100
AcDbText
 10
84.513998
 20
10.5
 30
0.0
 40
3.2
  1
材　　　　質　
 41
0.8
  7
高3.2
100
AcDbText
  0
TEXT
  5
1F3
330
36
100
AcDbEntity
  8
0
 62
     3
100
AcDbText
 10
84.513998
 20
15.5
 30
0.0
 40
3.2
  1
EVA樹脂
 41
0.8
  7
高3.2
100
AcDbText
  0
TEXT
  5
1F4
330
36
100
AcDbEntity
  8
0
 62
     3
100
AcDbText
 10
84.513998
 20
20.5
 30
0.0
 40
3.2
  1
STKM
 41
0.8
  7
高3.2
100
AcDbText
  0
TEXT
  5
1F5
330
36
100
AcDbEntity
  8
0
 62
     3
100
AcDbText
 10
84.513998
 20
25.5
 30
0.0
 40
3.2
  1
ABS樹脂
 41
0.8
  7
高3.2
100
AcDbText
  0
TEXT
  5
1F7
330
36
100
AcDbEntity
  8
0
 62
     3
100
AcDbText
 10
84.513998
 20
30.5
 30
0.0
 40
3.2
  1
SPCC
 41
0.8
  7
高3.2
100
AcDbText
  0
TEXT
  5
1F8
330
36
100
AcDbEntity
  8
0
 62
     3
100
AcDbText
 10
84.513998
 20
35.5
 30
0.0
 40
3.2
  1
SPCC
 41
0.8
  7
高3.2
100
AcDbText
  0
TEXT
  5
1F9
330
36
100
AcDbEntity
  8
0
 62
     3
100
AcDbText
 10
84.513998
 20
40.49999999999999
 30
0.0
 40
3.2
  1
PC樹脂
 41
0.8
  7
高3.2
100
AcDbText
  0
TEXT
  5
1FA
330
36
100
AcDbEntity
  8
0
 62
     3
100
AcDbText
 10
84.513998
 20
45.49999999999999
 30
0.0
 40
3.2
  1
SS41 ABS樹脂
 41
0.8
  7
高3.2
100
AcDbText
  0
TEXT
  5
1FB
330
36
100
AcDbEntity
  8
0
 62
     3
100
AcDbText
 10
84.513998
 20
50.5
 30
0.0
 40
3.2
  1
PE樹脂
 41
0.8
  7
高3.2
100
AcDbText
  0
TEXT
  5
1FC
330
36
100
AcDbEntity
  8
0
 62
     3
100
AcDbText
 10
21.5
 20
55.5
 30
0.0
 40
3.2
  1
09
 41
0.8
  7
高3.2
100
AcDbText
  0
TEXT
  5
1FD
330
36
100
AcDbEntity
  8
0
 62
     3
100
AcDbText
 10
21.5
 20
50.50000000000003
 30
0.0
 40
3.2
  1
08
 41
0.8
  7
高3.2
100
AcDbText
  0
TEXT
  5
1FE
330
36
100
AcDbEntity
  8
0
 62
     3
100
AcDbText
 10
21.5
 20
45.49999999999999
 30
0.0
 40
3.2
  1
07
 41
0.8
  7
高3.2
100
AcDbText
  0
TEXT
  5
1FF
330
36
100
AcDbEntity
  8
0
 62
     3
100
AcDbText
 10
21.5
 20
40.49999999999999
 30
0.0
 40
3.2
  1
06
 41
0.8
  7
高3.2
100
AcDbText
  0
TEXT
  5
200
330
36
100
AcDbEntity
  8
0
 62
     3
100
AcDbText
 10
21.5
 20
35.5
 30
0.0
 40
3.2
  1
05
 41
0.8
  7
高3.2
100
AcDbText
  0
TEXT
  5
201
330
36
100
AcDbEntity
  8
0
 62
     3
100
AcDbText
 10
21.5
 20
30.5
 30
0.0
 40
3.2
  1
04
 41
0.8
  7
高3.2
100
AcDbText
  0
TEXT
  5
202
330
36
100
AcDbEntity
  8
0
 62
     3
100
AcDbText
 10
21.5
 20
25.5
 30
0.0
 40
3.2
  1
03
 41
0.8
  7
高3.2
100
AcDbText
  0
TEXT
  5
203
330
36
100
AcDbEntity
  8
0
 62
     3
100
AcDbText
 10
21.5
 20
20.5
 30
0.0
 40
3.2
  1
02
 41
0.8
  7
高3.2
100
AcDbText
  0
TEXT
  5
204
330
36
100
AcDbEntity
  8
0
 62
     3
100
AcDbText
 10
21.5
 20
15.5
 30
0.0
 40
3.2
  1
01
 41
0.8
  7
高3.2
100
AcDbText
  0
LINE
  5
205
330
36
100
AcDbEntity
  8
0
 62
     3
100
AcDbLine
 10
213.6927837482101
 20
70.00000000000001
 30
0.0
 11
213.6927837482101
 21
10.0
 31
0.0
  0
TEXT
  5
206
330
36
100
AcDbEntity
  8
0
 62
     3
100
AcDbText
 10
75.81789399999998
 20
45.49999999999999
 30
0.0
 40
3.2
  1
1式
 41
0.8
  7
高3.2
100
AcDbText
  0
LINE
  5
209
330
36
100
AcDbEntity
  8
0
 62
     3
100
AcDbLine
 10
213.6927837482101
 20
70.0
 30
0.0
 11
20.0
 21
70.0
 31
0.0
  0
LINE
  5
20A
330
36
100
AcDbEntity
  8
0
100
AcDbLine
 10
213.6927837482101
 20
65.0
 30
0.0
 11
20.0
 21
65.0
 31
0.0
  0
LINE
  5
20B
330
36
100
AcDbEntity
  8
0
100
AcDbLine
 10
213.6927837482101
 20
60.0
 30
0.0
 11
20.0
 21
60.0
 31
0.0
  0
LINE
  5
20C
330
36
100
AcDbEntity
  8
0
100
AcDbLine
 10
213.6927837482101
 20
55.0
 30
0.0
 11
20.0
 21
55.0
 31
0.0
  0
LINE
  5
20D
330
36
100
AcDbEntity
  8
0
100
AcDbLine
 10
213.6927837482101
 20
50.0
 30
0.0
 11
20.0
 21
50.0
 31
0.0
  0
LINE
  5
20E
330
36
100
AcDbEntity
  8
0
100
AcDbLine
 10
213.6927837482101
 20
45.0
 30
0.0
 11
20.0
 21
45.0
 31
0.0
  0
LINE
  5
20F
330
36
100
AcDbEntity
  8
0
100
AcDbLine
 10
213.6927837482101
 20
40.0
 30
0.0
 11
20.0
 21
40.0
 31
0.0
  0
LINE
  5
210
330
36
100
AcDbEntity
  8
0
100
AcDbLine
 10
213.6927837482101
 20
35.0
 30
0.0
 11
20.0
 21
35.0
 31
0.0
  0
LINE
  5
211
330
36
100
AcDbEntity
  8
0
100
AcDbLine
 10
213.6927837482101
 20
30.0
 30
0.0
 11
20.0
 21
30.0
 31
0.0
  0
LINE
  5
212
330
36
100
AcDbEntity
  8
0
100
AcDbLine
 10
213.6927837482101
 20
25.0
 30
0.0
 11
20.0
 21
25.0
 31
0.0
  0
LINE
  5
213
330
36
100
AcDbEntity
  8
0
100
AcDbLine
 10
213.6927837482101
 20
20.0
 30
0.0
 11
20.0
 21
20.0
 31
0.0
  0
LINE
  5
214
330
36
100
AcDbEntity
  8
0
100
AcDbLine
 10
213.6927837482101
 20
15.0
 30
0.0
 11
20.0
 21
15.0
 31
0.0
  0
LINE
  5
215
330
36
100
AcDbEntity
  8
0
100
AcDbLine
 10
30.013998
 20
70.00000000000001
 30
0.0
 11
30.013998
 21
10.0
 31
0.0
  0
LINE
  5
216
330
36
100
AcDbEntity
  8
0
100
AcDbLine
 10
74.31789399999998
 20
70.00000000000001
 30
0.0
 11
74.31789399999998
 21
10.0
 31
0.0
  0
LINE
  5
217
330
36
100
AcDbEntity
  8
0
100
AcDbLine
 10
83.013998
 20
70.00000000000001
 30
0.0
 11
83.013998
 21
10.0
 31
0.0
  0
LINE
  5
218
330
36
100
AcDbEntity
  8
0
100
AcDbLine
 10
112.7439400879112
 20
70.00000000000001
 30
0.0
 11
112.7439400879112
 21
10.0
 31
0.0
  0
TEXT
  5
21A
330
36
100
AcDbEntity
  8
0
 62
     3
100
AcDbText
 10
314.2227041452936
 20
41.43575300000001
 30
0.0
 40
4.5
  1
延長コード型電工ドラム
 41
0.7
  7
高4.5
100
AcDbText
  0
LINE
  5
222
330
36
100
AcDbEntity
  8
0
 62
     3
100
AcDbLine
 10
370.032503
 20
190.690489
 30
0.0
 11
362.032503
 21
190.690489
 31
0.0
  0
LINE
  5
223
330
36
100
AcDbEntity
  8
0
100
AcDbLine
 10
358.032503
 20
161.6904889999999
 30
0.0
 11
374.032503
 21
161.6904889999999
 31
0.0
  0
LINE
  5
224
330
36
100
AcDbEntity
  8
0
100
AcDbLine
 10
361.032503
 20
172.690489
 30
0.0
 11
371.032503
 21
172.690489
 31
0.0
  0
LINE
  5
225
330
36
100
AcDbEntity
  8
0
100
AcDbLine
 10
275.72387
 20
222.747857
 30
0.0
 11
275.72387
 21
228.421327
 31
0.0
  0
ARC
  5
226
330
36
100
AcDbEntity
  8
0
100
AcDbCircle
 10
272.799162
 20
220.047165
 30
0.0
 40
5.874412999999997
100
AcDbArc
 50
60.14066500000001
 51
111.893428
  0
ARC
  5
227
330
36
100
AcDbEntity
  8
0
100
AcDbCircle
 10
256.285015
 20
219.994324
 30
0.0
 40
5.874412999999997
100
AcDbArc
 50
68.106572
 51
121.56088
  0
ARC
  5
228
330
36
100
AcDbEntity
  8
0
100
AcDbCircle
 10
261.784465
 20
219.994324
 30
0.0
 40
5.874412999999997
100
AcDbArc
 50
68.106572
 51
111.893428
  0
ARC
  5
229
330
36
100
AcDbEntity
  8
0
100
AcDbCircle
 10
267.299712
 20
220.047165
 30
0.0
 40
5.874412999999997
100
AcDbArc
 50
68.106572
 51
111.893428
  0
ARC
  5
22A
330
36
100
AcDbEntity
  8
0
100
AcDbCircle
 10
259.03474
 20
226.836747
 30
0.0
 40
1.499849999999999
100
AcDbArc
 50
248.106572
 51
291.893428
  0
ARC
  5
22B
330
36
100
AcDbEntity
  8
0
100
AcDbCircle
 10
264.549987
 20
226.889589
 30
0.0
 40
1.499849999999999
100
AcDbArc
 50
248.106572
 51
291.893428
  0
ARC
  5
22C
330
36
100
AcDbEntity
  8
0
100
AcDbCircle
 10
270.049437
 20
226.889589
 30
0.0
 40
1.499849999999999
100
AcDbArc
 50
248.106572
 51
291.893428
  0
LINE
  5
22D
330
36
100
AcDbEntity
  8
0
100
AcDbLine
 10
253.210323
 20
220.994224
 30
0.0
 11
253.210323
 21
228.368486
 31
0.0
  0
LINE
  5
22E
330
36
100
AcDbEntity
  8
0
100
AcDbLine
 10
264.123911
 20
189.609863
 30
0.0
 11
262.499073
 21
189.609863
 31
0.0
  0
LINE
  5
22F
330
36
100
AcDbEntity
  8
0
100
AcDbLine
 10
264.123911
 20
188.110013
 30
0.0
 11
262.499073
 21
188.110013
 31
0.0
  0
LINE
  5
230
330
36
100
AcDbEntity
  8
0
100
AcDbLine
 10
264.123911
 20
187.610063
 30
0.0
 11
262.499073
 21
187.610063
 31
0.0
  0
LINE
  5
231
330
36
100
AcDbEntity
  8
0
100
AcDbLine
 10
264.123911
 20
186.110213
 30
0.0
 11
262.499073
 21
186.110213
 31
0.0
  0
LINE
  5
232
330
36
100
AcDbEntity
  8
0
100
AcDbLine
 10
287.347753
 20
177.736141
 30
0.0
 11
292.04724
 21
177.736141
 31
0.0
  0
LINE
  5
233
330
36
100
AcDbEntity
  8
0
100
AcDbLine
 10
287.347753
 20
176.486277
 30
0.0
 11
292.04724
 21
176.486277
 31
0.0
  0
LINE
  5
234
330
36
100
AcDbEntity
  8
0
100
AcDbLine
 10
263.533052
 20
160.460314
 30
0.0
 11
263.533052
 21
161.315766
 31
0.0
  0
LINE
  5
235
330
36
100
AcDbEntity
  8
0
100
AcDbLine
 10
263.42612
 20
161.422697
 30
0.0
 11
263.42612
 21
160.353383
 31
0.0
  0
LINE
  5
236
330
36
100
AcDbEntity
  8
0
100
AcDbLine
 10
263.105326
 20
161.422697
 30
0.0
 11
263.42612
 21
161.422697
 31
0.0
  0
LINE
  5
237
330
36
100
AcDbEntity
  8
0
100
AcDbLine
 10
263.105326
 20
160.353383
 30
0.0
 11
263.42612
 21
160.353383
 31
0.0
  0
LINE
  5
238
330
36
100
AcDbEntity
  8
0
100
AcDbLine
 10
263.105326
 20
160.460314
 30
0.0
 11
263.533052
 21
160.460314
 31
0.0
  0
LINE
  5
239
330
36
100
AcDbEntity
  8
0
100
AcDbLine
 10
263.533052
 20
160.460314
 30
0.0
 11
263.42612
 21
160.353383
 31
0.0
  0
LINE
  5
23A
330
36
100
AcDbEntity
  8
0
100
AcDbLine
 10
263.105326
 20
161.315766
 30
0.0
 11
263.533052
 21
161.315766
 31
0.0
  0
ARC
  5
23B
330
36
100
AcDbEntity
  8
0
100
AcDbCircle
 10
258.194528
 20
168.269306
 30
0.0
 40
8.397115
100
AcDbArc
 50
259.116746
 51
276.4690580000001
  0
ARC
  5
23C
330
36
100
AcDbEntity
  8
0
100
AcDbCircle
 10
258.4476850000001
 20
164.389039
 30
0.0
 40
4.516848
100
AcDbArc
 50
278.824437
 51
285.529394
  0
ARC
  5
23D
330
36
100
AcDbEntity
  8
0
100
AcDbCircle
 10
258.4476850000001
 20
155.676138
 30
0.0
 40
4.516848
100
AcDbArc
 50
74.470606
 51
81.175563
  0
ARC
  5
23E
330
36
100
AcDbEntity
  8
0
100
AcDbCircle
 10
258.194528
 20
151.795871
 30
0.0
 40
8.397115
100
AcDbArc
 50
83.53094200000004
 51
100.883254
  0
ARC
  5
23F
330
36
100
AcDbEntity
  8
0
100
AcDbCircle
 10
258.194528
 20
153.506774
 30
0.0
 40
8.397115
100
AcDbArc
 50
83.53094200000004
 51
100.883254
  0
ARC
  5
240
330
36
100
AcDbEntity
  8
0
100
AcDbCircle
 10
258.4476850000001
 20
157.387041
 30
0.0
 40
4.516848
100
AcDbArc
 50
74.470606
 51
81.175563
  0
ARC
  5
241
330
36
100
AcDbEntity
  8
0
100
AcDbCircle
 10
258.4476850000001
 20
166.099942
 30
0.0
 40
4.516848
100
AcDbArc
 50
278.824437
 51
285.529394
  0
ARC
  5
242
330
36
100
AcDbEntity
  8
0
100
AcDbCircle
 10
258.194528
 20
169.98021
 30
0.0
 40
8.397115
100
AcDbArc
 50
259.116746
 51
276.4690580000001
  0
CIRCLE
  5
243
330
36
100
AcDbEntity
  8
0
100
AcDbCircle
 10
178.800098
 20
164.479357
 30
0.0
 40
1.028912999999997
  0
CIRCLE
  5
244
330
36
100
AcDbEntity
  8
0
100
AcDbCircle
 10
178.800098
 20
164.479357
 30
0.0
 40
1.731456
  0
LINE
  5
251
330
36
100
AcDbEntity
  8
0
 62
     3
100
AcDbLine
 10
384.300637
 20
26.665723
 30
0.0
 11
384.300637
 21
49.665723
 31
0.0
  0
LINE
  5
253
330
36
100
AcDbEntity
  8
0
 62
     3
100
AcDbLine
 10
331.247027
 20
19.665723
 30
0.0
 11
331.247027
 21
33.665723
 31
0.0
  0
TEXT
  5
255
330
36
100
AcDbEntity
  8
0
 62
     3
100
AcDbText
 10
360.310955
 20
45.870839
 30
0.0
 40
2.0
  1
A
 41
0.7
100
AcDbText
  0
TEXT
  5
256
330
36
100
AcDbEntity
  8
0
 62
     3
100
AcDbText
 10
362.846241
 20
45.870839
 30
0.0
 40
2.0
  1
P
 41
0.7
100
AcDbText
  0
TEXT
  5
257
330
36
100
AcDbEntity
  8
0
 62
     3
100
AcDbText
 10
365.381527
 20
45.870839
 30
0.0
 40
2.0
  1
P
 41
0.7
100
AcDbText
  0
TEXT
  5
258
330
36
100
AcDbEntity
  8
0
 62
     3
100
AcDbText
 10
367.916813
 20
45.870839
 30
0.0
 40
2.0
  1
D
 41
0.7
100
AcDbText
  0
TEXT
  5
259
330
36
100
AcDbEntity
  8
0
 62
     3
100
AcDbText
 10
373.285496
 20
45.870839
 30
0.0
 40
2.0
  1
C
 41
0.7
100
AcDbText
  0
TEXT
  5
25A
330
36
100
AcDbEntity
  8
0
 62
     3
100
AcDbText
 10
375.820783
 20
45.870839
 30
0.0
 40
2.0
  1
H
 41
0.7
100
AcDbText
  0
TEXT
  5
25B
330
36
100
AcDbEntity
  8
0
 62
     3
100
AcDbText
 10
378.356069
 20
45.870839
 30
0.0
 40
2.0
  1
C
 41
0.7
100
AcDbText
  0
TEXT
  5
25C
330
36
100
AcDbEntity
  8
0
 62
     3
100
AcDbText
 10
380.891355
 20
45.870839
 30
0.0
 40
2.0
  1
K
 41
0.7
100
AcDbText
  0
TEXT
  5
25D
330
36
100
AcDbEntity
  8
0
 62
     3
100
AcDbText
 10
386.565322
 20
45.870839
 30
0.0
 40
2.0
  1
DESN
 41
1.216762999999998
100
AcDbText
  0
TEXT
  5
25E
330
36
100
AcDbEntity
  8
0
 62
     3
100
AcDbText
 10
301.558963
 20
16.524341
 30
0.0
 40
2.0
  1
NICHIDO IND.CO.LTD
 41
1.274876
100
AcDbText
  0
LINE
  5
25F
330
36
100
AcDbEntity
  8
0
 62
     3
100
AcDbLine
 10
311.941992
 20
49.665723
 30
0.0
 11
311.941992
 21
26.665723
 31
0.0
  0
LINE
  5
260
330
36
100
AcDbEntity
  8
0
 62
     3
100
AcDbLine
 10
358.300637
 20
49.66572300000001
 30
0.0
 11
358.300637
 21
10.0
 31
0.0
  0
LINE
  5
262
330
36
100
AcDbEntity
  8
0
 62
     3
100
AcDbLine
 10
358.300637
 20
49.665723
 30
0.0
 11
358.300637
 21
55.665723
 31
0.0
  0
LINE
  5
264
330
36
100
AcDbEntity
  8
0
 62
     3
100
AcDbLine
 10
384.300637
 20
49.665723
 30
0.0
 11
384.300637
 21
55.665723
 31
0.0
  0
LINE
  5
265
330
36
100
AcDbEntity
  8
0
 62
     3
100
AcDbLine
 10
371.300637
 20
49.66572300000001
 30
0.0
 11
371.300637
 21
19.665723
 31
0.0
  0
TEXT
  5
266
330
36
100
AcDbEntity
  8
0
 62
     3
100
AcDbText
 10
359.413081
 20
20.530409
 30
0.0
 40
3.2
  1
作成日
 41
1.017225999999997
100
AcDbText
  0
LINE
  5
267
330
36
100
AcDbEntity
  8
0
 62
     3
100
AcDbLine
 10
410.0
 20
49.665723
 30
0.0
 11
298.696558
 21
49.665723
 31
0.0
  0
LINE
  5
268
330
36
100
AcDbEntity
  8
0
 62
     3
100
AcDbLine
 10
397.300637
 20
26.665723
 30
0.0
 11
397.300637
 21
49.665723
 31
0.0
  0
TEXT
  5
269
330
36
100
AcDbEntity
  8
0
 62
     3
100
AcDbText
 10
400.6244399999998
 20
45.956657
 30
0.0
 40
1.8
  1
D
 41
0.666667
100
AcDbText
  0
TEXT
  5
26A
330
36
100
AcDbEntity
  8
0
 62
     3
100
AcDbText
 10
403.441068
 20
45.956657
 30
0.0
 40
1.8
  1
E
 41
0.666667
100
AcDbText
  0
TEXT
  5
26B
330
36
100
AcDbEntity
  8
0
 62
     3
100
AcDbText
 10
406.257696
 20
45.956657
 30
0.0
 40
1.8
  1
F
 41
0.666667
100
AcDbText
  0
TEXT
  5
26C
330
36
100
AcDbEntity
  8
0
 62
     3
100
AcDbText
 10
400.6244399999998
 20
41.964104
 30
0.0
 40
3.2
  1
製図
 41
1.076369
100
AcDbText
  0
LINE
  5
26D
330
36
100
AcDbEntity
  8
0
 62
     3
100
AcDbLine
 10
298.696558
 20
49.665723
 30
0.0
 11
298.696558
 21
10.0
 31
0.0
  0
TEXT
  5
26E
330
36
100
AcDbEntity
  8
0
 62
     3
100
AcDbText
 10
300.07321
 20
10.332465
 30
0.0
 40
5.0
  1
日動工業株式会社
 41
0.833333
100
AcDbText
  0
LINE
  5
26F
330
36
100
AcDbEntity
  8
0
 62
     3
100
AcDbLine
 10
341.578961
 20
33.665723
 30
0.0
 11
341.578961
 21
10.0
 31
0.0
  0
LINE
  5
270
330
36
100
AcDbEntity
  8
0
 62
     3
100
AcDbLine
 10
341.578961
 20
14.832861
 30
0.0
 11
358.300637
 21
14.832861
 31
0.0
  0
TEXT
  5
271
330
36
100
AcDbEntity
  8
0
 62
     3
100
AcDbText
 10
342.165563
 20
15.649292
 30
0.0
 40
3.2
  1
出図コード
 41
0.8356860000000002
100
AcDbText
  0
LINE
  5
273
330
36
100
AcDbEntity
  8
0
 62
     3
100
AcDbLine
 10
298.6965579999999
 20
19.665723
 30
0.0
 11
410.0
 21
19.665723
 31
0.0
  0
LINE
  5
275
330
36
100
AcDbEntity
  8
0
 62
     3
100
AcDbLine
 10
298.6965579999999
 20
40.66572299999998
 30
0.0
 11
410.0
 21
40.66572299999999
 31
0.0
  0
LINE
  5
27B
330
36
100
AcDbEntity
  8
0
 62
     3
100
AcDbLine
 10
298.696558
 20
33.665723
 30
0.0
 11
358.300637
 21
33.665723
 31
0.0
  0
LINE
  5
281
330
36
100
AcDbEntity
  8
0
 62
     3
100
AcDbLine
 10
298.696558
 20
26.665723
 30
0.0
 11
410.0
 21
26.665723
 31
0.0
  0
TEXT
  5
282
330
36
100
AcDbEntity
  8
0
 62
     3
100
AcDbText
 10
342.033015
 20
10.43675235783473
 30
0.0
 40
3.2
  1
ZK-A3X
 41
0.8112849999999999
100
AcDbText
  0
TEXT
  5
283
330
36
100
AcDbEntity
  8
0
 62
     3
100
AcDbText
 10
300.513954
 20
45.835248
 30
0.0
 40
2.0
  1
CONPONENTS
 41
0.5331600000000001
100
AcDbText
  0
TEXT
  5
284
330
36
100
AcDbEntity
  8
0
 62
     3
100
AcDbText
 10
300.164228
 20
26.903072
 30
0.0
 40
3.0
  1
材
 41
0.833333
100
AcDbText
  0
TEXT
  5
285
330
36
100
AcDbEntity
  8
0
 62
     3
100
AcDbText
 10
307.69987
 20
26.903072
 30
0.0
 40
3.0
  1
質
 41
0.833333
100
AcDbText
  0
TEXT
  5
286
330
36
100
AcDbEntity
  8
0
 62
     3
100
AcDbText
 10
300.252298
 20
37.527596
 30
0.0
 40
2.0
  1
MODEL
 41
1.031072999999999
100
AcDbText
  0
TEXT
  5
287
330
36
100
AcDbEntity
  8
0
 62
     3
100
AcDbText
 10
300.164228
 20
30.58538
 30
0.0
 40
2.0
  1
MATERIAL
 41
0.659278
100
AcDbText
  0
TEXT
  5
288
330
36
100
AcDbEntity
  8
0
 62
     3
100
AcDbText
 10
331.471508
 20
26.903072
 30
0.0
 40
3.0
  1
備
 41
0.833333
100
AcDbText
  0
TEXT
  5
289
330
36
100
AcDbEntity
  8
0
 62
     3
100
AcDbText
 10
338.20451
 20
26.903072
 30
0.0
 40
3.0
  1
考
 41
0.833333
100
AcDbText
  0
TEXT
  5
28A
330
36
100
AcDbEntity
  8
0
 62
     3
100
AcDbText
 10
331.8485731933799
 20
30.58538
 30
0.0
 40
2.0
  1
REMARKS
 41
0.675794
100
AcDbText
  0
TEXT
  5
28B
330
36
100
AcDbEntity
  8
0
 62
     3
100
AcDbText
 10
301.753957
 20
23.665259
 30
0.0
 40
2.0
  1
3AD
 41
1.42614
100
AcDbText
  0
TEXT
  5
28C
330
36
100
AcDbEntity
  8
0
 62
     3
100
AcDbText
 10
311.064937
 20
23.830993
 30
0.0
 40
2.0
  1
ANGLE
 41
1.669883999999995
100
AcDbText
  0
TEXT
  5
28D
330
36
100
AcDbEntity
  8
0
 62
     3
100
AcDbText
 10
331.998824
 20
23.454152
 30
0.0
 40
2.0
  1
SCALE
 41
0.7719630000000001
100
AcDbText
  0
TEXT
  5
28E
330
36
100
AcDbEntity
  8
0
 62
     3
100
AcDbText
 10
301.440087
 20
19.665723
 30
0.0
 40
3.0
  1
第
 41
0.833333
100
AcDbText
  0
TEXT
  5
28F
330
36
100
AcDbEntity
  8
0
 62
     3
100
AcDbText
 10
309.226937
 20
19.665723
 30
0.0
 40
3.0
  1
三
 41
0.833333
100
AcDbText
  0
TEXT
  5
290
330
36
100
AcDbEntity
  8
0
 62
     3
100
AcDbText
 10
317.013787
 20
19.665723
 30
0.0
 40
3.0
  1
角
 41
0.833333
100
AcDbText
  0
TEXT
  5
291
330
36
100
AcDbEntity
  8
0
 62
     3
100
AcDbText
 10
324.800637
 20
19.665723
 30
0.0
 40
3.0
  1
法
 41
0.833333
100
AcDbText
  0
TEXT
  5
292
330
36
100
AcDbEntity
  8
0
 62
     3
100
AcDbText
 10
331.862029
 20
19.954152
 30
0.0
 40
3.0
  1
尺
 41
0.833333
100
AcDbText
  0
TEXT
  5
293
330
36
100
AcDbEntity
  8
0
 62
     3
100
AcDbText
 10
338.59503
 20
19.954152
 30
0.0
 40
3.0
  1
度
 41
0.833333
100
AcDbText
  0
TEXT
  5
294
330
36
100
AcDbEntity
  8
0
 62
     3
100
AcDbText
 10
361.178301
 20
42.123451
 30
0.0
 40
3.0
  1
承認
 41
1.089472999999999
100
AcDbText
  0
TEXT
  5
295
330
36
100
AcDbEntity
  8
0
 62
     3
100
AcDbText
 10
374.421181
 20
42.065723
 30
0.0
 40
3.0
  1
検図
 41
0.931761
100
AcDbText
  0
TEXT
  5
296
330
36
100
AcDbEntity
  8
0
 62
     3
100
AcDbText
 10
387.421578
 20
42.065723
 30
0.0
 40
3.0
  1
設
 41
0.833333
100
AcDbText
  0
TEXT
  5
297
330
36
100
AcDbEntity
  8
0
 62
     3
100
AcDbText
 10
391.911446
 20
42.065723
 30
0.0
 40
3.0
  1
計
 41
0.833333
100
AcDbText
  0
TEXT
  5
298
330
36
100
AcDbEntity
  8
0
 62
     3
100
AcDbText
 10
300.584061
 20
42.238275
 30
0.0
 40
3.0
  1
品
 41
0.833333
100
AcDbText
  0
TEXT
  5
299
330
36
100
AcDbEntity
  8
0
 62
     3
100
AcDbText
 10
308.119703
 20
42.238275
 30
0.0
 40
3.0
  1
名
 41
0.833333
100
AcDbText
  0
TEXT
  5
29A
330
36
100
AcDbEntity
  8
0
 62
     3
100
AcDbText
 10
300.252298
 20
33.9290037736735
 30
0.0
 40
3.0
  1
型
 41
0.833333
100
AcDbText
  0
TEXT
  5
29B
330
36
100
AcDbEntity
  8
0
 62
     3
100
AcDbText
 10
307.800389
 20
33.9290037736735
 30
0.0
 40
3.0
  1
式
 41
0.833333
100
AcDbText
  0
LINE
  5
29C
330
36
100
AcDbEntity
  8
0
 62
     3
100
AcDbLine
 10
7.598075999999998
 20
148.5
 30
0.0
 11
5.0
 21
147.0
 31
0.0
  0
LINE
  5
29D
330
36
100
AcDbEntity
  8
0
 62
     3
100
AcDbLine
 10
7.598075999999998
 20
148.5
 30
0.0
 11
5.0
 21
150.0
 31
0.0
  0
LINE
  5
29E
330
36
100
AcDbEntity
  8
0
 62
     3
100
AcDbLine
 10
5.0
 20
147.0
 30
0.0
 11
5.0
 21
150.0
 31
0.0
  0
LINE
  5
29F
330
36
100
AcDbEntity
  8
0
  6
CENTER
100
AcDbLine
 10
199.137244
 20
187.859704
 30
0.0
 11
131.053626
 21
187.859704
 31
0.0
  0
LINE
  5
2A0
330
36
100
AcDbEntity
  8
0
 62
     3
100
AcDbLine
 10
258.197004
 20
154.33839
 30
0.0
 11
292.481395
 21
154.33839
 31
0.0
  0
LINE
  5
2A1
330
36
100
AcDbEntity
  8
0
 62
     3
100
AcDbLine
 10
292.481395
 20
150.363788
 30
0.0
 11
258.197004
 21
150.363788
 31
0.0
  0
CIRCLE
  5
2A2
330
36
100
AcDbEntity
  8
0
 62
     3
100
AcDbCircle
 10
165.301448
 20
187.859704
 30
0.0
 40
29.49705
  0
LINE
  5
2A3
330
36
100
AcDbEntity
  8
0
 62
     3
100
AcDbLine
 10
263.773946
 20
203.758448
 30
0.0
 11
264.273896
 21
203.758448
 31
0.0
  0
LINE
  5
2A4
330
36
100
AcDbEntity
  8
0
 62
     3
100
AcDbLine
 10
262.079482
 20
158.362988
 30
0.0
 11
262.765852
 21
158.362988
 31
0.0
  0
LINE
  5
2A5
330
36
100
AcDbEntity
  8
0
 62
     3
100
AcDbLine
 10
263.623961
 20
172.1116129999999
 30
0.0
 11
264.123911
 21
172.1116129999999
 31
0.0
  0
LINE
  5
2A6
330
36
100
AcDbEntity
  8
0
 62
     3
100
AcDbLine
 10
263.623961
 20
172.1116129999999
 30
0.0
 11
263.623961
 21
170.361788
 31
0.0
  0
LINE
  5
2A7
330
36
100
AcDbEntity
  8
0
 62
     3
100
AcDbLine
 10
263.773946
 20
171.961628
 30
0.0
 11
264.273896
 21
171.961628
 31
0.0
  0
ARC
  5
2A8
330
36
100
AcDbEntity
  8
0
 62
     3
100
AcDbCircle
 10
262.788758
 20
158.462978
 30
0.0
 40
0.249975
100
AcDbArc
 50
270.0
 51
355.0
  0
ARC
  5
2A9
330
36
100
AcDbEntity
  8
0
 62
     3
100
AcDbCircle
 10
262.765852
 20
158.487975
 30
0.0
 40
0.124988
100
AcDbArc
 50
270.0
 51
355.0
  0
LINE
  5
2AA
330
36
100
AcDbEntity
  8
0
 62
     3
100
AcDbLine
 10
295.46541
 20
217.357088
 30
0.0
 11
294.77904
 21
217.357088
 31
0.0
  0
LINE
  5
2AB
330
36
100
AcDbEntity
  8
0
 62
     3
100
AcDbLine
 10
293.920931
 20
203.608463
 30
0.0
 11
293.420981
 21
203.608463
 31
0.0
  0
LINE
  5
2AC
330
36
100
AcDbEntity
  8
0
 62
     3
100
AcDbLine
 10
293.920931
 20
203.608463
 30
0.0
 11
293.920931
 21
205.358288
 31
0.0
  0
LINE
  5
2AD
330
36
100
AcDbEntity
  8
0
 62
     3
100
AcDbLine
 10
294.920831
 20
207.108113
 30
0.0
 11
293.920931
 21
205.358288
 31
0.0
  0
LINE
  5
2AE
330
36
100
AcDbEntity
  8
0
 62
     3
100
AcDbLine
 10
294.920831
 20
207.108113
 30
0.0
 11
293.920931
 21
208.857938
 31
0.0
  0
LINE
  5
2AF
330
36
100
AcDbEntity
  8
0
 62
     3
100
AcDbLine
 10
293.920931
 20
208.857938
 30
0.0
 11
294.654528
 21
217.242993
 31
0.0
  0
ARC
  5
2B0
330
36
100
AcDbEntity
  8
0
 62
     3
100
AcDbCircle
 10
294.77904
 20
217.2321
 30
0.0
 40
0.124988
100
AcDbArc
 50
90.0
 51
175.0
  0
ARC
  5
2B1
330
36
100
AcDbEntity
  8
0
 62
     3
100
AcDbCircle
 10
295.46541
 20
218.232
 30
0.0
 40
0.8749129999999999
100
AcDbArc
 50
270.0
 51
235.952268
  0
LINE
  5
2B2
330
36
100
AcDbEntity
  8
0
 62
     3
100
AcDbLine
 10
293.420981
 20
190.284795
 30
0.0
 11
292.521071
 21
190.284795
 31
0.0
  0
LINE
  5
2B3
330
36
100
AcDbEntity
  8
0
 62
     3
100
AcDbLine
 10
295.46541
 20
158.362988
 30
0.0
 11
294.77904
 21
158.362988
 31
0.0
  0
LINE
  5
2B4
330
36
100
AcDbEntity
  8
0
 62
     3
100
AcDbLine
 10
293.920931
 20
172.1116129999999
 30
0.0
 11
293.420981
 21
172.1116129999999
 31
0.0
  0
LINE
  5
2B5
330
36
100
AcDbEntity
  8
0
 62
     3
100
AcDbLine
 10
293.920931
 20
172.1116129999999
 30
0.0
 11
293.920931
 21
170.361788
 31
0.0
  0
LINE
  5
2B6
330
36
100
AcDbEntity
  8
0
 62
     3
100
AcDbLine
 10
294.920831
 20
168.611963
 30
0.0
 11
293.920931
 21
170.361788
 31
0.0
  0
LINE
  5
2B7
330
36
100
AcDbEntity
  8
0
 62
     3
100
AcDbLine
 10
294.920831
 20
168.611963
 30
0.0
 11
293.920931
 21
166.862138
 31
0.0
  0
LINE
  5
2B8
330
36
100
AcDbEntity
  8
0
 62
     3
100
AcDbLine
 10
293.920931
 20
166.862138
 30
0.0
 11
294.654528
 21
158.477082
 31
0.0
  0
ARC
  5
2B9
330
36
100
AcDbEntity
  8
0
 62
     3
100
AcDbCircle
 10
294.77904
 20
158.487975
 30
0.0
 40
0.124988
100
AcDbArc
 50
185.0
 51
270.0
  0
ARC
  5
2BA
330
36
100
AcDbEntity
  8
0
 62
     3
100
AcDbCircle
 10
295.46541
 20
157.488075
 30
0.0
 40
0.8749129999999999
100
AcDbArc
 50
124.047732
 51
90.0
  0
LINE
  5
2BB
330
36
100
AcDbEntity
  8
0
 62
     3
100
AcDbLine
 10
264.123911
 20
203.608463
 30
0.0
 11
264.123911
 21
172.1116129999999
 31
0.0
  0
LINE
  5
2BC
330
36
100
AcDbEntity
  8
0
 62
     3
100
AcDbLine
 10
253.460298
 20
154.725851
 30
0.0
 11
257.709873
 21
154.725851
 31
0.0
  0
ARC
  5
2BD
330
36
100
AcDbEntity
  8
0
 62
     3
100
AcDbCircle
 10
253.460298
 20
153.975926
 30
0.0
 40
0.749925
100
AcDbArc
 50
90.0
 51
180.0
  0
LINE
  5
2BE
330
36
100
AcDbEntity
  8
0
 62
     3
100
AcDbLine
 10
252.710373
 20
150.726251
 30
0.0
 11
252.710373
 21
153.975926
 31
0.0
  0
ARC
  5
2BF
330
36
100
AcDbEntity
  8
0
 62
     3
100
AcDbCircle
 10
253.460298
 20
150.726251
 30
0.0
 40
0.749925
100
AcDbArc
 50
180.0
 51
270.0
  0
LINE
  5
2C0
330
36
100
AcDbEntity
  8
0
 62
     3
100
AcDbLine
 10
253.460298
 20
149.976326
 30
0.0
 11
257.709873
 21
149.976326
 31
0.0
  0
ARC
  5
2C1
330
36
100
AcDbEntity
  8
0
 62
     3
100
AcDbCircle
 10
257.709873
 20
150.476276
 30
0.0
 40
0.4999500000000002
100
AcDbArc
 50
270.0
 51
0.0
  0
ARC
  5
2C2
330
36
100
AcDbEntity
  8
0
 62
     3
100
AcDbCircle
 10
257.709873
 20
154.225901
 30
0.0
 40
0.4999500000000002
100
AcDbArc
 50
0.0
 51
90.0
  0
ARC
  5
2C3
330
36
100
AcDbEntity
  8
0
 62
     3
100
AcDbCircle
 10
279.89855
 20
187.860038
 30
0.0
 40
1.749824999999999
100
AcDbArc
 50
90.0
 51
270.0
  0
ARC
  5
2C4
330
36
100
AcDbEntity
  8
0
 62
     3
100
AcDbCircle
 10
280.89845
 20
187.860038
 30
0.0
 40
1.749824999999999
100
AcDbArc
 50
270.0
 51
90.0
  0
LINE
  5
2C5
330
36
100
AcDbEntity
  8
0
 62
     3
100
AcDbLine
 10
279.89855
 20
189.609863
 30
0.0
 11
280.89845
 21
189.609863
 31
0.0
  0
LINE
  5
2C6
330
36
100
AcDbEntity
  8
0
 62
     3
100
AcDbLine
 10
280.89845
 20
186.110213
 30
0.0
 11
279.89855
 21
186.110213
 31
0.0
  0
LINE
  5
2C7
330
36
100
AcDbEntity
  8
0
 62
     3
100
AcDbLine
 10
280.348516
 20
185.472776
 30
0.0
 11
277.678868
 21
185.472776
 31
0.0
  0
LINE
  5
2C8
330
36
100
AcDbEntity
  8
0
 62
     3
100
AcDbLine
 10
280.348516
 20
190.247299
 30
0.0
 11
278.23069
 21
190.247299
 31
0.0
  0
CIRCLE
  5
2C9
330
36
100
AcDbEntity
  8
0
 62
     3
100
AcDbCircle
 10
165.301448
 20
187.859704
 30
0.0
 40
31.246875
  0
CIRCLE
  5
2CA
330
36
100
AcDbEntity
  8
0
 62
     3
100
AcDbCircle
 10
139.787509
 20
152.36658
 30
0.0
 40
2.374763
  0
CIRCLE
  5
2CB
330
36
100
AcDbEntity
  8
0
 62
     3
100
AcDbCircle
 10
190.794389
 20
152.36658
 30
0.0
 40
2.374763
  0
ARC
  5
2CC
330
36
100
AcDbEntity
  8
0
 62
     3
100
AcDbCircle
 10
262.079482
 20
157.488075
 30
0.0
 40
0.8749129999999999
100
AcDbArc
 50
90.0
 51
55.95226800000001
  0
LINE
  5
2CD
330
36
100
AcDbEntity
  8
0
 62
     3
100
AcDbLine
 10
263.777465
 20
166.89581
 30
0.0
 11
263.037781
 21
158.441191
 31
0.0
  0
LINE
  5
2CE
330
36
100
AcDbEntity
  8
0
 62
     3
100
AcDbLine
 10
262.079482
 20
217.357088
 30
0.0
 11
262.765852
 21
217.357088
 31
0.0
  0
ARC
  5
2CF
330
36
100
AcDbEntity
  8
0
 62
     3
100
AcDbCircle
 10
262.788758
 20
217.257098
 30
0.0
 40
0.249975
100
AcDbArc
 50
5.0
 51
90.0
  0
ARC
  5
2D0
330
36
100
AcDbEntity
  8
0
 62
     3
100
AcDbCircle
 10
262.765852
 20
217.2321
 30
0.0
 40
0.124988
100
AcDbArc
 50
5.0
 51
90.0
  0
ARC
  5
2D1
330
36
100
AcDbEntity
  8
0
 62
     3
100
AcDbCircle
 10
262.079482
 20
218.232
 30
0.0
 40
0.8749129999999999
100
AcDbArc
 50
304.047732
 51
270.0
  0
LINE
  5
2D2
330
36
100
AcDbEntity
  8
0
 62
     3
100
AcDbLine
 10
263.777465
 20
208.824265
 30
0.0
 11
263.037781
 21
217.278884
 31
0.0
  0
LINE
  5
2D3
330
36
100
AcDbEntity
  8
0
 62
     3
100
AcDbLine
 10
276.473795
 20
223.881435
 30
0.0
 11
292.481395
 21
223.881435
 31
0.0
  0
LINE
  5
2D4
330
36
100
AcDbEntity
  8
0
 62
     3
100
AcDbLine
 10
262.796806
 20
207.108113
 30
0.0
 11
263.777465
 21
208.824265
 31
0.0
  0
LINE
  5
2D5
330
36
100
AcDbEntity
  8
0
 62
     3
100
AcDbLine
 10
262.796806
 20
207.108113
 30
0.0
 11
263.773946
 21
205.398118
 31
0.0
  0
LINE
  5
2D6
330
36
100
AcDbEntity
  8
0
 62
     3
100
AcDbLine
 10
263.773946
 20
203.758448
 30
0.0
 11
263.773946
 21
205.398118
 31
0.0
  0
LINE
  5
2D7
330
36
100
AcDbEntity
  8
0
 62
     3
100
AcDbLine
 10
290.587383
 20
190.247299
 30
0.0
 11
293.420981
 21
190.247299
 31
0.0
  0
LINE
  5
2D8
330
36
100
AcDbEntity
  8
0
 62
     3
100
AcDbLine
 10
293.420981
 20
185.43528
 30
0.0
 11
292.521071
 21
185.43528
 31
0.0
  0
LINE
  5
2D9
330
36
100
AcDbEntity
  8
0
 62
     3
100
AcDbLine
 10
297.172871
 20
183.8604379999999
 30
0.0
 11
298.268064
 21
183.8604379999999
 31
0.0
  0
LINE
  5
2DA
330
36
100
AcDbEntity
  8
0
 62
     3
100
AcDbLine
 10
290.587383
 20
185.472776
 30
0.0
 11
293.420981
 21
185.472776
 31
0.0
  0
LINE
  5
2DB
330
36
100
AcDbEntity
  8
0
 62
     3
100
AcDbLine
 10
297.170606
 20
191.859638
 30
0.0
 11
298.263274
 21
191.859638
 31
0.0
  0
LINE
  5
2DC
330
36
100
AcDbEntity
  8
0
 62
     3
100
AcDbLine
 10
293.420981
 20
203.608463
 30
0.0
 11
293.420981
 21
171.973879
 31
0.0
  0
LINE
  5
2DD
330
36
100
AcDbEntity
  8
0
 62
     3
100
AcDbLine
 10
302.168247
 20
187.860038
 30
0.0
 11
302.705373
 21
160.587765
 31
0.0
  0
LINE
  5
2DE
330
36
100
AcDbEntity
  8
0
 62
     3
100
AcDbLine
 10
298.192952
 20
187.860038
 30
0.0
 11
298.731463
 21
160.513579
 31
0.0
  0
LINE
  5
2DF
330
36
100
AcDbEntity
  8
0
 62
     3
100
AcDbLine
 10
298.193039
 20
187.860038
 30
0.0
 11
298.731376
 21
217.7014259999999
 31
0.0
  0
LINE
  5
2E0
330
36
100
AcDbEntity
  8
0
 62
     3
100
AcDbLine
 10
302.168247
 20
187.860038
 30
0.0
 11
302.705373
 21
217.63206
 31
0.0
  0
ARC
  5
2E1
330
36
100
AcDbEntity
  8
0
 62
     3
100
AcDbCircle
 10
292.481395
 20
217.63206
 30
0.0
 40
10.223978
100
AcDbArc
 50
0.0
 51
90.0
  0
ARC
  5
2E2
330
36
100
AcDbEntity
  8
0
 62
     3
100
AcDbCircle
 10
292.481395
 20
217.63206
 30
0.0
 40
6.249374999999997
100
AcDbArc
 50
0.0
 51
90.0
  0
ARC
  5
2E3
330
36
100
AcDbEntity
  8
0
 62
     3
100
AcDbCircle
 10
292.481395
 20
160.587765
 30
0.0
 40
6.249374999999997
100
AcDbArc
 50
270.0
 51
0.0
  0
ARC
  5
2E4
330
36
100
AcDbEntity
  8
0
 62
     3
100
AcDbCircle
 10
292.481395
 20
160.587765
 30
0.0
 40
10.223978
100
AcDbArc
 50
270.0
 51
0.0
  0
LINE
  5
2E5
330
36
100
AcDbEntity
  8
0
  6
CENTER
100
AcDbLine
 10
260.208805
 20
187.860038
 30
0.0
 11
299.081411
 21
187.860038
 31
0.0
  0
LINE
  5
2E6
330
36
100
AcDbEntity
  8
0
 62
     3
100
AcDbLine
 10
292.481395
 20
227.856038
 30
0.0
 11
276.473795
 21
227.856038
 31
0.0
  0
LINE
  5
2E7
330
36
100
AcDbEntity
  8
0
 62
     3
100
AcDbLine
 10
262.796806
 20
168.611963
 30
0.0
 11
263.777465
 21
166.89581
 31
0.0
  0
LINE
  5
2E8
330
36
100
AcDbEntity
  8
0
 62
     3
100
AcDbLine
 10
262.796806
 20
168.611963
 30
0.0
 11
263.773946
 21
170.321957
 31
0.0
  0
ARC
  5
2E9
330
36
100
AcDbEntity
  8
0
100
AcDbCircle
 10
178.723499
 20
180.110479
 30
0.0
 40
1.749824999999999
100
AcDbArc
 50
63.69907099999997
 51
236.300929
  0
CIRCLE
  5
2EA
330
36
100
AcDbEntity
  8
0
100
AcDbCircle
 10
178.723499
 20
180.110479
 30
0.0
 40
0.6249380000000003
  0
ARC
  5
2EB
330
36
100
AcDbEntity
  8
0
100
AcDbCircle
 10
179.609582
 20
181.903258
 30
0.0
 40
0.249975
100
AcDbArc
 50
243.6990709999999
 51
337.398142
  0
ARC
  5
2EC
330
36
100
AcDbEntity
  8
0
100
AcDbCircle
 10
165.301448
 20
187.859704
 30
0.0
 40
15.748425
100
AcDbArc
 50
337.398142
 51
82.601858
  0
ARC
  5
2ED
330
36
100
AcDbEntity
  8
0
100
AcDbCircle
 10
165.301448
 20
187.859704
 30
0.0
 40
15.748425
100
AcDbArc
 50
217.398142
 51
322.601858
  0
ARC
  5
2EE
330
36
100
AcDbEntity
  8
0
100
AcDbCircle
 10
177.613948
 20
178.446719
 30
0.0
 40
0.249975
100
AcDbArc
 50
322.601858
 51
56.30092900000002
  0
ARC
  5
2EF
330
36
100
AcDbEntity
  8
0
100
AcDbCircle
 10
151.879396
 20
180.110479
 30
0.0
 40
1.749824999999999
100
AcDbArc
 50
303.699071
 51
116.300929
  0
CIRCLE
  5
2F0
330
36
100
AcDbEntity
  8
0
100
AcDbCircle
 10
151.879396
 20
180.110479
 30
0.0
 40
0.6249380000000003
  0
ARC
  5
2F1
330
36
100
AcDbEntity
  8
0
100
AcDbCircle
 10
150.993314
 20
181.903258
 30
0.0
 40
0.249975
100
AcDbArc
 50
202.6018580000001
 51
296.3009289999999
  0
ARC
  5
2F2
330
36
100
AcDbEntity
  8
0
100
AcDbCircle
 10
165.301448
 20
187.859704
 30
0.0
 40
15.748425
100
AcDbArc
 50
97.398142
 51
202.6018580000001
  0
ARC
  5
2F3
330
36
100
AcDbEntity
  8
0
100
AcDbCircle
 10
165.301448
 20
203.358154
 30
0.0
 40
1.749824999999999
100
AcDbArc
 50
183.699071
 51
356.3009290000001
  0
ARC
  5
2F4
330
36
100
AcDbEntity
  8
0
100
AcDbCircle
 10
163.305814
 20
203.229135
 30
0.0
 40
0.249975
100
AcDbArc
 50
3.699070999999998
 51
97.398142
  0
CIRCLE
  5
2F5
330
36
100
AcDbEntity
  8
0
100
AcDbCircle
 10
165.301448
 20
203.358154
 30
0.0
 40
0.6249380000000003
  0
ARC
  5
2F6
330
36
100
AcDbEntity
  8
0
100
AcDbCircle
 10
167.297082
 20
203.229135
 30
0.0
 40
0.249975
100
AcDbArc
 50
82.601858
 51
176.300929
  0
LINE
  5
2F9
330
36
100
AcDbEntity
  8
0
100
AcDbLine
 10
73.640089
 20
153.533432
 30
0.0
 11
77.990089
 21
153.533432
 31
0.0
  0
LINE
  5
2FA
330
36
100
AcDbEntity
  8
0
100
AcDbLine
 10
77.990089
 20
152.433432
 30
0.0
 11
73.640089
 21
152.433432
 31
0.0
  0
LINE
  5
2FB
330
36
100
AcDbEntity
  8
0
100
AcDbLine
 10
73.640089
 20
153.533432
 30
0.0
 11
73.640089
 21
152.433432
 31
0.0
  0
LINE
  5
2FC
330
36
100
AcDbEntity
  8
0
100
AcDbLine
 10
77.990089
 20
153.533432
 30
0.0
 11
77.990089
 21
152.433432
 31
0.0
  0
LINE
  5
2FD
330
36
100
AcDbEntity
  8
0
100
AcDbLine
 10
78.490089
 20
151.933432
 30
0.0
 11
73.140089
 21
151.933432
 31
0.0
  0
LINE
  5
2FE
330
36
100
AcDbEntity
  8
0
100
AcDbLine
 10
73.640089
 20
152.433432
 30
0.0
 11
73.140089
 21
151.933432
 31
0.0
  0
LINE
  5
2FF
330
36
100
AcDbEntity
  8
0
100
AcDbLine
 10
73.140089
 20
154.033432
 30
0.0
 11
73.140089
 21
151.933432
 31
0.0
  0
LINE
  5
300
330
36
100
AcDbEntity
  8
0
100
AcDbLine
 10
73.640089
 20
153.533432
 30
0.0
 11
73.140089
 21
154.033432
 31
0.0
  0
LINE
  5
301
330
36
100
AcDbEntity
  8
0
100
AcDbLine
 10
73.140089
 20
154.033432
 30
0.0
 11
78.490089
 21
154.033432
 31
0.0
  0
LINE
  5
302
330
36
100
AcDbEntity
  8
0
100
AcDbLine
 10
77.990089
 20
153.533432
 30
0.0
 11
78.490089
 21
154.033432
 31
0.0
  0
LINE
  5
303
330
36
100
AcDbEntity
  8
0
100
AcDbLine
 10
78.490089
 20
154.033432
 30
0.0
 11
78.490089
 21
151.933432
 31
0.0
  0
LINE
  5
304
330
36
100
AcDbEntity
  8
0
100
AcDbLine
 10
77.990089
 20
152.433432
 30
0.0
 11
78.490089
 21
151.933432
 31
0.0
  0
LINE
  5
305
330
36
100
AcDbEntity
  8
0
100
AcDbLine
 10
73.640089
 20
158.783432
 30
0.0
 11
77.990089
 21
158.783432
 31
0.0
  0
LINE
  5
306
330
36
100
AcDbEntity
  8
0
100
AcDbLine
 10
77.990089
 20
159.883432
 30
0.0
 11
73.640089
 21
159.883432
 31
0.0
  0
LINE
  5
307
330
36
100
AcDbEntity
  8
0
100
AcDbLine
 10
77.990089
 20
158.783432
 30
0.0
 11
77.990089
 21
159.883432
 31
0.0
  0
LINE
  5
308
330
36
100
AcDbEntity
  8
0
100
AcDbLine
 10
78.490089
 20
160.383432
 30
0.0
 11
73.140089
 21
160.383432
 31
0.0
  0
LINE
  5
309
330
36
100
AcDbEntity
  8
0
100
AcDbLine
 10
73.140089
 20
158.283432
 30
0.0
 11
78.490089
 21
158.283432
 31
0.0
  0
LINE
  5
30A
330
36
100
AcDbEntity
  8
0
100
AcDbLine
 10
77.990089
 20
158.783432
 30
0.0
 11
78.490089
 21
158.283432
 31
0.0
  0
LINE
  5
30B
330
36
100
AcDbEntity
  8
0
100
AcDbLine
 10
78.490089
 20
158.283432
 30
0.0
 11
78.490089
 21
160.383432
 31
0.0
  0
LINE
  5
30C
330
36
100
AcDbEntity
  8
0
100
AcDbLine
 10
77.990089
 20
159.883432
 30
0.0
 11
78.490089
 21
160.383432
 31
0.0
  0
LINE
  5
30D
330
36
100
AcDbEntity
  8
0
100
AcDbLine
 10
73.640089
 20
158.783432
 30
0.0
 11
73.640089
 21
159.883432
 31
0.0
  0
LINE
  5
30E
330
36
100
AcDbEntity
  8
0
100
AcDbLine
 10
73.640089
 20
159.883432
 30
0.0
 11
73.140089
 21
160.383432
 31
0.0
  0
LINE
  5
30F
330
36
100
AcDbEntity
  8
0
100
AcDbLine
 10
73.140089
 20
158.283432
 30
0.0
 11
73.140089
 21
160.383432
 31
0.0
  0
LINE
  5
310
330
36
100
AcDbEntity
  8
0
100
AcDbLine
 10
73.640089
 20
158.783432
 30
0.0
 11
73.140089
 21
158.283432
 31
0.0
  0
CIRCLE
  5
311
330
36
100
AcDbEntity
  8
0
 62
     3
100
AcDbCircle
 10
86.815089
 20
216.392417
 30
0.0
 40
4.5
  0
LINE
  5
312
330
36
100
AcDbEntity
  8
0
 62
     3
100
AcDbLine
 10
82.49218499999996
 20
217.642417
 30
0.0
 11
79.315089
 21
217.642417
 31
0.0
  0
LINE
  5
313
330
36
100
AcDbEntity
  8
0
 62
     3
100
AcDbLine
 10
82.49218499999996
 20
215.142417
 30
0.0
 11
79.315089
 21
215.142417
 31
0.0
  0
LINE
  5
314
330
36
100
AcDbEntity
  8
0
 62
     3
100
AcDbLine
 10
73.21508900000002
 20
236.178534
 30
0.0
 11
73.21508900000002
 21
220.142417
 31
0.0
  0
LINE
  5
315
330
36
100
AcDbEntity
  8
0
 62
     3
100
AcDbLine
 10
78.415089
 20
236.585883
 30
0.0
 11
78.415089
 21
220.142417
 31
0.0
  0
LINE
  5
316
330
36
100
AcDbEntity
  8
0
 62
     3
100
AcDbLine
 10
79.315089
 20
220.142417
 30
0.0
 11
72.315089
 21
220.142417
 31
0.0
  0
LINE
  5
317
330
36
100
AcDbEntity
  8
0
 62
     3
100
AcDbLine
 10
79.315089
 20
220.142417
 30
0.0
 11
79.315089
 21
212.642417
 31
0.0
  0
LINE
  5
318
330
36
100
AcDbEntity
  8
0
 62
     3
100
AcDbLine
 10
72.315089
 20
220.142417
 30
0.0
 11
72.315089
 21
212.642417
 31
0.0
  0
LINE
  5
319
330
36
100
AcDbEntity
  8
0
 62
     3
100
AcDbLine
 10
79.315089
 20
212.642417
 30
0.0
 11
72.315089
 21
212.642417
 31
0.0
  0
LINE
  5
31A
330
36
100
AcDbEntity
  8
0
 62
     3
100
AcDbLine
 10
73.21508900000002
 20
212.642417
 30
0.0
 11
73.21508900000002
 21
208.142417
 31
0.0
  0
LINE
  5
31B
330
36
100
AcDbEntity
  8
0
 62
     3
100
AcDbLine
 10
78.415089
 20
212.642417
 30
0.0
 11
78.415089
 21
208.142417
 31
0.0
  0
LINE
  5
31C
330
36
100
AcDbEntity
  8
0
 62
     3
100
AcDbLine
 10
79.315089
 20
208.142417
 30
0.0
 11
72.315089
 21
208.142417
 31
0.0
  0
LINE
  5
31D
330
36
100
AcDbEntity
  8
0
 62
     3
100
AcDbLine
 10
72.315089
 20
208.142417
 30
0.0
 11
72.065089
 21
195.642417
 31
0.0
  0
LINE
  5
31E
330
36
100
AcDbEntity
  8
0
 62
     3
100
AcDbLine
 10
79.315089
 20
208.142417
 30
0.0
 11
79.565089
 21
195.642417
 31
0.0
  0
LINE
  5
31F
330
36
100
AcDbEntity
  8
0
 62
     3
100
AcDbLine
 10
71.440089
 20
195.642417
 30
0.0
 11
70.940089
 21
195.142417
 31
0.0
  0
LINE
  5
320
330
36
100
AcDbEntity
  8
0
 62
     3
100
AcDbLine
 10
70.940089
 20
195.142417
 30
0.0
 11
70.940089
 21
194.642417
 31
0.0
  0
LINE
  5
321
330
36
100
AcDbEntity
  8
0
 62
     3
100
AcDbLine
 10
80.690089
 20
194.642417
 30
0.0
 11
70.940089
 21
194.642417
 31
0.0
  0
LINE
  5
322
330
36
100
AcDbEntity
  8
0
 62
     3
100
AcDbLine
 10
80.690089
 20
195.142417
 30
0.0
 11
80.690089
 21
194.642417
 31
0.0
  0
LINE
  5
323
330
36
100
AcDbEntity
  8
0
 62
     3
100
AcDbLine
 10
80.19008900000001
 20
195.642417
 30
0.0
 11
80.690089
 21
195.142417
 31
0.0
  0
ARC
  5
324
330
36
100
AcDbEntity
  8
0
 62
     3
100
AcDbCircle
 10
84.315089
 20
192.642417
 30
0.0
 40
4.5
100
AcDbArc
 50
180.0
 51
270.0
  0
LINE
  5
325
330
36
100
AcDbEntity
  8
0
 62
     3
100
AcDbLine
 10
79.815089
 20
192.642417
 30
0.0
 11
79.815089
 21
194.642417
 31
0.0
  0
LINE
  5
326
330
36
100
AcDbEntity
  8
0
 62
     3
100
AcDbLine
 10
89.065089
 20
188.142417
 30
0.0
 11
84.315089
 21
188.142417
 31
0.0
  0
ARC
  5
327
330
36
100
AcDbEntity
  8
0
 62
     3
100
AcDbCircle
 10
67.315089
 20
192.642417
 30
0.0
 40
4.5
100
AcDbArc
 50
270.0
 51
0.0
  0
LINE
  5
328
330
36
100
AcDbEntity
  8
0
 62
     3
100
AcDbLine
 10
71.815089
 20
192.642417
 30
0.0
 11
71.815089
 21
194.642417
 31
0.0
  0
LINE
  5
329
330
36
100
AcDbEntity
  8
0
 62
     3
100
AcDbLine
 10
62.565089
 20
188.142417
 30
0.0
 11
67.315089
 21
188.142417
 31
0.0
  0
LINE
  5
32A
330
36
100
AcDbEntity
  8
0
 62
     3
100
AcDbLine
 10
62.315089
 20
188.392417
 30
0.0
 11
62.565089
 21
188.142417
 31
0.0
  0
LINE
  5
32B
330
36
100
AcDbEntity
  8
0
 62
     3
100
AcDbLine
 10
60.815089
 20
188.642417
 30
0.0
 11
62.315089
 21
188.642417
 31
0.0
  0
LINE
  5
32C
330
36
100
AcDbEntity
  8
0
 62
     3
100
AcDbLine
 10
60.815089
 20
188.642417
 30
0.0
 11
60.815089
 21
179.642417
 31
0.0
  0
LINE
  5
32D
330
36
100
AcDbEntity
  8
0
 62
     3
100
AcDbLine
 10
62.315089
 20
179.642417
 30
0.0
 11
60.815089
 21
179.642417
 31
0.0
  0
LINE
  5
32E
330
36
100
AcDbEntity
  8
0
 62
     3
100
AcDbLine
 10
62.565089
 20
180.142417
 30
0.0
 11
62.315089
 21
179.892417
 31
0.0
  0
LINE
  5
32F
330
36
100
AcDbEntity
  8
0
 62
     3
100
AcDbLine
 10
62.565089
 20
180.142417
 30
0.0
 11
67.315089
 21
180.142417
 31
0.0
  0
ARC
  5
330
330
36
100
AcDbEntity
  8
0
 62
     3
100
AcDbCircle
 10
67.315089
 20
175.642417
 30
0.0
 40
4.5
100
AcDbArc
 50
0.0
 51
90.0
  0
LINE
  5
331
330
36
100
AcDbEntity
  8
0
 62
     3
100
AcDbLine
 10
71.815089
 20
171.392417
 30
0.0
 11
71.815089
 21
175.642417
 31
0.0
  0
LINE
  5
332
330
36
100
AcDbEntity
  8
0
 62
     3
100
AcDbLine
 10
71.315089
 20
171.142417
 30
0.0
 11
71.315089
 21
169.642417
 31
0.0
  0
LINE
  5
333
330
36
100
AcDbEntity
  8
0
 62
     3
100
AcDbLine
 10
71.815089
 20
171.392417
 30
0.0
 11
71.565089
 21
171.142417
 31
0.0
  0
LINE
  5
334
330
36
100
AcDbEntity
  8
0
 62
     3
100
AcDbLine
 10
71.315089
 20
169.642417
 30
0.0
 11
80.315089
 21
169.642417
 31
0.0
  0
LINE
  5
335
330
36
100
AcDbEntity
  8
0
 62
     3
100
AcDbLine
 10
80.315089
 20
171.142417
 30
0.0
 11
80.315089
 21
169.642417
 31
0.0
  0
LINE
  5
336
330
36
100
AcDbEntity
  8
0
 62
     3
100
AcDbLine
 10
79.815089
 20
171.392417
 30
0.0
 11
80.065089
 21
171.142417
 31
0.0
  0
LINE
  5
337
330
36
100
AcDbEntity
  8
0
 62
     3
100
AcDbLine
 10
79.815089
 20
171.392417
 30
0.0
 11
79.815089
 21
175.642417
 31
0.0
  0
ARC
  5
338
330
36
100
AcDbEntity
  8
0
 62
     3
100
AcDbCircle
 10
84.315089
 20
175.642417
 30
0.0
 40
4.5
100
AcDbArc
 50
90.0
 51
180.0
  0
LINE
  5
339
330
36
100
AcDbEntity
  8
0
 62
     3
100
AcDbLine
 10
89.065089
 20
180.142417
 30
0.0
 11
84.315089
 21
180.142417
 31
0.0
  0
LINE
  5
33A
330
36
100
AcDbEntity
  8
0
 62
     3
100
AcDbLine
 10
90.81508900000001
 20
179.642417
 30
0.0
 11
89.315089
 21
179.642417
 31
0.0
  0
LINE
  5
33B
330
36
100
AcDbEntity
  8
0
 62
     3
100
AcDbLine
 10
89.065089
 20
180.142417
 30
0.0
 11
89.315089
 21
179.892417
 31
0.0
  0
LINE
  5
33C
330
36
100
AcDbEntity
  8
0
 62
     3
100
AcDbLine
 10
90.81508900000001
 20
179.642417
 30
0.0
 11
90.81508900000001
 21
188.642417
 31
0.0
  0
LINE
  5
33D
330
36
100
AcDbEntity
  8
0
 62
     3
100
AcDbLine
 10
90.81508900000001
 20
188.642417
 30
0.0
 11
89.315089
 21
188.642417
 31
0.0
  0
LINE
  5
33E
330
36
100
AcDbEntity
  8
0
 62
     3
100
AcDbLine
 10
89.315089
 20
188.392417
 30
0.0
 11
89.065089
 21
188.142417
 31
0.0
  0
LINE
  5
33F
330
36
100
AcDbEntity
  8
0
100
AcDbLine
 10
79.315089
 20
206.892417
 30
0.0
 11
75.815089
 21
206.892417
 31
0.0
  0
LINE
  5
340
330
36
100
AcDbEntity
  8
0
100
AcDbLine
 10
79.315089
 20
205.642417
 30
0.0
 11
75.815089
 21
205.642417
 31
0.0
  0
LINE
  5
341
330
36
100
AcDbEntity
  8
0
100
AcDbLine
 10
79.315089
 20
199.392417
 30
0.0
 11
75.815089
 21
199.392417
 31
0.0
  0
LINE
  5
342
330
36
100
AcDbEntity
  8
0
100
AcDbLine
 10
79.315089
 20
198.142417
 30
0.0
 11
75.815089
 21
198.142417
 31
0.0
  0
ARC
  5
343
330
36
100
AcDbEntity
  8
0
100
AcDbCircle
 10
75.815089
 20
206.267417
 30
0.0
 40
0.625
100
AcDbArc
 50
90.0
 51
270.0
  0
ARC
  5
344
330
36
100
AcDbEntity
  8
0
100
AcDbCircle
 10
75.815089
 20
198.767417
 30
0.0
 40
0.625
100
AcDbArc
 50
90.0
 51
270.0
  0
LINE
  5
345
330
36
100
AcDbEntity
  8
0
100
AcDbLine
 10
75.815089
 20
203.767417
 30
0.0
 11
72.315089
 21
203.767417
 31
0.0
  0
LINE
  5
346
330
36
100
AcDbEntity
  8
0
100
AcDbLine
 10
75.815089
 20
205.017417
 30
0.0
 11
72.315089
 21
205.017417
 31
0.0
  0
ARC
  5
347
330
36
100
AcDbEntity
  8
0
100
AcDbCircle
 10
75.815089
 20
204.392417
 30
0.0
 40
0.625
100
AcDbArc
 50
270.0
 51
90.0
  0
ARC
  5
348
330
36
100
AcDbEntity
  8
0
100
AcDbCircle
 10
75.815089
 20
202.517417
 30
0.0
 40
0.625
100
AcDbArc
 50
90.0
 51
270.0
  0
LINE
  5
349
330
36
100
AcDbEntity
  8
0
100
AcDbLine
 10
79.315089
 20
201.892417
 30
0.0
 11
75.815089
 21
201.892417
 31
0.0
  0
LINE
  5
34A
330
36
100
AcDbEntity
  8
0
100
AcDbLine
 10
79.315089
 20
203.142417
 30
0.0
 11
75.815089
 21
203.142417
 31
0.0
  0
ARC
  5
34B
330
36
100
AcDbEntity
  8
0
100
AcDbCircle
 10
75.815089
 20
200.642417
 30
0.0
 40
0.625
100
AcDbArc
 50
270.0
 51
90.0
  0
LINE
  5
34C
330
36
100
AcDbEntity
  8
0
100
AcDbLine
 10
75.815089
 20
200.017417
 30
0.0
 11
72.315089
 21
200.017417
 31
0.0
  0
LINE
  5
34D
330
36
100
AcDbEntity
  8
0
100
AcDbLine
 10
75.815089
 20
201.267417
 30
0.0
 11
72.315089
 21
201.267417
 31
0.0
  0
LINE
  5
34E
330
36
100
AcDbEntity
  8
0
100
AcDbLine
 10
71.440089
 20
195.642417
 30
0.0
 11
80.19008900000001
 21
195.642417
 31
0.0
  0
CIRCLE
  5
34F
330
36
100
AcDbEntity
  8
0
100
AcDbCircle
 10
86.815089
 20
216.392417
 30
0.0
 40
2.0
  0
LINE
  5
350
330
36
100
AcDbEntity
  8
0
100
AcDbLine
 10
89.315089
 20
188.642417
 30
0.0
 11
89.315089
 21
179.642417
 31
0.0
  0
LINE
  5
351
330
36
100
AcDbEntity
  8
0
100
AcDbLine
 10
80.315089
 20
171.142417
 30
0.0
 11
71.315089
 21
171.142417
 31
0.0
  0
LINE
  5
352
330
36
100
AcDbEntity
  8
0
100
AcDbLine
 10
62.315089
 20
179.642417
 30
0.0
 11
62.315089
 21
188.642417
 31
0.0
  0
LINE
  5
353
330
36
100
AcDbEntity
  8
0
 62
     3
100
AcDbLine
 10
263.105326
 20
161.9787409999999
 30
0.0
 11
263.105326
 21
159.797339
 31
0.0
  0
ARC
  5
354
330
36
100
AcDbEntity
  8
0
 62
     3
100
AcDbCircle
 10
262.891463
 20
161.9787409999999
 30
0.0
 40
0.213863
100
AcDbArc
 50
0.0
 51
90.0
  0
ARC
  5
355
330
36
100
AcDbEntity
  8
0
 62
     3
100
AcDbCircle
 10
262.891463
 20
159.797339
 30
0.0
 40
0.213863
100
AcDbArc
 50
270.0
 51
0.0
  0
LINE
  5
356
330
36
100
AcDbEntity
  8
0
 62
     3
100
AcDbLine
 10
262.891463
 20
159.583476
 30
0.0
 11
262.763145
 21
159.583476
 31
0.0
  0
LINE
  5
357
330
36
100
AcDbEntity
  8
0
 62
     3
100
AcDbLine
 10
262.763145
 20
162.192604
 30
0.0
 11
262.891463
 21
162.192604
 31
0.0
  0
LINE
  5
359
330
36
100
AcDbEntity
  8
0
 62
     3
100
AcDbLine
 10
298.193006
 20
187.881038
 30
0.0
 11
298.268071
 21
183.860022
 31
0.0
  0
LINE
  5
35A
330
36
100
AcDbEntity
  8
0
 62
     3
100
AcDbLine
 10
298.193467
 20
187.860426
 30
0.0
 11
298.26328
 21
191.860026
 31
0.0
  0
LINE
  5
35B
330
36
100
AcDbEntity
  8
0
 62
     3
100
AcDbLine
 10
297.170606
 20
183.8604379999999
 30
0.0
 11
297.170606
 21
191.859638
 31
0.0
  0
LWPOLYLINE
  5
35C
330
36
100
AcDbEntity
  8
0
100
AcDbPolyline
 90
        3
 70
     0
 43
0.0
 10
306.220014
 20
217.055508
 10
305.749907
 20
215.039029
 10
307.165271
 20
216.550298
  0
LINE
  5
361
330
36
100
AcDbEntity
  8
0
100
AcDbLine
 10
305.749907
 20
215.039029
 30
0.0
 11
318.400382
 21
238.708278
 31
0.0
  0
CIRCLE
  5
362
330
36
100
AcDbEntity
  8
0
100
AcDbCircle
 10
320.75722
 20
243.117962
 30
0.0
 40
5.0
  0
TEXT
  5
363
330
36
100
AcDbEntity
  8
0
 62
     4
100
AcDbText
 10
317.4643404292838
 20
240.8602365415313
 30
0.0
 40
4.5
  1
13
  7
高4.5
100
AcDbText
  0
LINE
  5
365
330
36
100
AcDbEntity
  8
0
100
AcDbLine
 10
287.341242
 20
205.33329
 30
0.0
 11
293.770946
 21
205.33329
 31
0.0
  0
ARC
  5
366
330
36
100
AcDbEntity
  8
0
100
AcDbCircle
 10
152.988947
 20
178.446719
 30
0.0
 40
0.249975
100
AcDbArc
 50
123.6990709999999
 51
217.398142
  0
LINE
  5
367
330
36
100
AcDbEntity
  8
0
 62
     3
100
AcDbLine
 10
20.0
 20
287.0
 30
0.0
 11
20.0
 21
10.0
 31
0.0
  0
LINE
  5
368
330
36
100
AcDbEntity
  8
0
 62
     3
100
AcDbLine
 10
410.0
 20
10.0
 30
0.0
 11
410.0
 21
287.0
 31
0.0
  0
LINE
  5
369
330
36
100
AcDbEntity
  8
0
 62
     3
100
AcDbLine
 10
20.0
 20
287.0
 30
0.0
 11
410.0
 21
287.0
 31
0.0
  0
LINE
  5
36A
330
36
100
AcDbEntity
  8
0
 62
     3
100
AcDbLine
 10
20.0
 20
10.0
 30
0.0
 11
410.0
 21
10.0
 31
0.0
  0
LINE
  5
36B
330
36
100
AcDbEntity
  8
0
 62
     3
100
AcDbLine
 10
262.765852
 20
162.112613
 30
0.0
 11
263.257162
 21
162.112613
 31
0.0
  0
LINE
  5
36C
330
36
100
AcDbEntity
  8
0
 62
     3
100
AcDbLine
 10
262.989731
 20
159.6128629999999
 30
0.0
 11
262.765852
 21
159.6128629999999
 31
0.0
  0
LINE
  5
36D
330
36
100
AcDbEntity
  8
0
 62
     3
100
AcDbLine
 10
261.20457
 20
218.232
 30
0.0
 11
261.20457
 21
162.323163
 31
0.0
  0
LINE
  5
36E
330
36
100
AcDbEntity
  8
0
 62
     3
100
AcDbLine
 10
296.340322
 20
184.6103629999999
 30
0.0
 11
296.340322
 21
157.488075
 31
0.0
  0
LINE
  5
36F
330
36
100
AcDbEntity
  8
0
 62
     3
100
AcDbLine
 10
296.340322
 20
218.232
 30
0.0
 11
296.340322
 21
191.109713
 31
0.0
  0
TEXT
  5
370
330
36
100
AcDbEntity
  8
0
 62
     3
100
AcDbText
 10
114.2439400879112
 20
35.5
 30
0.0
 40
3.2
  1
R-00
 41
0.8
  7
高3.2
100
AcDbText
  0
TEXT
  5
371
330
36
100
AcDbEntity
  8
0
 62
     3
100
AcDbText
 10
114.2439400879112
 20
30.5
 30
0.0
 40
3.2
  1
R-02
 41
0.8
  7
高3.2
100
AcDbText
  0
TEXT
  5
372
330
36
100
AcDbEntity
  8
0
 62
     3
100
AcDbText
 10
114.2439400879112
 20
25.5
 30
0.0
 40
3.2
  1
NP-120
 41
0.8
  7
高3.2
100
AcDbText
  0
LINE
  5
373
330
36
100
AcDbEntity
  8
0
100
AcDbLine
 10
294.920831
 20
191.109713
 30
0.0
 11
294.920831
 21
207.108113
 31
0.0
  0
LINE
  5
374
330
36
100
AcDbEntity
  8
0
100
AcDbLine
 10
294.77904
 20
207.356246
 30
0.0
 11
294.77904
 21
217.357088
 31
0.0
  0
LINE
  5
375
330
36
100
AcDbEntity
  8
0
100
AcDbLine
 10
262.624061
 20
191.109713
 30
0.0
 11
262.624061
 21
207.108113
 31
0.0
  0
LINE
  5
376
330
36
100
AcDbEntity
  8
0
100
AcDbLine
 10
262.765852
 20
207.356246
 30
0.0
 11
262.765852
 21
217.357088
 31
0.0
  0
LINE
  5
377
330
36
100
AcDbEntity
  8
0
100
AcDbLine
 10
294.920831
 20
168.611963
 30
0.0
 11
294.920831
 21
184.6103629999999
 31
0.0
  0
LINE
  5
378
330
36
100
AcDbEntity
  8
0
100
AcDbLine
 10
294.77904
 20
158.362988
 30
0.0
 11
294.77904
 21
168.363829
 31
0.0
  0
LINE
  5
379
330
36
100
AcDbEntity
  8
0
100
AcDbLine
 10
262.765852
 20
158.362988
 30
0.0
 11
262.765852
 21
168.363829
 31
0.0
  0
LINE
  5
37A
330
36
100
AcDbEntity
  8
0
100
AcDbLine
 10
262.624061
 20
168.611963
 30
0.0
 11
262.624061
 21
184.6103629999999
 31
0.0
  0
LINE
  5
37B
330
36
100
AcDbEntity
  8
0
100
AcDbLine
 10
263.765752
 20
159.6128629999999
 30
0.0
 11
263.765752
 21
162.112613
 31
0.0
  0
TEXT
  5
37C
330
36
100
AcDbEntity
  8
0
 62
     3
100
AcDbText
 10
75.81789399999998
 20
65.5
 30
0.0
 40
3.2
  1
1
 41
0.8
  7
高3.2
100
AcDbText
  0
TEXT
  5
37D
330
36
100
AcDbEntity
  8
0
 62
     3
100
AcDbText
 10
75.81789399999998
 20
60.5
 30
0.0
 40
3.2
  1
1
 41
0.8
  7
高3.2
100
AcDbText
  0
TEXT
  5
37E
330
36
100
AcDbEntity
  8
0
 62
     3
100
AcDbText
 10
75.81789399999998
 20
55.5
 30
0.0
 40
3.2
  1
1
 41
0.8
  7
高3.2
100
AcDbText
  0
LWPOLYLINE
  5
37F
330
36
100
AcDbEntity
  8
0
100
AcDbPolyline
 90
        3
 70
     0
 43
0.0
 10
78.212702
 20
230.593619
 10
77.27627099999998
 20
228.746924
 10
79.010592
 20
229.877993
  0
LINE
  5
384
330
36
100
AcDbEntity
  8
0
100
AcDbLine
 10
77.27627099999998
 20
228.746924
 30
0.0
 11
91.222463
 21
244.296281
 31
0.0
  0
CIRCLE
  5
385
330
36
100
AcDbEntity
  8
0
100
AcDbCircle
 10
94.560904
 20
248.018486
 30
0.0
 40
5.0
  0
TEXT
  5
386
330
36
100
AcDbEntity
  8
0
 62
     4
100
AcDbText
 10
91.83251713123468
 20
245.789576882754
 30
0.0
 40
4.5
  1
10
  7
高4.5
100
AcDbText
  0
ARC
  5
387
330
36
100
AcDbEntity
  8
0
 62
     3
100
AcDbCircle
 10
292.822155
 20
198.608866
 30
0.0
 40
1.624822999999999
100
AcDbArc
 50
292.619865
 51
67.380135
  0
LINE
  5
388
330
36
100
AcDbEntity
  8
0
 62
     3
100
AcDbLine
 10
281.098435
 20
185.485296
 30
0.0
 11
280.348516
 21
185.485296
 31
0.0
  0
ARC
  5
389
330
36
100
AcDbEntity
  8
0
 62
     3
100
AcDbCircle
 10
281.098435
 20
185.985242
 30
0.0
 40
0.499946
100
AcDbArc
 50
270.0
 51
0.0
  0
ARC
  5
38A
330
36
100
AcDbEntity
  8
0
 62
     3
100
AcDbCircle
 10
281.098435
 20
189.734833
 30
0.0
 40
0.499946
100
AcDbArc
 50
0.0
 51
90.0
  0
LINE
  5
38B
330
36
100
AcDbEntity
  8
0
 62
     3
100
AcDbLine
 10
281.098435
 20
190.234779
 30
0.0
 11
280.348516
 21
190.234779
 31
0.0
  0
LINE
  5
38C
330
36
100
AcDbEntity
  8
0
 62
     3
100
AcDbLine
 10
285.347971
 20
197.359002
 30
0.0
 11
283.098217
 21
197.359002
 31
0.0
  0
LINE
  5
38D
330
36
100
AcDbEntity
  8
0
 62
     3
100
AcDbLine
 10
280.348516
 20
190.984697
 30
0.0
 11
280.348516
 21
190.234779
 31
0.0
  0
LINE
  5
38E
330
36
100
AcDbEntity
  8
0
 62
     3
100
AcDbLine
 10
283.098217
 20
190.984697
 30
0.0
 11
280.348516
 21
190.984697
 31
0.0
  0
LINE
  5
38F
330
36
100
AcDbEntity
  8
0
 62
     3
100
AcDbLine
 10
283.098217
 20
184.735378
 30
0.0
 11
280.348516
 21
184.735378
 31
0.0
  0
LINE
  5
390
330
36
100
AcDbEntity
  8
0
 62
     3
100
AcDbLine
 10
280.348516
 20
185.485296
 30
0.0
 11
280.348516
 21
184.735378
 31
0.0
  0
LINE
  5
391
330
36
100
AcDbEntity
  8
0
 62
     3
100
AcDbLine
 10
287.347753
 20
199.983716
 30
0.0
 11
285.347971
 21
199.983716
 31
0.0
  0
LINE
  5
392
330
36
100
AcDbEntity
  8
0
 62
     3
100
AcDbLine
 10
289.597508
 20
191.984588
 30
0.0
 11
287.347753
 21
191.984588
 31
0.0
  0
LINE
  5
393
330
36
100
AcDbEntity
  8
0
 62
     3
100
AcDbLine
 10
290.097454
 20
190.859711
 30
0.0
 11
290.597399
 21
190.234779
 31
0.0
  0
LINE
  5
394
330
36
100
AcDbEntity
  8
0
 62
     3
100
AcDbLine
 10
290.097454
 20
190.859711
 30
0.0
 11
289.597508
 21
190.859711
 31
0.0
  0
LINE
  5
395
330
36
100
AcDbEntity
  8
0
 62
     3
100
AcDbLine
 10
289.597508
 20
183.735487
 30
0.0
 11
287.347753
 21
183.735487
 31
0.0
  0
LINE
  5
396
330
36
100
AcDbEntity
  8
0
 62
     3
100
AcDbLine
 10
290.097454
 20
184.860365
 30
0.0
 11
289.597508
 21
184.860365
 31
0.0
  0
LINE
  5
397
330
36
100
AcDbEntity
  8
0
 62
     3
100
AcDbLine
 10
290.597399
 20
185.485296
 30
0.0
 11
290.097454
 21
184.860365
 31
0.0
  0
LINE
  5
398
330
36
100
AcDbEntity
  8
0
 62
     3
100
AcDbLine
 10
290.597399
 20
190.247299
 30
0.0
 11
290.597399
 21
185.472776
 31
0.0
  0
LINE
  5
399
330
36
100
AcDbEntity
  8
0
 62
     3
100
AcDbLine
 10
289.597508
 20
191.984588
 30
0.0
 11
289.597508
 21
183.735487
 31
0.0
  0
LINE
  5
39A
330
36
100
AcDbEntity
  8
0
 62
     3
100
AcDbLine
 10
287.347753
 20
175.736359
 30
0.0
 11
285.347971
 21
175.736359
 31
0.0
  0
LINE
  5
39B
330
36
100
AcDbEntity
  8
0
 62
     3
100
AcDbLine
 10
294.982072
 20
177.111209
 30
0.0
 11
295.00251
 21
177.111209
 31
0.0
  0
ARC
  5
39C
330
36
100
AcDbEntity
  8
0
 62
     3
100
AcDbCircle
 10
292.712089
 20
177.039544
 30
0.0
 40
1.734888999999999
100
AcDbArc
 50
295.0656940000001
 51
64.93430600000002
  0
LINE
  5
39D
330
36
100
AcDbEntity
  8
0
 62
     3
100
AcDbLine
 10
285.347971
 20
178.361073
 30
0.0
 11
283.098217
 21
178.361073
 31
0.0
  0
LINE
  5
39E
330
36
100
AcDbEntity
  8
0
 62
     3
100
AcDbLine
 10
283.098217
 20
197.359002
 30
0.0
 11
283.098217
 21
178.361073
 31
0.0
  0
LINE
  5
39F
330
36
100
AcDbEntity
  8
0
 62
     3
100
AcDbLine
 10
285.347971
 20
199.983716
 30
0.0
 11
285.347971
 21
175.736359
 31
0.0
  0
LINE
  5
3A0
330
36
100
AcDbEntity
  8
0
 62
     3
100
AcDbLine
 10
287.347753
 20
199.983716
 30
0.0
 11
287.347753
 21
175.736359
 31
0.0
  0
LWPOLYLINE
  5
3A1
330
36
100
AcDbEntity
  8
0
 62
     3
100
AcDbPolyline
 90
        5
 70
     0
 43
0.0
 10
302.141073
 20
186.275456
 10
302.448209
 20
186.249646
 10
302.752514
 20
186.208192
 10
303.324132
 20
186.081412
 10
303.894082
 20
185.918104
  0
LWPOLYLINE
  5
3A8
330
36
100
AcDbEntity
  8
0
 62
     3
100
AcDbPolyline
 90
       13
 70
     0
 43
0.0
 10
304.194359
 20
188.544317
 10
304.455135
 20
188.467807
 10
304.716873
 20
188.389894
 10
305.434314
 20
188.164378
 10
306.102029
 20
187.856716
 10
306.839543
 20
187.236326
 10
307.477776
 20
186.47156
 10
308.342255
 20
185.321282
 10
309.016191
 20
184.090575
 10
309.247933
 20
183.366465
 10
309.406447
 20
182.613278
 10
309.553081
 20
181.471536
 10
309.558796
 20
180.33006
  0
LWPOLYLINE
  5
3B7
330
36
100
AcDbEntity
  8
0
 62
     3
100
AcDbPolyline
 90
       11
 70
     0
 43
0.0
 10
304.5385
 20
185.690422
 10
304.594574
 20
185.66138
 10
304.649269
 20
185.630231
 10
305.074183
 20
185.273988
 10
305.44169
 20
184.83239
 10
306.103003
 20
183.961868
 10
306.608256
 20
183.026911
 10
306.732261
 20
182.627753
 10
306.822729
 20
182.215034
 10
306.940343
 20
181.351854
 10
306.948241
 20
180.486438
  0
LWPOLYLINE
  5
3C4
330
36
100
AcDbEntity
  8
0
 62
     3
100
AcDbPolyline
 90
       13
 70
     0
 43
0.0
 10
312.312677
 20
161.90286
 10
312.051902
 20
161.97937
 10
311.790164
 20
162.057283
 10
311.072723
 20
162.282799
 10
310.405008
 20
162.590461
 10
309.667493
 20
163.210852
 10
309.029261
 20
163.975617
 10
308.164782
 20
165.125895
 10
307.4908450000001
 20
166.356602
 10
307.259103
 20
167.080712
 10
307.10059
 20
167.833899
 10
306.953956
 20
168.975642
 10
306.948241
 20
170.117117
  0
LWPOLYLINE
  5
3D3
330
36
100
AcDbEntity
  8
0
 62
     3
100
AcDbPolyline
 90
       11
 70
     0
 43
0.0
 10
311.968537
 20
164.756755
 10
311.912463
 20
164.785797
 10
311.857768
 20
164.816946
 10
311.432854
 20
165.1731889999999
 10
311.065346
 20
165.614787
 10
310.404034
 20
166.485309
 10
309.898781
 20
167.420266
 10
309.774776
 20
167.819424
 10
309.684308
 20
168.232143
 10
309.566694
 20
169.095323
 10
309.558796
 20
169.960739
  0
LWPOLYLINE
  5
3E0
330
36
100
AcDbEntity
  8
0
 62
     3
100
AcDbPolyline
 90
        5
 70
     0
 43
0.0
 10
314.365964
 20
164.171721
 10
314.058827
 20
164.197531
 10
313.754522
 20
164.238985
 10
313.182905
 20
164.3657649999999
 10
312.612955
 20
164.529073
  0
LWPOLYLINE
  5
3E7
330
36
100
AcDbEntity
  8
0
100
AcDbPolyline
 90
        3
 70
     0
 43
0.0
 10
286.236441
 20
200.634459
 10
286.9309740000001
 20
198.683867
 10
287.304787
 20
200.720396
  0
LINE
  5
3EC
330
36
100
AcDbEntity
  8
0
100
AcDbLine
 10
286.9309740000001
 20
198.683867
 30
0.0
 11
283.742167
 21
238.326293
 31
0.0
  0
CIRCLE
  5
3ED
330
36
100
AcDbEntity
  8
0
100
AcDbCircle
 10
283.341266
 20
243.310195
 30
0.0
 40
5.0
  0
TEXT
  5
3EE
330
36
100
AcDbEntity
  8
0
 62
     4
100
AcDbText
 10
281.001921434183
 20
241.0524705415313
 30
0.0
 40
4.5
  1
11
  7
高4.5
100
AcDbText
  0
TEXT
  5
3F0
330
36
100
AcDbEntity
  8
0
 62
     3
100
AcDbText
 10
114.2439400879112
 20
65.5
 30
0.0
 40
3.2
  1
2P 20A 125V
 41
0.8
  7
高3.2
100
AcDbText
  0
TEXT
  5
3F1
330
36
100
AcDbEntity
  8
0
 62
     3
100
AcDbText
 10
114.2439400879112
 20
60.5
 30
0.0
 40
3.2
  1
1.25sqx2cx17m
 41
0.8
  7
高3.2
100
AcDbText
  0
TEXT
  5
3F2
330
36
100
AcDbEntity
  8
0
 62
     3
100
AcDbText
 10
114.2439400879112
 20
55.5
 30
0.0
 40
3.2
  1
1.25sqx2cx3m
 41
0.8
  7
高3.2
100
AcDbText
  0
TEXT
  5
3F4
330
36
100
AcDbEntity
  8
0
 62
     3
100
AcDbText
 10
84.513998
 20
55.5
 30
0.0
 40
3.2
  1
VCT（グリーン）
 41
0.8
  7
高3.2
100
AcDbText
  0
TEXT
  5
3F5
330
36
100
AcDbEntity
  8
0
 62
     3
100
AcDbText
 10
84.513998
 20
60.5
 30
0.0
 40
3.2
  1
VCT（オレンジ）
 41
0.8
  7
高3.2
100
AcDbText
  0
TEXT
  5
3F6
330
36
100
AcDbEntity
  8
0
 62
     3
100
AcDbText
 10
84.513998
 20
65.5
 30
0.0
 40
3.2
  1
PC樹脂（黒）
 41
0.8
  7
高3.2
100
AcDbText
  0
TEXT
  5
3F9
330
36
100
AcDbEntity
  8
0
 62
     3
100
AcDbText
 10
21.5
 20
65.5
 30
0.0
 40
3.2
  1
11
 41
0.8
  7
高3.2
100
AcDbText
  0
TEXT
  5
3FA
330
36
100
AcDbEntity
  8
0
 62
     3
100
AcDbText
 10
21.5
 20
60.5
 30
0.0
 40
3.2
  1
10
 41
0.8
  7
高3.2
100
AcDbText
  0
TEXT
  5
3FB
330
36
100
AcDbEntity
  8
0
 62
     4
100
AcDbText
 10
358.1231643343265
 20
141.1546747878499
 30
0.0
 40
3.2
  1
2Pプラグ
  7
高3.2
100
AcDbText
  0
TEXT
  5
3FD
330
36
100
AcDbEntity
  8
0
 62
     4
100
AcDbText
 10
58.42941999363074
 20
141.1932626801558
 30
0.0
 40
3.2
  1
2Pトリプルコンセント
  7
高3.2
100
AcDbText
  0
LWPOLYLINE
  5
3FE
330
36
100
AcDbEntity
  8
0
 62
     3
100
AcDbPolyline
 90
        5
 70
     0
 43
0.0
 10
302.055032
 20
188.879443
 10
302.604354
 20
188.852182
 10
303.147409
 20
188.790486
 10
303.332171
 20
188.758131
 10
303.516042
 20
188.720236
  0
LWPOLYLINE
  5
405
330
36
100
AcDbEntity
  8
0
 62
     3
100
AcDbPolyline
 90
        5
 70
     0
 43
0.0
 10
314.452004
 20
161.567734
 10
313.902683
 20
161.594995
 10
313.359628
 20
161.656691
 10
313.174866
 20
161.689046
 10
312.990995
 20
161.726941
  0
LINE
  5
40C
330
36
100
AcDbEntity
  8
0
100
AcDbLine
 10
292.04724
 20
176.177294
 30
0.0
 11
292.04724
 21
178.045125
 31
0.0
  0
ARC
  5
40D
330
36
100
AcDbEntity
  8
0
100
AcDbCircle
 10
292.953391
 20
177.111209
 30
0.0
 40
0.906151
100
AcDbArc
 50
136.397181
 51
223.6028189999999
  0
LINE
  5
40E
330
36
100
AcDbEntity
  8
0
100
AcDbLine
 10
292.297213
 20
177.736141
 30
0.0
 11
293.297104
 21
177.736141
 31
0.0
  0
LINE
  5
40F
330
36
100
AcDbEntity
  8
0
100
AcDbLine
 10
292.297213
 20
176.486277
 30
0.0
 11
293.297104
 21
176.486277
 31
0.0
  0
ARC
  5
410
330
36
100
AcDbEntity
  8
0
100
AcDbCircle
 10
292.363189
 20
176.177294
 30
0.0
 40
0.315949
100
AcDbArc
 50
102.053105
 51
270.0
  0
LINE
  5
411
330
36
100
AcDbEntity
  8
0
100
AcDbLine
 10
292.363189
 20
175.861346
 30
0.0
 11
293.297104
 21
175.861346
 31
0.0
  0
ARC
  5
412
330
36
100
AcDbEntity
  8
0
100
AcDbCircle
 10
292.363189
 20
178.045125
 30
0.0
 40
0.315949
100
AcDbArc
 50
90.0
 51
257.946895
  0
LINE
  5
413
330
36
100
AcDbEntity
  8
0
100
AcDbLine
 10
292.363189
 20
178.361073
 30
0.0
 11
293.297104
 21
178.361073
 31
0.0
  0
LINE
  5
414
330
36
100
AcDbEntity
  8
0
100
AcDbLine
 10
292.297213
 20
197.983934
 30
0.0
 11
293.297104
 21
197.983934
 31
0.0
  0
ARC
  5
415
330
36
100
AcDbEntity
  8
0
100
AcDbCircle
 10
292.953391
 20
198.608866
 30
0.0
 40
0.906151
100
AcDbArc
 50
136.397181
 51
223.6028189999999
  0
LINE
  5
416
330
36
100
AcDbEntity
  8
0
100
AcDbLine
 10
292.297213
 20
199.233798
 30
0.0
 11
293.297104
 21
199.233798
 31
0.0
  0
LINE
  5
417
330
36
100
AcDbEntity
  8
0
100
AcDbLine
 10
287.347753
 20
199.233798
 30
0.0
 11
292.04724
 21
199.233798
 31
0.0
  0
LINE
  5
418
330
36
100
AcDbEntity
  8
0
100
AcDbLine
 10
287.347753
 20
197.983934
 30
0.0
 11
292.04724
 21
197.983934
 31
0.0
  0
LINE
  5
419
330
36
100
AcDbEntity
  8
0
100
AcDbLine
 10
292.04724
 20
197.674951
 30
0.0
 11
292.04724
 21
199.542781
 31
0.0
  0
ARC
  5
41A
330
36
100
AcDbEntity
  8
0
100
AcDbCircle
 10
292.363189
 20
199.542781
 30
0.0
 40
0.315949
100
AcDbArc
 50
90.0
 51
257.946895
  0
LINE
  5
41B
330
36
100
AcDbEntity
  8
0
100
AcDbLine
 10
292.363189
 20
199.85873
 30
0.0
 11
293.297104
 21
199.85873
 31
0.0
  0
LINE
  5
41C
330
36
100
AcDbEntity
  8
0
100
AcDbLine
 10
292.363189
 20
197.359002
 30
0.0
 11
293.297104
 21
197.359002
 31
0.0
  0
ARC
  5
41D
330
36
100
AcDbEntity
  8
0
100
AcDbCircle
 10
292.363189
 20
197.674951
 30
0.0
 40
0.315949
100
AcDbArc
 50
102.053105
 51
270.0
  0
LINE
  5
41E
330
36
100
AcDbEntity
  8
0
100
AcDbLine
 10
285.347971
 20
197.983934
 30
0.0
 11
284.098108
 21
197.983934
 31
0.0
  0
LINE
  5
41F
330
36
100
AcDbEntity
  8
0
100
AcDbLine
 10
284.098108
 20
199.233798
 30
0.0
 11
284.098108
 21
197.983934
 31
0.0
  0
LINE
  5
420
330
36
100
AcDbEntity
  8
0
100
AcDbLine
 10
285.347971
 20
199.233798
 30
0.0
 11
284.098108
 21
199.233798
 31
0.0
  0
LINE
  5
421
330
36
100
AcDbEntity
  8
0
100
AcDbLine
 10
285.347971
 20
176.486277
 30
0.0
 11
284.098108
 21
176.486277
 31
0.0
  0
LINE
  5
422
330
36
100
AcDbEntity
  8
0
100
AcDbLine
 10
284.098108
 20
177.736141
 30
0.0
 11
284.098108
 21
176.486277
 31
0.0
  0
LINE
  5
423
330
36
100
AcDbEntity
  8
0
100
AcDbLine
 10
285.347971
 20
177.736141
 30
0.0
 11
284.098108
 21
177.736141
 31
0.0
  0
CIRCLE
  5
424
330
36
100
AcDbEntity
  8
0
100
AcDbCircle
 10
303.629538
 20
208.984612
 30
0.0
 40
1.135303
  0
CIRCLE
  5
425
330
36
100
AcDbEntity
  8
0
100
AcDbCircle
 10
303.629538
 20
206.714005
 30
0.0
 40
1.135303
  0
CIRCLE
  5
426
330
36
100
AcDbEntity
  8
0
100
AcDbCircle
 10
303.629538
 20
204.443399
 30
0.0
 40
1.135303
  0
CIRCLE
  5
427
330
36
100
AcDbEntity
  8
0
100
AcDbCircle
 10
303.629538
 20
202.172793
 30
0.0
 40
1.135303
  0
CIRCLE
  5
428
330
36
100
AcDbEntity
  8
0
100
AcDbCircle
 10
303.629538
 20
199.902187
 30
0.0
 40
1.135303
  0
LINE
  5
429
330
36
100
AcDbEntity
  8
0
100
AcDbLine
 10
305.722407
 20
199.635955
 30
0.0
 11
305.890108
 21
219.667932
 31
0.0
  0
LINE
  5
42A
330
36
100
AcDbEntity
  8
0
100
AcDbLine
 10
305.055831
 20
199.641535
 30
0.0
 11
305.223531
 21
219.673512
 31
0.0
  0
ARC
  5
42B
330
36
100
AcDbEntity
  8
0
100
AcDbCircle
 10
304.430915
 20
199.646767
 30
0.0
 40
1.291537
100
AcDbArc
 50
296.827774
 51
359.520352
  0
ARC
  5
42C
330
36
100
AcDbEntity
  8
0
100
AcDbCircle
 10
304.430915
 20
199.646767
 30
0.0
 40
0.624937
100
AcDbArc
 50
296.827774
 51
359.520352
  0
ARC
  5
42D
330
36
100
AcDbEntity
  8
0
100
AcDbCircle
 10
304.34458
 20
196.991721
 30
0.0
 40
1.708161999999999
100
AcDbArc
 50
113.553793
 51
177.554898
  0
LINE
  5
42E
330
36
100
AcDbEntity
  8
0
100
AcDbLine
 10
305.094155
 20
198.535961
 30
0.0
 11
303.875755
 21
197.921804
 31
0.0
  0
LINE
  5
42F
330
36
100
AcDbEntity
  8
0
100
AcDbLine
 10
304.712956
 20
199.089093
 30
0.0
 11
303.661982
 21
198.557568
 31
0.0
  0
ARC
  5
430
330
36
100
AcDbEntity
  8
0
100
AcDbCircle
 10
304.34458
 20
196.991721
 30
0.0
 40
1.041562
100
AcDbArc
 50
116.751242
 51
175.921344
  0
ARC
  5
431
330
36
100
AcDbEntity
  8
0
100
AcDbCircle
 10
304.344305
 20
197.143644
 30
0.0
 40
1.041562
100
AcDbArc
 50
184.28601
 51
243.456113
  0
ARC
  5
432
330
36
100
AcDbEntity
  8
0
100
AcDbCircle
 10
304.344305
 20
197.143644
 30
0.0
 40
1.708161999999999
100
AcDbArc
 50
182.6524569999999
 51
246.653562
  0
LINE
  5
433
330
36
100
AcDbEntity
  8
0
100
AcDbLine
 10
305.099463
 20
195.602126
 30
0.0
 11
303.878849
 21
196.21187
 31
0.0
  0
ARC
  5
434
330
36
100
AcDbEntity
  8
0
100
AcDbCircle
 10
304.476572
 20
194.470722
 30
0.0
 40
1.291537
100
AcDbArc
 50
0.103677
 51
63.37958
  0
LINE
  5
435
330
36
100
AcDbEntity
  8
0
100
AcDbLine
 10
304.756593
 20
195.0294129999999
 30
0.0
 11
303.667378
 21
195.575337
 31
0.0
  0
ARC
  5
436
330
36
100
AcDbEntity
  8
0
100
AcDbCircle
 10
304.476572
 20
194.470722
 30
0.0
 40
0.624937
100
AcDbArc
 50
0.103677
 51
63.37958
  0
LINE
  5
437
330
36
100
AcDbEntity
  8
0
100
AcDbLine
 10
305.768108
 20
194.473059
 30
0.0
 11
305.790457
 21
182.12204
 31
0.0
  0
LINE
  5
438
330
36
100
AcDbEntity
  8
0
100
AcDbLine
 10
305.101509
 20
194.471853
 30
0.0
 11
305.123858
 21
182.120834
 31
0.0
  0
ARC
  5
439
330
36
100
AcDbEntity
  8
0
100
AcDbCircle
 10
302.510119
 20
181.844835
 30
0.0
 40
3.270506
100
AcDbArc
 50
269.721717
 51
5.403677
  0
ARC
  5
43A
330
36
100
AcDbEntity
  8
0
100
AcDbCircle
 10
302.510119
 20
181.844835
 30
0.0
 40
2.603906
100
AcDbArc
 50
269.650476
 51
5.403677
  0
LINE
  5
43B
330
36
100
AcDbEntity
  8
0
100
AcDbLine
 10
306.203246
 20
220.749045
 30
0.0
 11
309.076554
 21
225.378329
 31
0.0
  0
LINE
  5
43C
330
36
100
AcDbEntity
  8
0
100
AcDbLine
 10
305.636874
 20
221.100581
 30
0.0
 11
308.485975
 21
225.690866
 31
0.0
  0
ARC
  5
43D
330
36
100
AcDbEntity
  8
0
100
AcDbCircle
 10
307.97316
 20
219.650494
 30
0.0
 40
2.749725
100
AcDbArc
 50
148.172921
 51
179.520352
  0
ARC
  5
43E
330
36
100
AcDbEntity
  8
0
100
AcDbCircle
 10
307.97316
 20
219.650494
 30
0.0
 40
2.083124999999999
100
AcDbArc
 50
148.172921
 51
179.520352
  0
ARC
  5
43F
330
36
100
AcDbEntity
  8
0
100
AcDbCircle
 10
308.77186
 20
225.513423
 30
0.0
 40
0.3333
100
AcDbArc
 50
328.172921
 51
148.172921
  0
LINE
  5
440
330
36
100
AcDbEntity
  8
0
 62
     3
100
AcDbLine
 10
293.420981
 20
184.6103629999999
 30
0.0
 11
297.170606
 21
184.6103629999999
 31
0.0
  0
LINE
  5
441
330
36
100
AcDbEntity
  8
0
 62
     3
100
AcDbLine
 10
297.170606
 20
191.109713
 30
0.0
 11
293.420981
 21
191.109713
 31
0.0
  0
LWPOLYLINE
  5
44A
330
36
100
AcDbEntity
  8
0
100
AcDbPolyline
 90
        3
 70
     0
 43
0.0
 10
295.928268
 20
216.677538
 10
295.661466
 20
214.624247
 10
296.919169
 20
216.269048
  0
LINE
  5
44F
330
36
100
AcDbEntity
  8
0
100
AcDbLine
 10
295.661466
 20
214.624247
 30
0.0
 11
305.502116
 21
238.495347
 31
0.0
  0
CIRCLE
  5
450
330
36
100
AcDbEntity
  8
0
100
AcDbCircle
 10
307.407748
 20
243.117962
 30
0.0
 40
5.0
  0
TEXT
  5
451
330
36
100
AcDbEntity
  8
0
 62
     4
100
AcDbText
 10
304.1148684292839
 20
240.8602365415313
 30
0.0
 40
4.5
  1
04
  7
高4.5
100
AcDbText
  0
LWPOLYLINE
  5
452
330
36
100
AcDbEntity
  8
0
100
AcDbPolyline
 90
        3
 70
     0
 43
0.0
 10
290.044752
 20
207.393592
 10
290.29636
 20
205.338384
 10
291.106065
 20
207.24405
  0
LINE
  5
457
330
36
100
AcDbEntity
  8
0
100
AcDbLine
 10
290.29636
 20
205.338384
 30
0.0
 11
294.964836
 21
238.471056
 31
0.0
  0
CIRCLE
  5
458
330
36
100
AcDbEntity
  8
0
100
AcDbCircle
 10
295.662457
 20
243.422149
 30
0.0
 40
5.0
  0
TEXT
  5
459
330
36
100
AcDbEntity
  8
0
 62
     4
100
AcDbText
 10
292.3695774292836
 20
241.1644235415313
 30
0.0
 40
4.5
  1
03
  7
高4.5
100
AcDbText
  0
LWPOLYLINE
  5
45A
330
36
100
AcDbEntity
  8
0
100
AcDbPolyline
 90
        3
 70
     0
 43
0.0
 10
168.392262
 20
227.027736
 10
168.463703
 20
224.958417
 10
169.436493
 20
226.78622
  0
LINE
  5
45F
330
36
100
AcDbEntity
  8
0
100
AcDbLine
 10
168.463703
 20
224.958417
 30
0.0
 11
171.53706
 21
238.246558
 31
0.0
  0
CIRCLE
  5
460
330
36
100
AcDbEntity
  8
0
100
AcDbCircle
 10
172.663746
 20
243.117962
 30
0.0
 40
5.0
  0
TEXT
  5
461
330
36
100
AcDbEntity
  8
0
 62
     4
100
AcDbText
 10
169.9082576349317
 20
240.8738067444017
 30
0.0
 40
4.5
  1
01
  7
高4.5
100
AcDbText
  0
LWPOLYLINE
  5
462
330
36
100
AcDbEntity
  8
0
100
AcDbPolyline
 90
        3
 70
     0
 43
0.0
 10
175.477352
 20
219.334994
 10
175.333113
 20
217.269471
 10
176.490789
 20
218.986147
  0
LINE
  5
467
330
36
100
AcDbEntity
  8
0
100
AcDbLine
 10
175.333113
 20
217.269471
 30
0.0
 11
182.603331
 21
238.390215
 31
0.0
  0
CIRCLE
  5
468
330
36
100
AcDbEntity
  8
0
100
AcDbCircle
 10
184.230723
 20
243.117962
 30
0.0
 40
5.0
  0
TEXT
  5
469
330
36
100
AcDbEntity
  8
0
 62
     4
100
AcDbText
 10
180.9378434292838
 20
240.8602365415313
 30
0.0
 40
4.5
  1
05
  7
高4.5
100
AcDbText
  0
LWPOLYLINE
  5
46A
330
36
100
AcDbEntity
  8
0
100
AcDbPolyline
 90
        3
 70
     0
 43
0.0
 10
167.865674
 20
191.310457
 10
167.386139
 20
189.2962
 10
168.808557
 20
190.80083
  0
LINE
  5
46F
330
36
100
AcDbEntity
  8
0
100
AcDbLine
 10
167.386139
 20
189.2962
 30
0.0
 11
194.099291
 21
238.719353
 31
0.0
  0
CIRCLE
  5
470
330
36
100
AcDbEntity
  8
0
100
AcDbCircle
 10
196.476734
 20
243.117962
 30
0.0
 40
5.0
  0
TEXT
  5
471
330
36
100
AcDbEntity
  8
0
 62
     4
100
AcDbText
 10
193.1838544292838
 20
240.8602365415313
 30
0.0
 40
4.5
  1
06
  7
高4.5
100
AcDbText
  0
LWPOLYLINE
  5
472
330
36
100
AcDbEntity
  8
0
100
AcDbPolyline
 90
        3
 70
     0
 43
0.0
 10
277.620817
 20
228.601966
 10
278.983621
 20
227.043135
 10
278.582814
 20
229.074524
  0
LINE
  5
477
330
36
100
AcDbEntity
  8
0
100
AcDbLine
 10
278.983621
 20
227.043135
 30
0.0
 11
273.197323
 21
238.822421
 31
0.0
  0
CIRCLE
  5
478
330
36
100
AcDbEntity
  8
0
100
AcDbCircle
 10
270.992809
 20
243.310195
 30
0.0
 40
5.0
  0
TEXT
  5
479
330
36
100
AcDbEntity
  8
0
 62
     4
100
AcDbText
 10
267.6999294292838
 20
241.0524705415313
 30
0.0
 40
4.5
  1
02
  7
高4.5
100
AcDbText
  0
LWPOLYLINE
  5
47A
330
36
100
AcDbEntity
  8
0
100
AcDbPolyline
 90
        3
 70
     0
 43
0.0
 10
253.020474
 20
149.968532
 10
253.74516
 20
151.908124
 10
252.147767
 20
150.590731
  0
LINE
  5
47F
330
36
100
AcDbEntity
  8
0
100
AcDbLine
 10
253.74516
 20
151.908124
 30
0.0
 11
240.280633
 21
133.02256
 31
0.0
  0
CIRCLE
  5
480
330
36
100
AcDbEntity
  8
0
100
AcDbCircle
 10
237.378035
 20
128.951328
 30
0.0
 40
5.0
  0
TEXT
  5
481
330
36
100
AcDbEntity
  8
0
 62
     4
100
AcDbText
 10
234.0851554292838
 20
126.6936035415312
 30
0.0
 40
4.5
  1
08
  7
高4.5
100
AcDbText
  0
LWPOLYLINE
  5
482
330
36
100
AcDbEntity
  8
0
100
AcDbPolyline
 90
        3
 70
     0
 43
0.0
 10
255.17855
 20
159.49544
 10
256.228287
 20
161.280163
 10
254.426826
 20
160.259416
  0
LINE
  5
487
330
36
100
AcDbEntity
  8
0
100
AcDbLine
 10
256.228287
 20
161.280163
 30
0.0
 11
240.942034
 21
146.239077
 31
0.0
  0
CIRCLE
  5
488
330
36
100
AcDbEntity
  8
0
100
AcDbCircle
 10
237.378035
 20
142.732239
 30
0.0
 40
5.0
  0
TEXT
  5
489
330
36
100
AcDbEntity
  8
0
 62
     4
100
AcDbText
 10
234.0851554292838
 20
140.4745145415312
 30
0.0
 40
4.5
  1
07
  7
高4.5
100
AcDbText
  0
LINE
  5
48A
330
36
100
AcDbEntity
  8
0
100
AcDbLine
 10
286.554624
 20
204.809286
 30
0.0
 11
293.770946
 21
204.83334
 31
0.0
  0
CIRCLE
  5
48B
330
36
100
AcDbEntity
  8
0
100
AcDbCircle
 10
165.301448
 20
187.859704
 30
0.0
 40
20.9979
  0
CIRCLE
  5
48C
330
36
100
AcDbEntity
  8
0
100
AcDbCircle
 10
165.301448
 20
187.859704
 30
0.0
 40
19.248075
  0
CIRCLE
  5
48D
330
36
100
AcDbEntity
  8
0
100
AcDbCircle
 10
165.301448
 20
187.859704
 30
0.0
 40
17.49825
  0
TEXT
  5
4F1
330
36
100
AcDbEntity
  8
0
 62
     3
100
AcDbText
 10
114.2439400879112
 20
50.5
 30
0.0
 40
3.2
  1
フレームキャップ（16）
 41
0.8
  7
高3.2
100
AcDbText
  0
TEXT
  5
4F2
330
36
100
AcDbEntity
  8
0
 62
     7
100
AcDbText
 10
335.5
 20
272.5
 30
0.0
 40
2.5
  1
`11.11.24
  7
高2.5
100
AcDbText
  0
TEXT
  5
4F3
330
36
100
AcDbEntity
  8
0
 62
     7
100
AcDbText
 10
353.5
 20
272.5
 30
0.0
 40
2.5
  1
部品名変更（フレームキャップ）
 41
0.8
  7
高2.5
100
AcDbText
  0
TEXT
  5
4F4
330
36
100
AcDbEntity
  8
0
 62
     7
100
AcDbText
 10
397.5
 20
272.5
 30
0.0
 40
2.5
  1
牧田
  7
高2.5
100
AcDbText
  0
LINE
  5
74F
330
36
100
AcDbEntity
  8
0
 62
     3
100
AcDbLine
 10
410.0
 20
55.665723
 30
0.0
 11
358.300637
 21
55.665723
 31
0.0
  0
TEXT
  5
758
330
36
100
AcDbEntity
  8
0
 62
     3
100
AcDbText
 10
363.1476189012528
 20
50.44637629748994
 30
0.0
 40
4.5
  1
コード
  7
高4.5
100
AcDbText
  0
TEXT
  5
759
330
36
100
AcDbEntity
  8
0
 62
     3
100
AcDbText
 10
390.3372563360665
 20
50.36144196804229
 30
0.0
 40
4.5
  1
765
  7
高4.5
100
AcDbText
  0
TEXT
  5
783
330
36
100
AcDbEntity
  8
0
 62
     3
100
AcDbText
 10
150.9752800705815
 20
10.5
 30
0.0
 40
3.2
  1
コード
 41
0.8
  7
高3.2
100
AcDbText
  0
TEXT
  5
784
330
36
100
AcDbEntity
  8
0
 62
     3
100
AcDbText
 10
150.9752800705815
 20
15.5
 30
0.0
 40
3.2
  1
50027
 41
0.8
  7
高3.2
100
AcDbText
  0
TEXT
  5
785
330
36
100
AcDbEntity
  8
0
 62
     3
100
AcDbText
 10
150.9752800705815
 20
20.5
 30
0.0
 40
3.2
  1
50707
 41
0.8
  7
高3.2
100
AcDbText
  0
TEXT
  5
786
330
36
100
AcDbEntity
  8
0
 62
     3
100
AcDbText
 10
150.9752800705815
 20
25.5
 30
0.0
 40
3.2
  1
51516
 41
0.8
  7
高3.2
100
AcDbText
  0
TEXT
  5
788
330
36
100
AcDbEntity
  8
0
 62
     3
100
AcDbText
 10
150.9752800705815
 20
30.5
 30
0.0
 40
3.2
  1
50946
 41
0.8
  7
高3.2
100
AcDbText
  0
TEXT
  5
789
330
36
100
AcDbEntity
  8
0
 62
     3
100
AcDbText
 10
150.9752800705815
 20
35.5
 30
0.0
 40
3.2
  1
50947
 41
0.8
  7
高3.2
100
AcDbText
  0
TEXT
  5
78A
330
36
100
AcDbEntity
  8
0
 62
     3
100
AcDbText
 10
150.9752800705815
 20
40.49999999999999
 30
0.0
 40
3.2
  1
50054
 41
0.8
  7
高3.2
100
AcDbText
  0
TEXT
  5
78B
330
36
100
AcDbEntity
  8
0
 62
     3
100
AcDbText
 10
150.9752800705815
 20
45.49999999999999
 30
0.0
 40
3.2
  1
8075
 41
0.8
  7
高3.2
100
AcDbText
  0
TEXT
  5
78C
330
36
100
AcDbEntity
  8
0
 62
     3
100
AcDbText
 10
150.9752800705815
 20
50.5
 30
0.0
 40
3.2
  1
50028
 41
0.8
  7
高3.2
100
AcDbText
  0
LINE
  5
78D
330
36
100
AcDbEntity
  8
0
100
AcDbLine
 10
149.4752800705815
 20
70.00000000000001
 30
0.0
 11
149.4752800705815
 21
10.0
 31
0.0
  0
TEXT
  5
78F
330
36
100
AcDbEntity
  8
0
 62
     3
100
AcDbText
 10
150.9752800705815
 20
55.5
 30
0.0
 40
3.2
  1
51025
 41
0.8
  7
高3.2
100
AcDbText
  0
TEXT
  5
790
330
36
100
AcDbEntity
  8
0
 62
     3
100
AcDbText
 10
150.9752800705815
 20
60.5
 30
0.0
 40
3.2
  1
51024
 41
0.8
  7
高3.2
100
AcDbText
  0
TEXT
  5
791
330
36
100
AcDbEntity
  8
0
 62
     3
100
AcDbText
 10
150.9752800705815
 20
65.5
 30
0.0
 40
3.2
  1
50045
 41
0.8
  7
高3.2
100
AcDbText
  0
TEXT
  5
799
330
36
100
AcDbEntity
  8
0
 62
     3
100
AcDbText
 10
166.7303462255305
 20
10.5
 30
0.0
 40
3.2
  1
コード番号名称
 41
0.6
  7
高3.2
100
AcDbText
  0
TEXT
  5
79A
330
36
100
AcDbEntity
  8
0
 62
     3
100
AcDbText
 10
166.7303462255305
 20
15.5
 30
0.0
 40
3.2
  1
握りゴム　大
 41
0.6
  7
高3.2
100
AcDbText
  0
TEXT
  5
79B
330
36
100
AcDbEntity
  8
0
 62
     3
100
AcDbText
 10
166.7303462255305
 20
20.5
 30
0.0
 40
3.2
  1
RSA120B一脚　黒
 41
0.6
  7
高3.2
100
AcDbText
  0
TEXT
  5
79C
330
36
100
AcDbEntity
  8
0
 62
     3
100
AcDbText
 10
166.7303462255305
 20
25.5
 30
0.0
 40
3.2
  1
NP-120巻胴(旧NR)
 41
0.6
  7
高3.2
100
AcDbText
  0
TEXT
  5
79D
330
36
100
AcDbEntity
  8
0
 62
     3
100
AcDbText
 10
166.7303462255305
 20
30.5
 30
0.0
 40
3.2
  1
RSA-A板　エメラルドグリーン
 41
0.6
  7
高3.2
100
AcDbText
  0
TEXT
  5
79E
330
36
100
AcDbEntity
  8
0
 62
     3
100
AcDbText
 10
166.7303462255305
 20
35.5
 30
0.0
 40
3.2
  1
RSA-B板　エメラルドグリーン
 41
0.6
  7
高3.2
100
AcDbText
  0
TEXT
  5
79F
330
36
100
AcDbEntity
  8
0
 62
     3
100
AcDbText
 10
166.7303462255305
 20
40.49999999999999
 30
0.0
 40
3.2
  1
19m/m絶縁ブッシング　(樹脂)
 41
0.6
  7
高3.2
100
AcDbText
  0
TEXT
  5
7A0
330
36
100
AcDbEntity
  8
0
 62
     3
100
AcDbText
 10
166.7303462255305
 20
45.49999999999999
 30
0.0
 40
3.2
  1
ハンドルツマミセット(小)
 41
0.6
  7
高3.2
100
AcDbText
  0
TEXT
  5
7A1
330
36
100
AcDbEntity
  8
0
 62
     3
100
AcDbText
 10
166.7303462255305
 20
50.5
 30
0.0
 40
3.2
  1
フレームキャップ(16)
 41
0.6
  7
高3.2
100
AcDbText
  0
LINE
  5
7A2
330
36
100
AcDbEntity
  8
0
100
AcDbLine
 10
165.2303462255305
 20
70.00000000000001
 30
0.0
 11
165.2303462255305
 21
10.0
 31
0.0
  0
TEXT
  5
7A3
330
36
100
AcDbEntity
  8
0
 62
     3
100
AcDbText
 10
166.7303462255305
 20
55.5
 30
0.0
 40
3.2
  1
VCTソフト1.25x2x3M　P付　緑
 41
0.6
  7
高3.2
100
AcDbText
  0
TEXT
  5
7A4
330
36
100
AcDbEntity
  8
0
 62
     3
100
AcDbText
 10
166.7303462255305
 20
60.5
 30
0.0
 40
3.2
  1
VCTソフト1.25x2x17M　T　オレンジ
 41
0.6
  7
高3.2
100
AcDbText
  0
TEXT
  5
7A5
330
36
100
AcDbEntity
  8
0
 62
     3
100
AcDbText
 10
166.7303462255305
 20
65.5
 30
0.0
 40
3.2
  1
RP-1(2Pリードパック)
 41
0.6
  7
高3.2
100
AcDbText
  0
TEXT
  5
988
330
36
100
AcDbEntity
  8
0
 62
     3
100
AcDbText
 10
397.5
 20
277.5
 30
0.0
 40
3.2
  1
担　当
  7
高3.2
100
AcDbText
  0
TEXT
  5
989
330
36
100
AcDbEntity
  8
0
 62
     3
100
AcDbText
 10
353.5
 20
277.5
 30
0.0
 40
3.2
  1
変更・追記内容
  7
高3.2
100
AcDbText
  0
TEXT
  5
98A
330
36
100
AcDbEntity
  8
0
 62
     3
100
AcDbText
 10
328.6135150003393
 20
272.8294614900917
 30
0.0
 40
2.0
  1
1
  7
高2
100
AcDbText
  0
TEXT
  5
98B
330
36
100
AcDbEntity
  8
0
 62
     3
100
AcDbText
 10
328.3050035235819
 20
267.6596447778188
 30
0.0
 40
2.0
  1
2
  7
高2
100
AcDbText
  0
TEXT
  5
98C
330
36
100
AcDbEntity
  8
0
 62
     3
100
AcDbText
 10
335.5
 20
277.5
 30
0.0
 40
3.2
  1
日　付
  7
高3.2
100
AcDbText
  0
TEXT
  5
98D
330
36
100
AcDbEntity
  8
0
 62
     3
100
AcDbText
 10
335.5
 20
282.5
 30
0.0
 40
3.2
  1
図　　　　面　　　　略　　　　歴
  7
高3.2
100
AcDbText
  0
TEXT
  5
98E
330
36
100
AcDbEntity
  8
0
 62
     3
100
AcDbText
 10
325.5
 20
277.5
 30
0.0
 40
3.2
  1
記号
  7
高3.2
100
AcDbText
  0
LINE
  5
98F
330
36
100
AcDbEntity
  8
0
100
AcDbLine
 10
329.0
 20
270.7908960000001
 30
0.0
 11
327.1
 21
267.5
 31
0.0
  0
LINE
  5
990
330
36
100
AcDbEntity
  8
0
100
AcDbLine
 10
329.0
 20
270.7908960000001
 30
0.0
 11
330.9
 21
267.5
 31
0.0
  0
LINE
  5
991
330
36
100
AcDbEntity
  8
0
100
AcDbLine
 10
327.1
 20
267.5
 30
0.0
 11
330.9
 21
267.5
 31
0.0
  0
LINE
  5
992
330
36
100
AcDbEntity
  8
0
100
AcDbLine
 10
329.0
 20
275.7908970000001
 30
0.0
 11
327.1
 21
272.5
 31
0.0
  0
LINE
  5
993
330
36
100
AcDbEntity
  8
0
100
AcDbLine
 10
329.0
 20
275.7908970000001
 30
0.0
 11
330.9
 21
272.5
 31
0.0
  0
LINE
  5
994
330
36
100
AcDbEntity
  8
0
100
AcDbLine
 10
327.1
 20
272.5
 30
0.0
 11
330.9
 21
272.5
 31
0.0
  0
LINE
  5
995
330
36
100
AcDbEntity
  8
0
 62
     3
100
AcDbLine
 10
324.0
 20
282.0
 30
0.0
 11
410.0
 21
282.0
 31
0.0
  0
LINE
  5
996
330
36
100
AcDbEntity
  8
0
 62
     3
100
AcDbLine
 10
324.0
 20
277.0
 30
0.0
 11
410.0
 21
277.0
 31
0.0
  0
LINE
  5
997
330
36
100
AcDbEntity
  8
0
 62
     7
100
AcDbLine
 10
324.0
 20
272.0
 30
0.0
 11
410.0
 21
272.0
 31
0.0
  0
LINE
  5
998
330
36
100
AcDbEntity
  8
0
 62
     3
100
AcDbLine
 10
324.0
 20
267.0
 30
0.0
 11
410.0
 21
267.0
 31
0.0
  0
LINE
  5
999
330
36
100
AcDbEntity
  8
0
 62
     7
100
AcDbLine
 10
395.9999999999998
 20
267.0
 30
0.0
 11
396.0
 21
282.0
 31
0.0
  0
LINE
  5
99A
330
36
100
AcDbEntity
  8
0
 62
     7
100
AcDbLine
 10
352.0
 20
267.0
 30
0.0
 11
352.0
 21
282.0
 31
0.0
  0
LINE
  5
99B
330
36
100
AcDbEntity
  8
0
 62
     7
100
AcDbLine
 10
334.0
 20
267.0
 30
0.0
 11
334.0
 21
282.0
 31
0.0
  0
LINE
  5
99C
330
36
100
AcDbEntity
  8
0
 62
     3
100
AcDbLine
 10
324.0
 20
267.0
 30
0.0
 11
324.0
 21
287.0
 31
0.0
  0
TEXT
  5
A94
330
36
100
AcDbEntity
  8
0
 62
     7
100
AcDbText
 10
335.5
 20
267.5
 30
0.0
 40
2.5
  1
`13.02.21
  7
高2.5
100
AcDbText
  0
TEXT
  5
A95
330
36
100
AcDbEntity
  8
0
 62
     7
100
AcDbText
 10
353.5
 20
267.5
 30
0.0
 40
2.5
  1
側板塗装色変更
 41
0.8
  7
高2.5
100
AcDbText
  0
TEXT
  5
A96
330
36
100
AcDbEntity
  8
0
 62
     7
100
AcDbText
 10
397.5
 20
267.5
 30
0.0
 40
2.5
  1
牧田
  7
高2.5
100
AcDbText
  0
LINE
  5
C6E
330
36
100
AcDbEntity
  8
0
 62
     3
100
AcDbLine
 10
335.630787
 20
113.726247
 30
0.0
 11
335.630787
 21
76.726247
 31
0.0
  0
LINE
  5
C6F
330
36
100
AcDbEntity
  8
0
 62
     3
100
AcDbLine
 10
403.630787
 20
113.726247
 30
0.0
 11
403.630787
 21
76.726247
 31
0.0
  0
LINE
  5
C70
330
36
100
AcDbEntity
  8
0
 62
     7
100
AcDbLine
 10
335.630787
 20
90.726247
 30
0.0
 11
403.630787
 21
90.726247
 31
0.0
  0
LINE
  5
C71
330
36
100
AcDbEntity
  8
0
 62
     7
100
AcDbLine
 10
365.630787
 20
97.726247
 30
0.0
 11
365.630787
 21
76.726247
 31
0.0
  0
LINE
  5
C72
330
36
100
AcDbEntity
  8
0
 62
     7
100
AcDbLine
 10
335.630787
 20
83.726247
 30
0.0
 11
403.630787
 21
83.726247
 31
0.0
  0
LINE
  5
C73
330
36
100
AcDbEntity
  8
0
 62
     7
100
AcDbLine
 10
335.630787
 20
105.726247
 30
0.0
 11
403.630787
 21
105.726247
 31
0.0
  0
TEXT
  5
C74
330
36
100
AcDbEntity
  8
0
 62
     3
100
AcDbText
 10
337.3266525703829
 20
91.61193599999996
 30
0.0
 40
4.5
  1
定格電圧
 41
0.833333
100
AcDbText
  0
TEXT
  5
C75
330
36
100
AcDbEntity
  8
0
 62
     3
100
AcDbText
 10
337.3266525703829
 20
84.811936
 30
0.0
 40
4.5
  1
定格電流
 41
0.833333
100
AcDbText
  0
TEXT
  5
C76
330
36
100
AcDbEntity
  8
0
 62
     3
100
AcDbText
 10
367.623194023246
 20
91.86313799999988
 30
0.0
 40
4.5
  1
125V
 41
0.9600000000000001
100
AcDbText
  0
TEXT
  5
C77
330
36
100
AcDbEntity
  8
0
 62
     3
100
AcDbText
 10
367.623194023246
 20
84.44280500000008
 30
0.0
 40
4.5
  1
4A
100
AcDbText
  0
TEXT
  5
C78
330
36
100
AcDbEntity
  8
0
 62
     3
100
AcDbText
 10
337.3266525703829
 20
77.76872544842394
 30
0.0
 40
4.5
  1
限度電流
 41
0.833333
100
AcDbText
  0
TEXT
  5
C79
330
36
100
AcDbEntity
  8
0
 62
     3
100
AcDbText
 10
367.623194023246
 20
77.86361678109591
 30
0.0
 40
4.5
  1
15A
  7
高4.5
100
AcDbText
  0
LINE
  5
C7A
330
36
100
AcDbEntity
  8
0
 62
     7
100
AcDbLine
 10
335.630787
 20
97.726247
 30
0.0
 11
403.630787
 21
97.726247
 31
0.0
  0
TEXT
  5
C7B
330
36
100
AcDbEntity
  8
0
 62
     3
100
AcDbText
 10
351.3593898362989
 20
98.86313799999988
 30
0.0
 40
4.5
  1
単相100V仕様
 41
0.9600000000000001
100
AcDbText
  0
LINE
  5
C7C
330
36
100
AcDbEntity
  8
0
 62
     3
100
AcDbLine
 10
335.630787
 20
113.726247
 30
0.0
 11
403.630787
 21
113.726247
 31
0.0
  0
TEXT
  5
C7D
330
36
100
AcDbEntity
  8
0
 62
     3
100
AcDbText
 10
346.8723770333829
 20
106.8631379999999
 30
0.0
 40
4.5
  1
電工ドラム(屋内型)
 41
0.9600000000000001
100
AcDbText
  0
LINE
  5
C81
330
36
100
AcDbEntity
  8
0
 62
     3
100
AcDbLine
 10
335.630787
 20
76.726247
 30
0.0
 11
403.630787
 21
76.726247
 31
0.0
  0
TEXT
  5
C82
330
36
100
AcDbEntity
  8
0
 62
     7
100
AcDbText
 10
335.6307877788559
 20
71.93277762308793
 30
0.0
 40
2.5
  1
注）定格電流は電線を巻取った状態の最大電流で、
 41
0.8
  7
高2.5
100
AcDbText
  0
TEXT
  5
C83
330
36
100
AcDbEntity
  8
0
 62
     7
100
AcDbText
 10
335.6307877788559
 20
68.93277762308793
 30
0.0
 40
2.5
  1
　　限度電流は電線を全て引き出した状態の最大電流です。
 41
0.8
  7
高2.5
100
AcDbText
  0
ENDSEC
  0
SECTION
  2
OBJECTS
  0
DICTIONARY
  5
C
330
0
100
AcDbDictionary
281
     1
  3
ACAD_2007HEADERVARS_RT
350
BE6
  3
ACAD_COLOR
350
2F
  3
ACAD_DETAILVIEWSTYLE
350
CC4
  3
ACAD_DGNDEFINITIONS
350
C26
  3
ACAD_DWFDEFINITIONS
350
C25
  3
ACAD_GROUP
350
D
  3
ACAD_LAYOUT
350
2E
  3
ACAD_MATERIAL
350
10
  3
ACAD_MLEADERSTYLE
350
52A
  3
ACAD_MLINESTYLE
350
2B
  3
ACAD_PDFDEFINITIONS
350
C24
  3
ACAD_PLOTSETTINGS
350
2D
  3
ACAD_PLOTSTYLENAME
350
E
  3
ACAD_SCALELIST
350
518
  3
ACAD_SECTIONVIEWSTYLE
350
CC5
  3
ACAD_TABLESTYLE
350
30
  3
ACAD_VISUALSTYLE
350
14
  3
ACDB_RECOMPOSE_DATA
350
CC2
  3
AcDbVariableDictionary
350
4F5
  0
DICTIONARY
  5
4A2
330
2
100
AcDbDictionary
280
     1
281
     1
  3
ACAD_LAYERSTATES
360
4A3
  0
DICTIONARY
  5
7A6
330
25
100
AcDbDictionary
280
     1
281
     1
  3
ADSK_XREC_LAYER_RECONCILED
360
7A7
  0
DICTIONARY
  5
750
330
36
100
AcDbDictionary
280
     1
281
     1
  3
ACAD_SORTENTS
360
751
  0
DICTIONARY
  5
BE6
102
{ACAD_REACTORS
330
C
102
}
330
C
100
AcDbDictionary
281
     1
  3
DIMARCSYM
350
BE8
  3
DIMFXL
350
BE7
  3
DIMJOGANG
350
BE9
  0
DICTIONARY
  5
2F
102
{ACAD_REACTORS
330
C
102
}
330
C
100
AcDbDictionary
281
     1
  0
DICTIONARY
  5
CC4
102
{ACAD_REACTORS
330
C
102
}
330
C
100
AcDbDictionary
281
     1
  0
DICTIONARY
  5
C26
102
{ACAD_REACTORS
330
C
102
}
330
C
100
AcDbDictionary
281
     1
  0
DICTIONARY
  5
C25
102
{ACAD_REACTORS
330
C
102
}
330
C
100
AcDbDictionary
281
     1
  0
DICTIONARY
  5
D
102
{ACAD_REACTORS
330
C
102
}
330
C
100
AcDbDictionary
281
     1
  0
DICTIONARY
  5
2E
102
{ACAD_REACTORS
330
C
102
}
330
C
100
AcDbDictionary
281
     1
  3
Model
350
39
  3
レイアウト1
350
35
  0
DICTIONARY
  5
10
102
{ACAD_REACTORS
330
C
102
}
330
C
100
AcDbDictionary
281
     1
  3
ByBlock
350
12
  3
ByLayer
350
11
  3
Global
350
13
  0
DICTIONARY
  5
52A
102
{ACAD_REACTORS
330
C
102
}
330
C
100
AcDbDictionary
281
     1
  3
Standard
350
52B
  0
DICTIONARY
  5
2B
102
{ACAD_REACTORS
330
C
102
}
330
C
100
AcDbDictionary
281
     1
  3
Standard
350
2C
  0
DICTIONARY
  5
C24
102
{ACAD_REACTORS
330
C
102
}
330
C
100
AcDbDictionary
281
     1
  0
DICTIONARY
  5
2D
102
{ACAD_REACTORS
330
C
102
}
330
C
100
AcDbDictionary
281
     1
  0
ACDBDICTIONARYWDFLT
  5
E
102
{ACAD_REACTORS
330
C
102
}
330
C
100
AcDbDictionary
281
     1
  3
Normal
350
F
100
AcDbDictionaryWithDefault
340
F
  0
DICTIONARY
  5
518
102
{ACAD_REACTORS
330
C
102
}
330
C
100
AcDbDictionary
281
     1
  3
A0
350
519
  3
A1
350
51A
  3
A2
350
51B
  3
A3
350
51C
  3
A4
350
51D
  3
A5
350
51E
  3
A6
350
51F
  3
A7
350
520
  3
A8
350
521
  3
A9
350
522
  3
B0
350
523
  3
B1
350
524
  3
B2
350
525
  3
B3
350
526
  3
B4
350
527
  3
B5
350
528
  3
B6
350
529
  0
DICTIONARY
  5
CC5
102
{ACAD_REACTORS
330
C
102
}
330
C
100
AcDbDictionary
281
     1
  0
DICTIONARY
  5
30
102
{ACAD_REACTORS
330
C
102
}
330
C
100
AcDbDictionary
281
     1
  3
Standard
350
31
  0
DICTIONARY
  5
14
102
{ACAD_REACTORS
330
C
102
}
330
C
100
AcDbDictionary
281
     1
  3
2dWireframe
350
1A
  3
3D Hidden
350
1C
  3
3dWireframe
350
1B
  3
Basic
350
19
  3
Brighten
350
20
  3
ColorChange
350
24
  3
Conceptual
350
1D
  3
Dim
350
1F
  3
EdgeColorOff
350
517
  3
Facepattern
350
23
  3
Flat
350
15
  3
FlatWithEdges
350
16
  3
Gouraud
350
17
  3
GouraudWithEdges
350
18
  3
Hidden
350
50F
  3
JitterOff
350
515
  3
Linepattern
350
22
  3
OverhangOff
350
516
  3
Realistic
350
1E
  3
Shaded
350
514
  3
Shaded with edges
350
513
  3
Shades of Gray
350
510
  3
Sketchy
350
511
  3
Thicken
350
21
  3
Wireframe
350
50E
  3
X-Ray
350
512
  0
XRECORD
  5
CC2
102
{ACAD_REACTORS
330
C
102
}
330
C
100
AcDbXrecord
280
     1
 90
        1
330
31
  0
DICTIONARY
  5
4F5
102
{ACAD_REACTORS
330
C
102
}
330
C
100
AcDbDictionary
281
     1
  3
CANNOSCALE
350
C88
  3
CMLEADERSTYLE
350
7AA
  3
CTABLESTYLE
350
4F6
  3
DIMASSOC
350
4F9
  3
INDEXCTL
350
4F8
  3
LIGHTINGUNITS
350
C89
  3
MSLTSCALE
350
CC3
  3
SORTENTS
350
4F7
  3
XCLIPFRAME
350
BE2
  0
DICTIONARY
  5
4A3
102
{ACAD_REACTORS
330
4A2
102
}
330
4A2
100
AcDbDictionary
281
     1
  0
XRECORD
  5
7A7
102
{ACAD_REACTORS
330
7A6
102
}
330
7A6
100
AcDbXrecord
280
     1
290
     1
  0
SORTENTSTABLE
  5
751
102
{ACAD_REACTORS
330
750
102
}
330
750
100
AcDbSortentsTable
330
36
331
268
  5
269
331
269
  5
26A
331
26A
  5
26B
331
26B
  5
26C
331
26C
  5
26D
331
26D
  5
26E
331
26E
  5
26F
331
26F
  5
270
331
270
  5
271
331
271
  5
272
331
273
  5
274
331
275
  5
276
331
27B
  5
27C
331
281
  5
282
331
282
  5
283
331
283
  5
284
331
284
  5
285
331
285
  5
286
331
286
  5
287
331
287
  5
288
331
288
  5
289
331
289
  5
28A
331
28A
  5
28B
331
28B
  5
28C
331
28C
  5
28D
331
28D
  5
28E
331
28E
  5
28F
331
28F
  5
290
331
290
  5
291
331
291
  5
292
331
292
  5
293
331
293
  5
294
331
294
  5
295
331
295
  5
296
331
296
  5
297
331
297
  5
298
331
298
  5
299
331
299
  5
29A
331
29A
  5
29B
331
29B
  5
29C
331
29C
  5
29D
331
29D
  5
29E
331
29E
  5
29F
331
29F
  5
2A0
331
2A0
  5
2A1
331
2A1
  5
2A2
331
2A2
  5
2A3
331
2A3
  5
2A4
331
2A4
  5
2A5
331
2A5
  5
2A6
331
2A6
  5
2A7
331
2A7
  5
2A8
331
2A8
  5
2A9
331
2A9
  5
2AA
331
2AA
  5
2AB
331
2AB
  5
2AC
331
2AC
  5
2AD
331
2AD
  5
2AE
331
2AE
  5
2AF
331
2AF
  5
2B0
331
2B0
  5
2B1
331
2B1
  5
2B2
331
2B2
  5
2B3
331
2B3
  5
2B4
331
2B4
  5
2B5
331
2B5
  5
2B6
331
2B6
  5
2B7
331
2B7
  5
2B8
331
2B8
  5
2B9
331
2B9
  5
2BA
331
2BA
  5
2BB
331
2BB
  5
2BC
331
2BC
  5
2BD
331
2BD
  5
2BE
331
2BE
  5
2BF
331
2BF
  5
2C0
331
2C0
  5
2C1
331
2C1
  5
2C2
331
2C2
  5
2C3
331
2C3
  5
2C4
331
2C4
  5
2C5
331
2C5
  5
2C6
331
2C6
  5
2C7
331
2C7
  5
2C8
331
2C8
  5
2C9
331
2C9
  5
2CA
331
2CA
  5
2CB
331
2CB
  5
2CC
331
2CC
  5
2CD
331
2CD
  5
2CE
331
2CE
  5
2CF
331
2CF
  5
2D0
331
2D0
  5
2D1
331
2D1
  5
2D2
331
2D2
  5
2D3
331
2D3
  5
2D4
331
2D4
  5
2D5
331
2D5
  5
2D6
331
2D6
  5
2D7
331
2D7
  5
2D8
331
2D8
  5
2D9
331
2D9
  5
2DA
331
2DA
  5
2DB
331
2DB
  5
2DC
331
2DC
  5
2DD
331
2DD
  5
2DE
331
2DE
  5
2DF
331
2DF
  5
2E0
331
2E0
  5
2E1
331
2E1
  5
2E2
331
2E2
  5
2E3
331
2E3
  5
2E4
331
2E4
  5
2E5
331
2E5
  5
2E6
331
2E6
  5
2E7
331
2E7
  5
2E8
331
2E8
  5
2E9
331
2E9
  5
2EA
331
2EA
  5
2EB
331
2EB
  5
2EC
331
2EC
  5
2ED
331
2ED
  5
2EE
331
2EE
  5
2EF
331
2EF
  5
2F0
331
2F0
  5
2F1
331
2F1
  5
2F2
331
2F2
  5
2F3
331
2F3
  5
2F4
331
2F4
  5
2F5
331
2F5
  5
2F6
331
2F6
  5
2F7
331
0
  5
2F8
331
0
  5
2F9
331
2F9
  5
2FA
331
2FA
  5
2FB
331
2FB
  5
2FC
331
2FC
  5
2FD
331
2FD
  5
2FE
331
2FE
  5
2FF
331
2FF
  5
300
331
300
  5
301
331
301
  5
302
331
302
  5
303
331
303
  5
304
331
304
  5
305
331
305
  5
306
331
306
  5
307
331
307
  5
308
331
308
  5
309
331
309
  5
30A
331
30A
  5
30B
331
30B
  5
30C
331
30C
  5
30D
331
30D
  5
30E
331
30E
  5
30F
331
30F
  5
310
331
310
  5
311
331
311
  5
312
331
312
  5
313
331
313
  5
314
331
314
  5
315
331
315
  5
316
331
316
  5
317
331
317
  5
318
331
318
  5
319
331
319
  5
31A
331
31A
  5
31B
331
31B
  5
31C
331
31C
  5
31D
331
31D
  5
31E
331
31E
  5
31F
331
31F
  5
320
331
320
  5
321
331
321
  5
322
331
322
  5
323
331
323
  5
324
331
324
  5
325
331
325
  5
326
331
326
  5
327
331
327
  5
328
331
328
  5
329
331
329
  5
32A
331
32A
  5
32B
331
32B
  5
32C
331
32C
  5
32D
331
32D
  5
32E
331
32E
  5
32F
331
32F
  5
330
331
330
  5
331
331
331
  5
332
331
332
  5
333
331
333
  5
334
331
334
  5
335
331
335
  5
336
331
336
  5
337
331
337
  5
338
331
338
  5
339
331
339
  5
33A
331
33A
  5
33B
331
33B
  5
33C
331
33C
  5
33D
331
33D
  5
33E
331
33E
  5
33F
331
33F
  5
340
331
340
  5
341
331
341
  5
342
331
342
  5
343
331
343
  5
344
331
344
  5
345
331
345
  5
346
331
346
  5
347
331
347
  5
348
331
348
  5
349
331
349
  5
34A
331
34A
  5
34B
331
34B
  5
34C
331
34C
  5
34D
331
34D
  5
34E
331
34E
  5
34F
331
34F
  5
350
331
350
  5
351
331
351
  5
352
331
352
  5
353
331
353
  5
354
331
354
  5
355
331
355
  5
356
331
356
  5
357
331
357
  5
358
331
359
  5
35A
331
35A
  5
35B
331
35B
  5
35C
331
35C
  5
361
331
361
  5
362
331
362
  5
363
331
363
  5
364
331
365
  5
366
331
366
  5
367
331
367
  5
368
331
368
  5
369
331
369
  5
36A
331
36A
  5
36B
331
36B
  5
36C
331
36C
  5
36D
331
36D
  5
36E
331
36E
  5
36F
331
36F
  5
370
331
370
  5
371
331
371
  5
372
331
372
  5
373
331
373
  5
374
331
374
  5
375
331
375
  5
376
331
376
  5
377
331
377
  5
378
331
378
  5
379
331
379
  5
37A
331
37A
  5
37B
331
37B
  5
37C
331
37C
  5
37D
331
37D
  5
37E
331
37E
  5
37F
331
37F
  5
384
331
384
  5
385
331
385
  5
386
331
386
  5
387
331
387
  5
388
331
388
  5
389
331
389
  5
38A
331
38A
  5
38B
331
38B
  5
38C
331
38C
  5
38D
331
38D
  5
38E
331
38E
  5
38F
331
38F
  5
390
331
390
  5
391
331
391
  5
392
331
392
  5
393
331
393
  5
394
331
394
  5
395
331
395
  5
396
331
396
  5
397
331
397
  5
398
331
398
  5
399
331
399
  5
39A
331
39A
  5
39B
331
39B
  5
39C
331
39C
  5
39D
331
39D
  5
39E
331
39E
  5
39F
331
39F
  5
3A0
331
3A0
  5
3A1
331
3A1
  5
3A8
331
3A8
  5
3B7
331
3B7
  5
3C4
331
3C4
  5
3D3
331
3D3
  5
3E0
331
3E0
  5
3E7
331
3E7
  5
3EC
331
3EC
  5
3ED
331
3ED
  5
3EE
331
3EE
  5
3EF
331
3F0
  5
3F1
331
3F1
  5
3F2
331
3F2
  5
3F4
331
3F4
  5
3F5
331
3F5
  5
3F6
331
3F6
  5
3F7
331
3F9
  5
3FA
331
3FA
  5
3FB
331
3FB
  5
3FD
331
3FD
  5
3FE
331
3FE
  5
405
331
405
  5
40C
331
40C
  5
40D
331
40D
  5
40E
331
40E
  5
40F
331
40F
  5
410
331
410
  5
411
331
411
  5
412
331
412
  5
413
331
413
  5
414
331
414
  5
415
331
415
  5
416
331
416
  5
417
331
417
  5
418
331
418
  5
419
331
419
  5
41A
331
41A
  5
41B
331
41B
  5
41C
331
41C
  5
41D
331
41D
  5
41E
331
41E
  5
41F
331
41F
  5
420
331
420
  5
421
331
421
  5
422
331
422
  5
423
331
423
  5
424
331
424
  5
425
331
425
  5
426
331
426
  5
427
331
427
  5
428
331
428
  5
429
331
429
  5
42A
331
42A
  5
42B
331
42B
  5
42C
331
42C
  5
42D
331
42D
  5
42E
331
42E
  5
42F
331
42F
  5
430
331
430
  5
431
331
431
  5
432
331
432
  5
433
331
433
  5
434
331
434
  5
435
331
435
  5
436
331
436
  5
437
331
437
  5
438
331
438
  5
439
331
439
  5
43A
331
43A
  5
43B
331
43B
  5
43C
331
43C
  5
43D
331
43D
  5
43E
331
43E
  5
43F
331
43F
  5
440
331
440
  5
441
331
441
  5
442
331
44A
  5
44F
331
44F
  5
450
331
450
  5
451
331
451
  5
452
331
452
  5
457
331
457
  5
458
331
458
  5
459
331
459
  5
45A
331
45A
  5
45F
331
45F
  5
460
331
460
  5
461
331
461
  5
462
331
462
  5
467
331
467
  5
468
331
468
  5
469
331
469
  5
46A
331
46A
  5
46F
331
46F
  5
470
331
470
  5
471
331
471
  5
472
331
472
  5
477
331
477
  5
478
331
478
  5
479
331
479
  5
47A
331
47A
  5
47F
331
47F
  5
480
331
480
  5
481
331
481
  5
482
331
482
  5
487
331
487
  5
488
331
488
  5
489
331
489
  5
48A
331
48A
  5
48B
331
48B
  5
48C
331
48C
  5
48D
331
48D
  5
4D0
331
4F1
  5
4F2
331
4F2
  5
4F3
331
4F3
  5
4F4
331
4F4
  5
5D0
331
74F
  5
268
331
C6F
  5
C70
331
C70
  5
C71
331
C71
  5
C72
331
C72
  5
C74
331
C73
  5
C75
331
C74
  5
C76
331
C75
  5
C77
331
C76
  5
C78
331
C77
  5
C79
331
C78
  5
C7A
331
C79
  5
C7B
331
C7A
  5
C7C
331
C7B
  5
C7D
331
C7C
  5
C7E
331
C7D
  5
C7F
331
0
  5
C80
331
0
  5
C81
331
0
  5
C82
331
C81
  5
C83
331
C82
  5
C84
331
C83
  5
C85
331
0
  5
C73
331
0
  5
C6F
  0
XRECORD
  5
BE8
102
{ACAD_REACTORS
330
BE6
102
}
330
BE6
100
AcDbXrecord
280
     1
 70
     2
  0
XRECORD
  5
BE7
102
{ACAD_REACTORS
330
BE6
102
}
330
BE6
100
AcDbXrecord
280
     1
 40
1.25
  0
XRECORD
  5
BE9
102
{ACAD_REACTORS
330
BE6
102
}
330
BE6
100
AcDbXrecord
280
     1
 40
1.570796326794896
  0
LAYOUT
  5
39
102
{ACAD_REACTORS
330
2E
102
}
330
2E
100
AcDbPlotSettings
  1

  2
none_device
  4
Letter_(8.50_x_11.00_Inches)
  6

 40
6.349999904632567
 41
6.349999904632567
 42
6.350006103515625
 43
6.350006103515625
 44
215.8999938964844
 45
279.3999938964844
 46
0.0
 47
0.0
 48
0.0
 49
0.0
140
0.0
141
0.0
142
1.0
143
81.13645326165523
 70
 11952
 72
     0
 73
     1
 74
     0
  7

 75
     0
 76
     0
 77
     2
 78
   300
147
0.0123249163575726
148
4919.107043551395
149
3430.667369712768
100
AcDbLayout
  1
Model
 70
     1
 71
     0
 10
0.0
 20
0.0
 11
12.0
 21
9.0
 12
0.0
 22
0.0
 32
0.0
 14
0.0
 24
0.0
 34
0.0
 15
410.0
 25
287.0
 35
0.0
146
0.0
 13
0.0
 23
0.0
 33
0.0
 16
1.0
 26
0.0
 36
0.0
 17
0.0
 27
1.0
 37
0.0
 76
     0
330
36
331
56
1001
ACAD_PSEXT
1000
なし
1000
なし
1000
適切ではありません
1000
新しいプロッタ環境設定名を選択しない限り、レイアウトは印刷されません。
1070
     0
  0
LAYOUT
  5
35
102
{ACAD_REACTORS
330
2E
102
}
330
2E
100
AcDbPlotSettings
  1

  2
PDF Complete
  4

  6

 40
0.0
 41
0.0
 42
0.0
 43
0.0
 44
0.0
 45
0.0
 46
0.0
 47
0.0
 48
0.0
 49
0.0
140
0.0
141
0.0
142
1.0
143
1.0
 70
   688
 72
     0
 73
     0
 74
     5
  7

 75
    16
 76
     0
 77
     2
 78
   300
147
1.0
148
0.0
149
0.0
100
AcDbLayout
  1
レイアウト1
 70
     1
 71
     1
 10
0.0
 20
0.0
 11
12.0
 21
9.0
 12
0.0
 22
0.0
 32
0.0
 14
1.000000000000000E+20
 24
1.000000000000000E+20
 34
1.000000000000000E+20
 15
-1.000000000000000E+20
 25
-1.000000000000000E+20
 35
-1.000000000000000E+20
146
0.0
 13
0.0
 23
0.0
 33
0.0
 16
1.0
 26
0.0
 36
0.0
 17
0.0
 27
1.0
 37
0.0
 76
     0
330
32
  0
MATERIAL
  5
12
102
{ACAD_REACTORS
330
10
102
}
330
10
100
AcDbMaterial
  1
ByBlock
 72
     1
 94
      127
  0
MATERIAL
  5
11
102
{ACAD_REACTORS
330
10
102
}
330
10
100
AcDbMaterial
  1
ByLayer
 72
     1
 94
      127
  0
MATERIAL
  5
13
102
{ACAD_REACTORS
330
10
102
}
330
10
100
AcDbMaterial
  1
Global
 72
     1
 94
      127
  0
MLEADERSTYLE
  5
52B
102
{ACAD_REACTORS
330
52A
102
}
102
{ACAD_XDICTIONARY
360
C8A
102
}
330
52A
100
AcDbMLeaderStyle
170
     2
171
     1
172
     0
 90
        2
 40
0.0
 41
0.0
173
     1
 91
-1056964608
340
28
 92
       -2
290
     1
 42
0.09
291
     1
 43
0.36
  3
Standard
341
0
 44
0.18
300

342
26
174
     1
178
     6
175
     1
176
     0
 93
-1056964608
 45
0.18
292
     0
297
     0
 46
0.18
343
0
 94
-1056964608
 47
1.0
 49
1.0
140
1.0
293
     1
141
0.0
294
     1
177
     0
142
1.0
295
     0
296
     0
143
0.125
1001
ACAD_MLEADERVER
1070
     2
  0
MLINESTYLE
  5
2C
102
{ACAD_REACTORS
330
2B
102
}
330
2B
100
AcDbMlineStyle
  2
STANDARD
 70
     0
  3

 62
   256
 51
90.0
 52
90.0
 71
     2
 49
0.5
 62
   256
  6
BYLAYER
 49
-0.5
 62
   256
  6
BYLAYER
  0
ACDBPLACEHOLDER
  5
F
102
{ACAD_REACTORS
330
E
102
}
330
E
  0
SCALE
  5
519
102
{ACAD_REACTORS
330
518
102
}
330
518
100
AcDbScale
 70
     0
300
1:1
140
1.0
141
1.0
290
     1
  0
SCALE
  5
51A
102
{ACAD_REACTORS
330
518
102
}
330
518
100
AcDbScale
 70
     0
300
1/128" = 1'-0"
140
0.0078125
141
12.0
290
     0
  0
SCALE
  5
51B
102
{ACAD_REACTORS
330
518
102
}
330
518
100
AcDbScale
 70
     0
300
1/64" = 1'-0"
140
0.015625
141
12.0
290
     0
  0
SCALE
  5
51C
102
{ACAD_REACTORS
330
518
102
}
330
518
100
AcDbScale
 70
     0
300
1/32" = 1'-0"
140
0.03125
141
12.0
290
     0
  0
SCALE
  5
51D
102
{ACAD_REACTORS
330
518
102
}
330
518
100
AcDbScale
 70
     0
300
1/16" = 1'-0"
140
0.0625
141
12.0
290
     0
  0
SCALE
  5
51E
102
{ACAD_REACTORS
330
518
102
}
330
518
100
AcDbScale
 70
     0
300
3/32" = 1'-0"
140
0.09375
141
12.0
290
     0
  0
SCALE
  5
51F
102
{ACAD_REACTORS
330
518
102
}
330
518
100
AcDbScale
 70
     0
300
1/8" = 1'-0"
140
0.125
141
12.0
290
     0
  0
SCALE
  5
520
102
{ACAD_REACTORS
330
518
102
}
330
518
100
AcDbScale
 70
     0
300
3/16" = 1'-0"
140
0.1875
141
12.0
290
     0
  0
SCALE
  5
521
102
{ACAD_REACTORS
330
518
102
}
330
518
100
AcDbScale
 70
     0
300
1/4" = 1'-0"
140
0.25
141
12.0
290
     0
  0
SCALE
  5
522
102
{ACAD_REACTORS
330
518
102
}
330
518
100
AcDbScale
 70
     0
300
3/8" = 1'-0"
140
0.375
141
12.0
290
     0
  0
SCALE
  5
523
102
{ACAD_REACTORS
330
518
102
}
330
518
100
AcDbScale
 70
     0
300
1/2" = 1'-0"
140
0.5
141
12.0
290
     0
  0
SCALE
  5
524
102
{ACAD_REACTORS
330
518
102
}
330
518
100
AcDbScale
 70
     0
300
3/4" = 1'-0"
140
0.75
141
12.0
290
     0
  0
SCALE
  5
525
102
{ACAD_REACTORS
330
518
102
}
330
518
100
AcDbScale
 70
     0
300
1" = 1'-0"
140
1.0
141
12.0
290
     0
  0
SCALE
  5
526
102
{ACAD_REACTORS
330
518
102
}
330
518
100
AcDbScale
 70
     0
300
1-1/2" = 1'-0"
140
1.5
141
12.0
290
     0
  0
SCALE
  5
527
102
{ACAD_REACTORS
330
518
102
}
330
518
100
AcDbScale
 70
     0
300
3" = 1'-0"
140
3.0
141
12.0
290
     0
  0
SCALE
  5
528
102
{ACAD_REACTORS
330
518
102
}
330
518
100
AcDbScale
 70
     0
300
6" = 1'-0"
140
6.0
141
12.0
290
     0
  0
SCALE
  5
529
102
{ACAD_REACTORS
330
518
102
}
330
518
100
AcDbScale
 70
     0
300
1'-0" = 1'-0"
140
12.0
141
12.0
290
     0
  0
TABLESTYLE
  5
31
102
{ACAD_REACTORS
330
30
102
}
102
{ACAD_XDICTIONARY
360
C8C
102
}
330
30
100
AcDbTableStyle
  3
Standard
 70
     0
 71
     0
 40
0.06
 41
0.06
280
     0
281
     0
  7
STANDARD
140
0.18
170
     2
 62
     0
 63
   257
283
     0
 90
      512
 91
        0
  1

274
    -2
284
     1
 64
     0
275
    -2
285
     1
 65
     0
276
    -2
286
     1
 66
     0
277
    -2
287
     1
 67
     0
278
    -2
288
     1
 68
     0
279
    -2
289
     1
 69
     0
  7
STANDARD
140
0.25
170
     5
 62
     0
 63
   257
283
     0
 90
      512
 91
        0
  1

274
    -2
284
     1
 64
     0
275
    -2
285
     1
 65
     0
276
    -2
286
     1
 66
     0
277
    -2
287
     1
 67
     0
278
    -2
288
     1
 68
     0
279
    -2
289
     1
 69
     0
  7
STANDARD
140
0.18
170
     5
 62
     0
 63
   257
283
     0
 90
      512
 91
        0
  1

274
    -2
284
     1
 64
     0
275
    -2
285
     1
 65
     0
276
    -2
286
     1
 66
     0
277
    -2
287
     1
 67
     0
278
    -2
288
     1
 68
     0
279
    -2
289
     1
 69
     0
  0
VISUALSTYLE
  5
1A
102
{ACAD_REACTORS
330
14
102
}
102
{ACAD_XDICTIONARY
360
C8E
102
}
330
14
100
AcDbVisualStyle
  2

 70
     4
 71
     0
 72
     2
 73
     0
 90
        0
 40
-0.6
 41
-30.0
 62
     5
 63
     7
 74
     1
 91
        4
 64
     7
 65
   257
 75
     1
175
     1
 42
1.0
 92
        0
 66
   257
 43
1.0
 76
     1
 77
     6
 78
     2
 67
     7
 79
     5
170
     0
171
     0
290
     0
174
     0
 93
        1
 44
0.0
173
     0
291
     0
 45
0.0
  0
VISUALSTYLE
  5
1C
102
{ACAD_REACTORS
330
14
102
}
102
{ACAD_XDICTIONARY
360
C90
102
}
330
14
100
AcDbVisualStyle
  2

 70
     6
 71
     1
 72
     2
 73
     2
 90
        0
 40
-0.6
 41
-30.0
 62
     5
 63
     7
 74
     2
 91
        2
 64
     7
 65
   257
 75
     2
175
     1
 42
40.0
 92
        0
 66
   257
 43
1.0
 76
     1
 77
     6
 78
     2
 67
     7
 79
     3
170
     0
171
     0
290
     0
174
     0
 93
        1
 44
0.0
173
     0
291
     0
 45
0.0
  0
VISUALSTYLE
  5
1B
102
{ACAD_REACTORS
330
14
102
}
102
{ACAD_XDICTIONARY
360
C92
102
}
330
14
100
AcDbVisualStyle
  2

 70
     5
 71
     0
 72
     2
 73
     0
 90
        0
 40
-0.6
 41
-30.0
 62
     5
 63
     7
 74
     1
 91
        4
 64
     7
 65
   257
 75
     1
175
     1
 42
1.0
 92
        0
 66
   257
 43
1.0
 76
     1
 77
     6
 78
     2
 67
     7
 79
     5
170
     0
171
     0
290
     0
174
     0
 93
        1
 44
0.0
173
     0
291
     0
 45
0.0
  0
VISUALSTYLE
  5
19
102
{ACAD_REACTORS
330
14
102
}
102
{ACAD_XDICTIONARY
360
C94
102
}
330
14
100
AcDbVisualStyle
  2

 70
     7
 71
     1
 72
     0
 73
     1
 90
        0
 40
-0.6
 41
-30.0
 62
     5
 63
     7
 74
     0
 91
        4
 64
     7
 65
   257
 75
     1
175
     1
 42
1.0
 92
        8
 66
     7
 43
1.0
 76
     1
 77
     6
 78
     2
 67
     7
 79
     5
170
     0
171
     0
290
     0
174
     0
 93
        1
 44
0.0
173
     0
291
     1
 45
0.0
  0
VISUALSTYLE
  5
20
102
{ACAD_REACTORS
330
14
102
}
102
{ACAD_XDICTIONARY
360
C96
102
}
330
14
100
AcDbVisualStyle
  2

 70
    12
 71
     2
 72
     2
 73
     0
 90
        0
 40
-0.6
 41
-30.0
 62
     5
 63
     7
 74
     1
 91
        4
 64
     7
 65
   257
 75
     1
175
     1
 42
1.0
 92
        8
 66
     7
 43
1.0
 76
     1
 77
     6
 78
     2
 67
     7
 79
     5
170
     0
171
     0
290
     0
174
     0
 93
        1
 44
50.0
173
     0
291
     1
 45
0.0
  0
VISUALSTYLE
  5
24
102
{ACAD_REACTORS
330
14
102
}
102
{ACAD_XDICTIONARY
360
C98
102
}
330
14
100
AcDbVisualStyle
  2

 70
    16
 71
     2
 72
     2
 73
     3
 90
        0
 40
-0.6
 41
-30.0
 62
     5
 63
     8
 74
     1
 91
        4
 64
     7
 65
   257
 75
     1
175
     1
 42
1.0
 92
        8
 66
     8
 43
1.0
 76
     1
 77
     6
 78
     2
 67
     7
 79
     5
170
     0
171
     0
290
     0
174
     0
 93
        1
 44
0.0
173
     0
291
     1
 45
0.0
  0
VISUALSTYLE
  5
1D
102
{ACAD_REACTORS
330
14
102
}
102
{ACAD_XDICTIONARY
360
C9A
102
}
330
14
100
AcDbVisualStyle
  2

 70
     9
 71
     3
 72
     2
 73
     0
 90
        0
 40
-0.6
 41
-30.0
 62
     5
 63
     7
 74
     2
 91
        2
 64
     7
 65
   257
 75
     1
175
     1
 42
40.0
 92
        8
 66
     7
 43
1.0
 76
     1
 77
     6
 78
     2
 67
     7
 79
     3
170
     0
171
     0
290
     0
174
     0
 93
        1
 44
0.0
173
     0
291
     0
 45
0.0
  0
VISUALSTYLE
  5
1F
102
{ACAD_REACTORS
330
14
102
}
102
{ACAD_XDICTIONARY
360
C9C
102
}
330
14
100
AcDbVisualStyle
  2

 70
    11
 71
     2
 72
     2
 73
     0
 90
        0
 40
-0.6
 41
-30.0
 62
     5
 63
     7
 74
     1
 91
        4
 64
     7
 65
   257
 75
     1
175
     1
 42
1.0
 92
        8
 66
     7
 43
1.0
 76
     1
 77
     6
 78
     2
 67
     7
 79
     5
170
     0
171
     0
290
     0
174
     0
 93
        1
 44
-50.0
173
     0
291
     1
 45
0.0
  0
VISUALSTYLE
  5
517
102
{ACAD_REACTORS
330
14
102
}
102
{ACAD_XDICTIONARY
360
C9E
102
}
330
14
100
AcDbVisualStyle
  2

 70
    22
 71
     2
 72
     2
 73
     0
 90
        0
 40
-0.6
 41
-30.0
 62
     5
 63
     7
 74
     1
 91
        4
 64
     7
 65
   257
 75
     1
175
     1
 42
1.0
 92
        8
 66
     7
 43
1.0
 76
     1
 77
     6
 78
     2
 67
     7
 79
     5
170
     0
171
     0
290
     0
174
     0
 93
        1
 44
0.0
173
     0
291
     1
 45
0.0
  0
VISUALSTYLE
  5
23
102
{ACAD_REACTORS
330
14
102
}
102
{ACAD_XDICTIONARY
360
CA0
102
}
330
14
100
AcDbVisualStyle
  2

 70
    15
 71
     2
 72
     2
 73
     0
 90
        0
 40
-0.6
 41
-30.0
 62
     5
 63
     7
 74
     1
 91
        4
 64
     7
 65
   257
 75
     1
175
     1
 42
1.0
 92
        8
 66
     7
 43
1.0
 76
     1
 77
     6
 78
     2
 67
     7
 79
     5
170
     0
171
     0
290
     0
174
     0
 93
        1
 44
0.0
173
     0
291
     1
 45
0.0
  0
VISUALSTYLE
  5
15
102
{ACAD_REACTORS
330
14
102
}
102
{ACAD_XDICTIONARY
360
CA2
102
}
330
14
100
AcDbVisualStyle
  2

 70
     0
 71
     2
 72
     1
 73
     1
 90
        2
 40
-0.6
 41
30.0
 62
     5
 63
     7
 74
     0
 91
        4
 64
     7
 65
   257
 75
     1
175
     1
 42
1.0
 92
        8
 66
     7
 43
1.0
 76
     1
 77
     6
 78
     2
 67
     7
 79
     5
170
     0
171
     0
290
     0
174
     0
 93
       13
 44
0.0
173
     0
291
     1
 45
0.0
  0
VISUALSTYLE
  5
16
102
{ACAD_REACTORS
330
14
102
}
102
{ACAD_XDICTIONARY
360
CA4
102
}
330
14
100
AcDbVisualStyle
  2

 70
     1
 71
     2
 72
     1
 73
     1
 90
        2
 40
-0.6
 41
30.0
 62
     5
 63
     7
 74
     1
 91
        4
 64
     7
 65
   257
 75
     1
175
     1
 42
1.0
 92
        0
 66
   257
 43
1.0
 76
     1
 77
     6
 78
     2
 67
     7
 79
     5
170
     0
171
     0
290
     0
174
     0
 93
       13
 44
0.0
173
     0
291
     1
 45
0.0
  0
VISUALSTYLE
  5
17
102
{ACAD_REACTORS
330
14
102
}
102
{ACAD_XDICTIONARY
360
CA6
102
}
330
14
100
AcDbVisualStyle
  2

 70
     2
 71
     2
 72
     2
 73
     1
 90
        2
 40
-0.6
 41
30.0
 62
     5
 63
     7
 74
     0
 91
        4
 64
     7
 65
   257
 75
     1
175
     1
 42
1.0
 92
        0
 66
     7
 43
1.0
 76
     1
 77
     6
 78
     2
 67
     7
 79
     5
170
     0
171
     0
290
     0
174
     0
 93
       13
 44
0.0
173
     0
291
     1
 45
0.0
  0
VISUALSTYLE
  5
18
102
{ACAD_REACTORS
330
14
102
}
102
{ACAD_XDICTIONARY
360
CA8
102
}
330
14
100
AcDbVisualStyle
  2

 70
     3
 71
     2
 72
     2
 73
     1
 90
        2
 40
-0.6
 41
30.0
 62
     5
 63
     7
 74
     1
 91
        4
 64
     7
 65
   257
 75
     1
175
     1
 42
1.0
 92
        0
 66
   257
 43
1.0
 76
     1
 77
     6
 78
     2
 67
     7
 79
     5
170
     0
171
     0
290
     0
174
     0
 93
       13
 44
0.0
173
     0
291
     1
 45
0.0
  0
VISUALSTYLE
  5
50F
102
{ACAD_REACTORS
330
14
102
}
102
{ACAD_XDICTIONARY
360
CAA
102
}
330
14
100
AcDbVisualStyle
  2

 70
     6
 71
     1
 72
     2
 73
     2
 90
        0
 40
-0.6
 41
-30.0
 62
     5
 63
     7
 74
     2
 91
        2
 64
     7
 65
   257
 75
     2
175
     1
 42
40.0
 92
        0
 66
   257
 43
1.0
 76
     1
 77
     6
 78
     2
 67
     7
 79
     3
170
     0
171
     0
290
     0
174
     0
 93
        1
 44
0.0
173
     0
291
     0
 45
0.0
  0
VISUALSTYLE
  5
515
102
{ACAD_REACTORS
330
14
102
}
102
{ACAD_XDICTIONARY
360
CAC
102
}
330
14
100
AcDbVisualStyle
  2

 70
    20
 71
     2
 72
     2
 73
     0
 90
        0
 40
-0.6
 41
-30.0
 62
     5
 63
     7
 74
     1
 91
        4
 64
     7
 65
   257
 75
     1
175
     1
 42
1.0
 92
       10
 66
     7
 43
1.0
 76
     1
 77
     6
 78
     2
 67
     7
 79
     5
170
     0
171
     0
290
     0
174
     0
 93
        1
 44
0.0
173
     0
291
     1
 45
0.0
  0
VISUALSTYLE
  5
22
102
{ACAD_REACTORS
330
14
102
}
102
{ACAD_XDICTIONARY
360
CAE
102
}
330
14
100
AcDbVisualStyle
  2

 70
    14
 71
     2
 72
     2
 73
     0
 90
        0
 40
-0.6
 41
-30.0
 62
     5
 63
     7
 74
     1
 91
        4
 64
     7
 65
   257
 75
     7
175
     7
 42
1.0
 92
        8
 66
     7
 43
1.0
 76
     1
 77
     6
 78
     2
 67
     7
 79
     5
170
     0
171
     0
290
     0
174
     0
 93
        1
 44
0.0
173
     0
291
     1
 45
0.0
  0
VISUALSTYLE
  5
516
102
{ACAD_REACTORS
330
14
102
}
102
{ACAD_XDICTIONARY
360
CB0
102
}
330
14
100
AcDbVisualStyle
  2

 70
    21
 71
     2
 72
     2
 73
     0
 90
        0
 40
-0.6
 41
-30.0
 62
     5
 63
     7
 74
     1
 91
        4
 64
     7
 65
   257
 75
     1
175
     1
 42
1.0
 92
        9
 66
     7
 43
1.0
 76
     1
 77
     6
 78
     2
 67
     7
 79
     5
170
     0
171
     0
290
     0
174
     0
 93
        1
 44
0.0
173
     0
291
     1
 45
0.0
  0
VISUALSTYLE
  5
1E
102
{ACAD_REACTORS
330
14
102
}
102
{ACAD_XDICTIONARY
360
CB2
102
}
330
14
100
AcDbVisualStyle
  2

 70
     8
 71
     2
 72
     2
 73
     0
 90
        0
 40
-0.6
 41
-30.0
 62
     5
 63
     7
 74
     1
 91
        0
 64
     7
 65
   257
 75
     1
175
     1
 42
1.0
 92
        8
 66
     8
 43
1.0
 76
     1
 77
     6
 78
     2
 67
     7
 79
     5
170
     0
171
     0
290
     0
174
     0
 93
       13
 44
0.0
173
     0
291
     0
 45
0.0
  0
VISUALSTYLE
  5
514
102
{ACAD_REACTORS
330
14
102
}
102
{ACAD_XDICTIONARY
360
CB4
102
}
330
14
100
AcDbVisualStyle
  2

 70
    27
 71
     2
 72
     2
 73
     1
 90
        2
 40
-0.6
 41
30.0
 62
     5
 63
     7
 74
     0
 91
        4
 64
     7
 65
   257
 75
     1
175
     1
 42
1.0
 92
        8
 66
   257
 43
1.0
 76
     1
 77
     6
 78
     2
 67
     8
 79
     3
170
     0
171
     0
290
     0
174
     0
 93
        5
 44
0.0
173
     0
291
     0
 45
0.0
  0
VISUALSTYLE
  5
513
102
{ACAD_REACTORS
330
14
102
}
102
{ACAD_XDICTIONARY
360
CB6
102
}
330
14
100
AcDbVisualStyle
  2

 70
    26
 71
     2
 72
     2
 73
     1
 90
        2
 40
-0.6
 41
30.0
 62
     5
 63
     7
 74
     1
 91
       10
 64
     7
 65
   257
 75
     2
175
     1
 42
1.0
 92
        8
 66
   257
 43
1.0
 76
     1
 77
     6
 78
     2
 67
     7
 79
     3
170
     0
171
     0
290
     0
174
     0
 93
        5
 44
0.0
173
     0
291
     0
 45
0.0
  0
VISUALSTYLE
  5
510
102
{ACAD_REACTORS
330
14
102
}
102
{ACAD_XDICTIONARY
360
CB8
102
}
330
14
100
AcDbVisualStyle
  2

 70
    23
 71
     2
 72
     2
 73
     3
 90
        0
 40
-0.6
 41
-30.0
 62
     5
 63
     7
 74
     2
 91
        2
 64
     7
 65
     7
 75
     1
175
     1
 42
40.0
 92
        8
 66
     7
 43
1.0
 76
     1
 77
     6
 78
     2
 67
     7
 79
     3
170
     0
171
     0
290
     0
174
     0
 93
        1
 44
0.0
173
     0
291
     0
 45
0.0
  0
VISUALSTYLE
  5
511
102
{ACAD_REACTORS
330
14
102
}
102
{ACAD_XDICTIONARY
360
CBA
102
}
330
14
100
AcDbVisualStyle
  2

 70
    24
 71
     1
 72
     2
 73
     2
 90
        0
 40
-0.6
 41
-30.0
 62
     5
 63
     7
 74
     2
 91
        2
 64
     7
 65
     7
 75
     1
175
     1
 42
40.0
 92
       11
 66
     7
 43
1.0
 76
     1
 77
     6
 78
     2
 67
     7
 79
     6
170
     0
171
     0
290
     0
174
     0
 93
        1
 44
0.0
173
     0
291
     0
 45
0.0
  0
VISUALSTYLE
  5
21
102
{ACAD_REACTORS
330
14
102
}
102
{ACAD_XDICTIONARY
360
CBC
102
}
330
14
100
AcDbVisualStyle
  2

 70
    13
 71
     2
 72
     2
 73
     0
 90
        0
 40
-0.6
 41
-30.0
 62
     5
 63
     7
 74
     1
 91
        4
 64
     7
 65
   257
 75
     1
175
     1
 42
1.0
 92
       12
 66
     7
 43
1.0
 76
     1
 77
     6
 78
     2
 67
     7
 79
     5
170
     0
171
     0
290
     0
174
     0
 93
        1
 44
0.0
173
     0
291
     1
 45
0.0
  0
VISUALSTYLE
  5
50E
102
{ACAD_REACTORS
330
14
102
}
102
{ACAD_XDICTIONARY
360
CBE
102
}
330
14
100
AcDbVisualStyle
  2

 70
     5
 71
     0
 72
     2
 73
     0
 90
        0
 40
-0.6
 41
-30.0
 62
     5
 63
     7
 74
     1
 91
        4
 64
     7
 65
   257
 75
     1
175
     1
 42
1.0
 92
        0
 66
   257
 43
1.0
 76
     1
 77
     6
 78
     2
 67
     7
 79
     3
170
     0
171
     0
290
     0
174
     0
 93
        1
 44
0.0
173
     0
291
     0
 45
0.0
  0
VISUALSTYLE
  5
512
102
{ACAD_REACTORS
330
14
102
}
102
{ACAD_XDICTIONARY
360
CC0
102
}
330
14
100
AcDbVisualStyle
  2

 70
    25
 71
     2
 72
     2
 73
     1
 90
        1
 40
0.5
 41
-30.0
 62
     5
 63
     7
 74
     1
 91
        0
 64
     7
 65
   257
 75
     1
175
     1
 42
1.0
 92
        8
 66
     7
 43
1.0
 76
     1
 77
     6
 78
     2
 67
     7
 79
     3
170
     0
171
     0
290
     0
174
     0
 93
       13
 44
0.0
173
     0
291
     0
 45
0.0
  0
DICTIONARYVAR
  5
C88
102
{ACAD_REACTORS
330
4F5
102
}
330
4F5
100
DictionaryVariables
280
     0
  1
1:1
  0
DICTIONARYVAR
  5
7AA
102
{ACAD_REACTORS
330
4F5
102
}
330
4F5
100
DictionaryVariables
280
     0
  1
Standard
  0
DICTIONARYVAR
  5
4F6
102
{ACAD_REACTORS
330
4F5
102
}
330
4F5
100
DictionaryVariables
280
     0
  1
Standard
  0
DICTIONARYVAR
  5
4F9
102
{ACAD_REACTORS
330
4F5
102
}
330
4F5
100
DictionaryVariables
280
     0
  1
1
  0
DICTIONARYVAR
  5
4F8
102
{ACAD_REACTORS
330
4F5
102
}
330
4F5
100
DictionaryVariables
280
     0
  1
0
  0
DICTIONARYVAR
  5
C89
102
{ACAD_REACTORS
330
4F5
102
}
330
4F5
100
DictionaryVariables
280
     0
  1
2
  0
DICTIONARYVAR
  5
CC3
102
{ACAD_REACTORS
330
4F5
102
}
330
4F5
100
DictionaryVariables
280
     0
  1
0
  0
DICTIONARYVAR
  5
4F7
102
{ACAD_REACTORS
330
4F5
102
}
330
4F5
100
DictionaryVariables
280
     0
  1
127
  0
DICTIONARYVAR
  5
BE2
102
{ACAD_REACTORS
330
4F5
102
}
330
4F5
100
DictionaryVariables
280
     0
  1
2
  0
DICTIONARY
  5
C8A
330
52B
100
AcDbDictionary
280
     1
281
     1
  3
ACAD_XREC_ROUNDTRIP
360
C8B
  0
DICTIONARY
  5
C8C
330
31
100
AcDbDictionary
280
     1
281
     1
  3
ACAD_ROUNDTRIP_2008_TABLESTYLE_CELLSTYLEMAP
360
C8D
  0
DICTIONARY
  5
C8E
330
1A
100
AcDbDictionary
280
     1
281
     1
  3
ACAD_XREC_ROUNDTRIP
360
C8F
  0
DICTIONARY
  5
C90
330
1C
100
AcDbDictionary
280
     1
281
     1
  3
ACAD_XREC_ROUNDTRIP
360
C91
  0
DICTIONARY
  5
C92
330
1B
100
AcDbDictionary
280
     1
281
     1
  3
ACAD_XREC_ROUNDTRIP
360
C93
  0
DICTIONARY
  5
C94
330
19
100
AcDbDictionary
280
     1
281
     1
  3
ACAD_XREC_ROUNDTRIP
360
C95
  0
DICTIONARY
  5
C96
330
20
100
AcDbDictionary
280
     1
281
     1
  3
ACAD_XREC_ROUNDTRIP
360
C97
  0
DICTIONARY
  5
C98
330
24
100
AcDbDictionary
280
     1
281
     1
  3
ACAD_XREC_ROUNDTRIP
360
C99
  0
DICTIONARY
  5
C9A
330
1D
100
AcDbDictionary
280
     1
281
     1
  3
ACAD_XREC_ROUNDTRIP
360
C9B
  0
DICTIONARY
  5
C9C
330
1F
100
AcDbDictionary
280
     1
281
     1
  3
ACAD_XREC_ROUNDTRIP
360
C9D
  0
DICTIONARY
  5
C9E
330
517
100
AcDbDictionary
280
     1
281
     1
  3
ACAD_XREC_ROUNDTRIP
360
C9F
  0
DICTIONARY
  5
CA0
330
23
100
AcDbDictionary
280
     1
281
     1
  3
ACAD_XREC_ROUNDTRIP
360
CA1
  0
DICTIONARY
  5
CA2
330
15
100
AcDbDictionary
280
     1
281
     1
  3
ACAD_XREC_ROUNDTRIP
360
CA3
  0
DICTIONARY
  5
CA4
330
16
100
AcDbDictionary
280
     1
281
     1
  3
ACAD_XREC_ROUNDTRIP
360
CA5
  0
DICTIONARY
  5
CA6
330
17
100
AcDbDictionary
280
     1
281
     1
  3
ACAD_XREC_ROUNDTRIP
360
CA7
  0
DICTIONARY
  5
CA8
330
18
100
AcDbDictionary
280
     1
281
     1
  3
ACAD_XREC_ROUNDTRIP
360
CA9
  0
DICTIONARY
  5
CAA
330
50F
100
AcDbDictionary
280
     1
281
     1
  3
ACAD_XREC_ROUNDTRIP
360
CAB
  0
DICTIONARY
  5
CAC
330
515
100
AcDbDictionary
280
     1
281
     1
  3
ACAD_XREC_ROUNDTRIP
360
CAD
  0
DICTIONARY
  5
CAE
330
22
100
AcDbDictionary
280
     1
281
     1
  3
ACAD_XREC_ROUNDTRIP
360
CAF
  0
DICTIONARY
  5
CB0
330
516
100
AcDbDictionary
280
     1
281
     1
  3
ACAD_XREC_ROUNDTRIP
360
CB1
  0
DICTIONARY
  5
CB2
330
1E
100
AcDbDictionary
280
     1
281
     1
  3
ACAD_XREC_ROUNDTRIP
360
CB3
  0
DICTIONARY
  5
CB4
330
514
100
AcDbDictionary
280
     1
281
     1
  3
ACAD_XREC_ROUNDTRIP
360
CB5
  0
DICTIONARY
  5
CB6
330
513
100
AcDbDictionary
280
     1
281
     1
  3
ACAD_XREC_ROUNDTRIP
360
CB7
  0
DICTIONARY
  5
CB8
330
510
100
AcDbDictionary
280
     1
281
     1
  3
ACAD_XREC_ROUNDTRIP
360
CB9
  0
DICTIONARY
  5
CBA
330
511
100
AcDbDictionary
280
     1
281
     1
  3
ACAD_XREC_ROUNDTRIP
360
CBB
  0
DICTIONARY
  5
CBC
330
21
100
AcDbDictionary
280
     1
281
     1
  3
ACAD_XREC_ROUNDTRIP
360
CBD
  0
DICTIONARY
  5
CBE
330
50E
100
AcDbDictionary
280
     1
281
     1
  3
ACAD_XREC_ROUNDTRIP
360
CBF
  0
DICTIONARY
  5
CC0
330
512
100
AcDbDictionary
280
     1
281
     1
  3
ACAD_XREC_ROUNDTRIP
360
CC1
  0
XRECORD
  5
C8B
102
{ACAD_REACTORS
330
C8A
102
}
330
C8A
100
AcDbXrecord
280
     1
102
ACAD_ROUNDTRIP_2010_MLEADER_STYLE
  0
CELLSTYLEMAP
  5
C8D
102
{ACAD_REACTORS
330
C8C
102
}
330
C8C
100
AcDbCellStyleMap
 90
        3
300
CELLSTYLE
  1
TABLEFORMAT_BEGIN
 90
        5
170
     1
 91
        0
 92
    32768
 62
   257
 93
        1
300
CONTENTFORMAT
  1
CONTENTFORMAT_BEGIN
 90
        0
 91
        0
 92
      512
 93
        0
300

 40
0.0
140
1.0
 94
        5
 62
     0
340
26
144
0.25
309
CONTENTFORMAT_END
171
     1
301
MARGIN
  1
CELLMARGIN_BEGIN
 40
0.06
 40
0.06
 40
0.06
 40
0.06
 40
0.18
 40
0.18
309
CELLMARGIN_END
 94
        6
 95
        1
302
GRIDFORMAT
  1
GRIDFORMAT_BEGIN
 90
        0
 91
        1
 62
     0
 92
       -2
340
0
 93
        0
 40
0.045
309
GRIDFORMAT_END
 95
        2
302
GRIDFORMAT
  1
GRIDFORMAT_BEGIN
 90
        0
 91
        1
 62
     0
 92
       -2
340
0
 93
        0
 40
0.045
309
GRIDFORMAT_END
 95
        4
302
GRIDFORMAT
  1
GRIDFORMAT_BEGIN
 90
        0
 91
        1
 62
     0
 92
       -2
340
0
 93
        0
 40
0.045
309
GRIDFORMAT_END
 95
        8
302
GRIDFORMAT
  1
GRIDFORMAT_BEGIN
 90
        0
 91
        1
 62
     0
 92
       -2
340
0
 93
        0
 40
0.045
309
GRIDFORMAT_END
 95
       16
302
GRIDFORMAT
  1
GRIDFORMAT_BEGIN
 90
        0
 91
        1
 62
     0
 92
       -2
340
0
 93
        0
 40
0.045
309
GRIDFORMAT_END
 95
       32
302
GRIDFORMAT
  1
GRIDFORMAT_BEGIN
 90
        0
 91
        1
 62
     0
 92
       -2
340
0
 93
        0
 40
0.045
309
GRIDFORMAT_END
309
TABLEFORMAT_END
  1
CELLSTYLE_BEGIN
 90
        1
 91
        1
300
_TITLE
309
CELLSTYLE_END
300
CELLSTYLE
  1
TABLEFORMAT_BEGIN
 90
        5
170
     1
 91
        0
 92
        0
 62
   257
 93
        1
300
CONTENTFORMAT
  1
CONTENTFORMAT_BEGIN
 90
        0
 91
        0
 92
      512
 93
        0
300

 40
0.0
140
1.0
 94
        5
 62
     0
340
26
144
0.18
309
CONTENTFORMAT_END
171
     1
301
MARGIN
  1
CELLMARGIN_BEGIN
 40
0.06
 40
0.06
 40
0.06
 40
0.06
 40
0.18
 40
0.18
309
CELLMARGIN_END
 94
        6
 95
        1
302
GRIDFORMAT
  1
GRIDFORMAT_BEGIN
 90
        0
 91
        1
 62
     0
 92
       -2
340
0
 93
        0
 40
0.045
309
GRIDFORMAT_END
 95
        2
302
GRIDFORMAT
  1
GRIDFORMAT_BEGIN
 90
        0
 91
        1
 62
     0
 92
       -2
340
0
 93
        0
 40
0.045
309
GRIDFORMAT_END
 95
        4
302
GRIDFORMAT
  1
GRIDFORMAT_BEGIN
 90
        0
 91
        1
 62
     0
 92
       -2
340
0
 93
        0
 40
0.045
309
GRIDFORMAT_END
 95
        8
302
GRIDFORMAT
  1
GRIDFORMAT_BEGIN
 90
        0
 91
        1
 62
     0
 92
       -2
340
0
 93
        0
 40
0.045
309
GRIDFORMAT_END
 95
       16
302
GRIDFORMAT
  1
GRIDFORMAT_BEGIN
 90
        0
 91
        1
 62
     0
 92
       -2
340
0
 93
        0
 40
0.045
309
GRIDFORMAT_END
 95
       32
302
GRIDFORMAT
  1
GRIDFORMAT_BEGIN
 90
        0
 91
        1
 62
     0
 92
       -2
340
0
 93
        0
 40
0.045
309
GRIDFORMAT_END
309
TABLEFORMAT_END
  1
CELLSTYLE_BEGIN
 90
        2
 91
        1
300
_HEADER
309
CELLSTYLE_END
300
CELLSTYLE
  1
TABLEFORMAT_BEGIN
 90
        5
170
     1
 91
        0
 92
        0
 62
   257
 93
        1
300
CONTENTFORMAT
  1
CONTENTFORMAT_BEGIN
 90
        0
 91
        0
 92
      512
 93
        0
300

 40
0.0
140
1.0
 94
        2
 62
     0
340
26
144
0.18
309
CONTENTFORMAT_END
171
     1
301
MARGIN
  1
CELLMARGIN_BEGIN
 40
0.06
 40
0.06
 40
0.06
 40
0.06
 40
0.18
 40
0.18
309
CELLMARGIN_END
 94
        6
 95
        1
302
GRIDFORMAT
  1
GRIDFORMAT_BEGIN
 90
        0
 91
        1
 62
     0
 92
       -2
340
0
 93
        0
 40
0.045
309
GRIDFORMAT_END
 95
        2
302
GRIDFORMAT
  1
GRIDFORMAT_BEGIN
 90
        0
 91
        1
 62
     0
 92
       -2
340
0
 93
        0
 40
0.045
309
GRIDFORMAT_END
 95
        4
302
GRIDFORMAT
  1
GRIDFORMAT_BEGIN
 90
        0
 91
        1
 62
     0
 92
       -2
340
0
 93
        0
 40
0.045
309
GRIDFORMAT_END
 95
        8
302
GRIDFORMAT
  1
GRIDFORMAT_BEGIN
 90
        0
 91
        1
 62
     0
 92
       -2
340
0
 93
        0
 40
0.045
309
GRIDFORMAT_END
 95
       16
302
GRIDFORMAT
  1
GRIDFORMAT_BEGIN
 90
        0
 91
        1
 62
     0
 92
       -2
340
0
 93
        0
 40
0.045
309
GRIDFORMAT_END
 95
       32
302
GRIDFORMAT
  1
GRIDFORMAT_BEGIN
 90
        0
 91
        1
 62
     0
 92
       -2
340
0
 93
        0
 40
0.045
309
GRIDFORMAT_END
309
TABLEFORMAT_END
  1
CELLSTYLE_BEGIN
 90
        3
 91
        2
300
_DATA
309
CELLSTYLE_END
  0
XRECORD
  5
C8F
102
{ACAD_REACTORS
330
C8E
102
}
330
C8E
100
AcDbXrecord
280
     1
102
RTVSPropertyOp0
 70
     1
102
RTVSPropertyOp1
 70
     1
102
RTVSPropertyOp2
 70
     1
102
RTVSPropertyOp3
 70
     1
102
RTVSPropertyOp4
 70
     1
102
RTVSPropertyOp5
 70
     1
102
RTVSPropertyOp6
 70
     1
102
RTVSPropertyOp7
 70
     1
102
RTVSPropertyOp8
 70
     1
102
RTVSPropertyOp9
 70
     1
102
RTVSPropertyOp10
 70
     1
102
RTVSPropertyOp11
 70
     1
102
RTVSPropertyOp12
 70
     1
102
RTVSPropertyOp13
 70
     1
102
RTVSPropertyOp14
 70
     1
102
RTVSPropertyOp15
 70
     1
102
RTVSPropertyOp16
 70
     1
102
RTVSPropertyOp17
 70
     1
102
RTVSPropertyOp18
 70
     1
102
RTVSPropertyOp19
 70
     1
102
RTVSPropertyOp20
 70
     1
102
RTVSPropertyOp21
 70
     1
102
RTVSPropertyOp22
 70
     1
102
RTVSPropertyOp23
 70
     1
102
RTVSPropertyOp24
 70
     1
102
RTVSPropertyOp25
 70
     1
102
RTVSPropertyOp26
 70
     1
102
RTVSPropertyOp27
 70
     1
102
RTVSPropertyOp28
 70
     1
102
RTVSPropertyOp29
 70
     1
102
RTVSPropertyOp30
 70
     1
102
RTVSPropertyOp31
 70
     1
102
RTVSPropertyOp32
 70
     1
102
RTVSPropertyOp33
 70
     1
102
RTVSPropertyOp34
 70
     1
102
RTVSPropertyOp35
 70
     1
102
RTVSPropertyOp36
 70
     1
102
RTVSPropertyOp37
 70
     1
102
RTVSPropertyOp38
 70
     1
102
RTVSPropertyOp39
 70
     1
102
RTVSPropertyOp40
 70
     1
102
RTVSPropertyOp41
 70
     1
102
RTVSPropertyOp42
 70
     1
102
RTVSPropertyOp43
 70
     1
102
RTVSPropertyOp44
 70
     1
102
RTVSPropertyOp45
 70
     1
102
RTVSPropertyOp46
 70
     1
102
RTVSPropertyOp47
 70
     1
102
RTVSPropertyOp48
 70
     1
102
RTVSPropertyOp49
 70
     1
102
RTVSPropertyOp50
 70
     1
102
RTVSPropertyOp51
 70
     0
102
RTVSPropertyOp52
 70
     0
102
RTVSPropertyOp53
 70
     1
102
RTVSPropertyOp54
 70
     1
102
RTVSPropertyOp55
 70
     1
102
RTVSPropertyOp56
 70
     1
102
RTVSPropertyOp57
 70
     1
102
RTVSPost2010Prop28
280
     1
102
RTVSPost2010PropOp28
 70
     1
102
RTVSPost2010Prop29
280
     1
102
RTVSPost2010PropOp29
 70
     1
102
RTVSPost2010Prop30
280
     0
102
RTVSPost2010PropOp30
 70
     1
102
RTVSPost2010Prop31
280
     0
102
RTVSPost2010PropOp31
 70
     1
102
RTVSPost2010Prop32
280
     0
102
RTVSPost2010PropOp32
 70
     1
102
RTVSPost2010Prop33
280
     0
102
RTVSPost2010PropOp33
 70
     1
102
RTVSPost2010Prop34
280
     0
102
RTVSPost2010PropOp34
 70
     1
102
RTVSPost2010Prop35
280
     0
102
RTVSPost2010PropOp35
 70
     1
102
RTVSPost2010Prop36
280
     0
102
RTVSPost2010PropOp36
 70
     1
102
RTVSPost2010Prop37
 90
       50
102
RTVSPost2010PropOp37
 70
     1
102
RTVSPost2010Prop38
140
0.0
102
RTVSPost2010PropOp38
 70
     1
102
RTVSPost2010Prop39
140
1.0
102
RTVSPost2010PropOp39
 70
     1
102
RTVSPost2010Prop40
 90
        0
102
RTVSPost2010PropOp40
 70
     1
102
RTVSPost2010Prop41ColorIndex
 90
       18
102
RTVSPost2010Prop41ColorRGB
 90
        0
102
RTVSPost2010PropOp41
 70
     1
102
RTVSPost2010Prop42
 90
       50
102
RTVSPost2010PropOp42
 70
     1
102
RTVSPost2010Prop43
 90
        3
102
RTVSPost2010PropOp43
 70
     1
102
RTVSPost2010Prop44ColorIndex
 90
        5
102
RTVSPost2010Prop44ColorRGB
 90
      255
102
RTVSPost2010PropOp44
 70
     1
102
RTVSPost2010Prop45
280
     0
102
RTVSPost2010PropOp45
 70
     1
102
RTVSPost2010Prop46
 90
       50
102
RTVSPost2010PropOp46
 70
     1
102
RTVSPost2010Prop47
 90
       50
102
RTVSPost2010PropOp47
 70
     1
102
RTVSPost2010Prop48
 90
       50
102
RTVSPost2010PropOp48
 70
     1
102
RTVSPost2010Prop49
280
     0
102
RTVSPost2010PropOp49
 70
     1
102
RTVSPost2010Prop50
 90
       50
102
RTVSPost2010PropOp50
 70
     1
102
RTVSPost2010Prop51ColorIndex
 90
      256
102
RTVSPost2010Prop51ColorRGB
 90
-16777216
102
RTVSPost2010PropOp51
 70
     0
102
RTVSPost2010Prop52
140
1.0
102
RTVSPost2010PropOp52
 70
     0
102
RTVSPost2010Prop53
 90
        2
102
RTVSPost2010PropOp53
 70
     1
102
RTVSPost2010Prop54
  1
strokes_ogs.tif
102
RTVSPost2010PropOp54
 70
     1
102
RTVSPost2010Prop55
280
     0
102
RTVSPost2010PropOp55
 70
     1
102
RTVSPost2010Prop56
140
1.0
102
RTVSPost2010PropOp56
 70
     1
102
RTVSPost2010Prop57
140
1.0
102
RTVSPost2010PropOp57
 70
     1
  0
XRECORD
  5
C91
102
{ACAD_REACTORS
330
C90
102
}
330
C90
100
AcDbXrecord
280
     1
102
RTVSPropertyOp0
 70
     1
102
RTVSPropertyOp1
 70
     1
102
RTVSPropertyOp2
 70
     1
102
RTVSPropertyOp3
 70
     1
102
RTVSPropertyOp4
 70
     1
102
RTVSPropertyOp5
 70
     1
102
RTVSPropertyOp6
 70
     1
102
RTVSPropertyOp7
 70
     1
102
RTVSPropertyOp8
 70
     1
102
RTVSPropertyOp9
 70
     1
102
RTVSPropertyOp10
 70
     1
102
RTVSPropertyOp11
 70
     1
102
RTVSPropertyOp12
 70
     1
102
RTVSPropertyOp13
 70
     1
102
RTVSPropertyOp14
 70
     1
102
RTVSPropertyOp15
 70
     1
102
RTVSPropertyOp16
 70
     1
102
RTVSPropertyOp17
 70
     1
102
RTVSPropertyOp18
 70
     1
102
RTVSPropertyOp19
 70
     1
102
RTVSPropertyOp20
 70
     1
102
RTVSPropertyOp21
 70
     1
102
RTVSPropertyOp22
 70
     1
102
RTVSPropertyOp23
 70
     1
102
RTVSPropertyOp24
 70
     1
102
RTVSPropertyOp25
 70
     1
102
RTVSPropertyOp26
 70
     1
102
RTVSPropertyOp27
 70
     1
102
RTVSPropertyOp28
 70
     1
102
RTVSPropertyOp29
 70
     1
102
RTVSPropertyOp30
 70
     1
102
RTVSPropertyOp31
 70
     1
102
RTVSPropertyOp32
 70
     1
102
RTVSPropertyOp33
 70
     1
102
RTVSPropertyOp34
 70
     1
102
RTVSPropertyOp35
 70
     1
102
RTVSPropertyOp36
 70
     1
102
RTVSPropertyOp37
 70
     1
102
RTVSPropertyOp38
 70
     1
102
RTVSPropertyOp39
 70
     1
102
RTVSPropertyOp40
 70
     1
102
RTVSPropertyOp41
 70
     1
102
RTVSPropertyOp42
 70
     1
102
RTVSPropertyOp43
 70
     1
102
RTVSPropertyOp44
 70
     1
102
RTVSPropertyOp45
 70
     1
102
RTVSPropertyOp46
 70
     1
102
RTVSPropertyOp47
 70
     1
102
RTVSPropertyOp48
 70
     1
102
RTVSPropertyOp49
 70
     1
102
RTVSPropertyOp50
 70
     1
102
RTVSPropertyOp51
 70
     0
102
RTVSPropertyOp52
 70
     0
102
RTVSPropertyOp53
 70
     1
102
RTVSPropertyOp54
 70
     1
102
RTVSPropertyOp55
 70
     1
102
RTVSPropertyOp56
 70
     1
102
RTVSPropertyOp57
 70
     1
102
RTVSPost2010Prop28
280
     0
102
RTVSPost2010PropOp28
 70
     1
102
RTVSPost2010Prop29
280
     1
102
RTVSPost2010PropOp29
 70
     1
102
RTVSPost2010Prop30
280
     1
102
RTVSPost2010PropOp30
 70
     1
102
RTVSPost2010Prop31
280
     0
102
RTVSPost2010PropOp31
 70
     1
102
RTVSPost2010Prop32
280
     0
102
RTVSPost2010PropOp32
 70
     1
102
RTVSPost2010Prop33
280
     0
102
RTVSPost2010PropOp33
 70
     1
102
RTVSPost2010Prop34
280
     0
102
RTVSPost2010PropOp34
 70
     1
102
RTVSPost2010Prop35
280
     0
102
RTVSPost2010PropOp35
 70
     1
102
RTVSPost2010Prop36
280
     0
102
RTVSPost2010PropOp36
 70
     1
102
RTVSPost2010Prop37
 90
       50
102
RTVSPost2010PropOp37
 70
     1
102
RTVSPost2010Prop38
140
0.0
102
RTVSPost2010PropOp38
 70
     1
102
RTVSPost2010Prop39
140
1.0
102
RTVSPost2010PropOp39
 70
     1
102
RTVSPost2010Prop40
 90
        0
102
RTVSPost2010PropOp40
 70
     1
102
RTVSPost2010Prop41ColorIndex
 90
       18
102
RTVSPost2010Prop41ColorRGB
 90
        0
102
RTVSPost2010PropOp41
 70
     1
102
RTVSPost2010Prop42
 90
       50
102
RTVSPost2010PropOp42
 70
     1
102
RTVSPost2010Prop43
 90
        3
102
RTVSPost2010PropOp43
 70
     1
102
RTVSPost2010Prop44ColorIndex
 90
        5
102
RTVSPost2010Prop44ColorRGB
 90
      255
102
RTVSPost2010PropOp44
 70
     1
102
RTVSPost2010Prop45
280
     0
102
RTVSPost2010PropOp45
 70
     1
102
RTVSPost2010Prop46
 90
       50
102
RTVSPost2010PropOp46
 70
     1
102
RTVSPost2010Prop47
 90
       50
102
RTVSPost2010PropOp47
 70
     1
102
RTVSPost2010Prop48
 90
       50
102
RTVSPost2010PropOp48
 70
     1
102
RTVSPost2010Prop49
280
     0
102
RTVSPost2010PropOp49
 70
     1
102
RTVSPost2010Prop50
 90
       50
102
RTVSPost2010PropOp50
 70
     1
102
RTVSPost2010Prop51ColorIndex
 90
      256
102
RTVSPost2010Prop51ColorRGB
 90
-16777216
102
RTVSPost2010PropOp51
 70
     0
102
RTVSPost2010Prop52
140
1.0
102
RTVSPost2010PropOp52
 70
     0
102
RTVSPost2010Prop53
 90
        2
102
RTVSPost2010PropOp53
 70
     1
102
RTVSPost2010Prop54
  1
strokes_ogs.tif
102
RTVSPost2010PropOp54
 70
     1
102
RTVSPost2010Prop55
280
     0
102
RTVSPost2010PropOp55
 70
     1
102
RTVSPost2010Prop56
140
1.0
102
RTVSPost2010PropOp56
 70
     1
102
RTVSPost2010Prop57
140
1.0
102
RTVSPost2010PropOp57
 70
     1
  0
XRECORD
  5
C93
102
{ACAD_REACTORS
330
C92
102
}
330
C92
100
AcDbXrecord
280
     1
102
RTVSPropertyOp0
 70
     1
102
RTVSPropertyOp1
 70
     1
102
RTVSPropertyOp2
 70
     1
102
RTVSPropertyOp3
 70
     1
102
RTVSPropertyOp4
 70
     1
102
RTVSPropertyOp5
 70
     1
102
RTVSPropertyOp6
 70
     1
102
RTVSPropertyOp7
 70
     1
102
RTVSPropertyOp8
 70
     1
102
RTVSPropertyOp9
 70
     1
102
RTVSPropertyOp10
 70
     1
102
RTVSPropertyOp11
 70
     1
102
RTVSPropertyOp12
 70
     1
102
RTVSPropertyOp13
 70
     1
102
RTVSPropertyOp14
 70
     1
102
RTVSPropertyOp15
 70
     1
102
RTVSPropertyOp16
 70
     1
102
RTVSPropertyOp17
 70
     1
102
RTVSPropertyOp18
 70
     1
102
RTVSPropertyOp19
 70
     1
102
RTVSPropertyOp20
 70
     1
102
RTVSPropertyOp21
 70
     1
102
RTVSPropertyOp22
 70
     1
102
RTVSPropertyOp23
 70
     1
102
RTVSPropertyOp24
 70
     1
102
RTVSPropertyOp25
 70
     1
102
RTVSPropertyOp26
 70
     1
102
RTVSPropertyOp27
 70
     1
102
RTVSPropertyOp28
 70
     1
102
RTVSPropertyOp29
 70
     1
102
RTVSPropertyOp30
 70
     1
102
RTVSPropertyOp31
 70
     1
102
RTVSPropertyOp32
 70
     1
102
RTVSPropertyOp33
 70
     1
102
RTVSPropertyOp34
 70
     1
102
RTVSPropertyOp35
 70
     1
102
RTVSPropertyOp36
 70
     1
102
RTVSPropertyOp37
 70
     1
102
RTVSPropertyOp38
 70
     1
102
RTVSPropertyOp39
 70
     1
102
RTVSPropertyOp40
 70
     1
102
RTVSPropertyOp41
 70
     1
102
RTVSPropertyOp42
 70
     1
102
RTVSPropertyOp43
 70
     1
102
RTVSPropertyOp44
 70
     1
102
RTVSPropertyOp45
 70
     1
102
RTVSPropertyOp46
 70
     1
102
RTVSPropertyOp47
 70
     1
102
RTVSPropertyOp48
 70
     1
102
RTVSPropertyOp49
 70
     1
102
RTVSPropertyOp50
 70
     1
102
RTVSPropertyOp51
 70
     0
102
RTVSPropertyOp52
 70
     0
102
RTVSPropertyOp53
 70
     1
102
RTVSPropertyOp54
 70
     1
102
RTVSPropertyOp55
 70
     1
102
RTVSPropertyOp56
 70
     1
102
RTVSPropertyOp57
 70
     1
102
RTVSPost2010Prop28
280
     0
102
RTVSPost2010PropOp28
 70
     1
102
RTVSPost2010Prop29
280
     1
102
RTVSPost2010PropOp29
 70
     1
102
RTVSPost2010Prop30
280
     1
102
RTVSPost2010PropOp30
 70
     1
102
RTVSPost2010Prop31
280
     0
102
RTVSPost2010PropOp31
 70
     1
102
RTVSPost2010Prop32
280
     0
102
RTVSPost2010PropOp32
 70
     1
102
RTVSPost2010Prop33
280
     0
102
RTVSPost2010PropOp33
 70
     1
102
RTVSPost2010Prop34
280
     0
102
RTVSPost2010PropOp34
 70
     1
102
RTVSPost2010Prop35
280
     0
102
RTVSPost2010PropOp35
 70
     1
102
RTVSPost2010Prop36
280
     0
102
RTVSPost2010PropOp36
 70
     1
102
RTVSPost2010Prop37
 90
       50
102
RTVSPost2010PropOp37
 70
     1
102
RTVSPost2010Prop38
140
0.0
102
RTVSPost2010PropOp38
 70
     1
102
RTVSPost2010Prop39
140
1.0
102
RTVSPost2010PropOp39
 70
     1
102
RTVSPost2010Prop40
 90
        0
102
RTVSPost2010PropOp40
 70
     1
102
RTVSPost2010Prop41ColorIndex
 90
       18
102
RTVSPost2010Prop41ColorRGB
 90
        0
102
RTVSPost2010PropOp41
 70
     1
102
RTVSPost2010Prop42
 90
       50
102
RTVSPost2010PropOp42
 70
     1
102
RTVSPost2010Prop43
 90
        3
102
RTVSPost2010PropOp43
 70
     1
102
RTVSPost2010Prop44ColorIndex
 90
        5
102
RTVSPost2010Prop44ColorRGB
 90
      255
102
RTVSPost2010PropOp44
 70
     1
102
RTVSPost2010Prop45
280
     0
102
RTVSPost2010PropOp45
 70
     1
102
RTVSPost2010Prop46
 90
       50
102
RTVSPost2010PropOp46
 70
     1
102
RTVSPost2010Prop47
 90
       50
102
RTVSPost2010PropOp47
 70
     1
102
RTVSPost2010Prop48
 90
       50
102
RTVSPost2010PropOp48
 70
     1
102
RTVSPost2010Prop49
280
     0
102
RTVSPost2010PropOp49
 70
     1
102
RTVSPost2010Prop50
 90
       50
102
RTVSPost2010PropOp50
 70
     1
102
RTVSPost2010Prop51ColorIndex
 90
      256
102
RTVSPost2010Prop51ColorRGB
 90
-16777216
102
RTVSPost2010PropOp51
 70
     0
102
RTVSPost2010Prop52
140
1.0
102
RTVSPost2010PropOp52
 70
     0
102
RTVSPost2010Prop53
 90
        2
102
RTVSPost2010PropOp53
 70
     1
102
RTVSPost2010Prop54
  1
strokes_ogs.tif
102
RTVSPost2010PropOp54
 70
     1
102
RTVSPost2010Prop55
280
     0
102
RTVSPost2010PropOp55
 70
     1
102
RTVSPost2010Prop56
140
1.0
102
RTVSPost2010PropOp56
 70
     1
102
RTVSPost2010Prop57
140
1.0
102
RTVSPost2010PropOp57
 70
     1
  0
XRECORD
  5
C95
102
{ACAD_REACTORS
330
C94
102
}
330
C94
100
AcDbXrecord
280
     1
102
RTVSPropertyOp0
 70
     1
102
RTVSPropertyOp1
 70
     1
102
RTVSPropertyOp2
 70
     1
102
RTVSPropertyOp3
 70
     1
102
RTVSPropertyOp4
 70
     1
102
RTVSPropertyOp5
 70
     1
102
RTVSPropertyOp6
 70
     1
102
RTVSPropertyOp7
 70
     1
102
RTVSPropertyOp8
 70
     1
102
RTVSPropertyOp9
 70
     1
102
RTVSPropertyOp10
 70
     1
102
RTVSPropertyOp11
 70
     1
102
RTVSPropertyOp12
 70
     1
102
RTVSPropertyOp13
 70
     1
102
RTVSPropertyOp14
 70
     1
102
RTVSPropertyOp15
 70
     1
102
RTVSPropertyOp16
 70
     1
102
RTVSPropertyOp17
 70
     1
102
RTVSPropertyOp18
 70
     1
102
RTVSPropertyOp19
 70
     1
102
RTVSPropertyOp20
 70
     1
102
RTVSPropertyOp21
 70
     1
102
RTVSPropertyOp22
 70
     1
102
RTVSPropertyOp23
 70
     1
102
RTVSPropertyOp24
 70
     1
102
RTVSPropertyOp25
 70
     1
102
RTVSPropertyOp26
 70
     1
102
RTVSPropertyOp27
 70
     1
102
RTVSPropertyOp28
 70
     1
102
RTVSPropertyOp29
 70
     1
102
RTVSPropertyOp30
 70
     1
102
RTVSPropertyOp31
 70
     1
102
RTVSPropertyOp32
 70
     1
102
RTVSPropertyOp33
 70
     1
102
RTVSPropertyOp34
 70
     1
102
RTVSPropertyOp35
 70
     1
102
RTVSPropertyOp36
 70
     1
102
RTVSPropertyOp37
 70
     1
102
RTVSPropertyOp38
 70
     1
102
RTVSPropertyOp39
 70
     1
102
RTVSPropertyOp40
 70
     1
102
RTVSPropertyOp41
 70
     1
102
RTVSPropertyOp42
 70
     1
102
RTVSPropertyOp43
 70
     1
102
RTVSPropertyOp44
 70
     1
102
RTVSPropertyOp45
 70
     1
102
RTVSPropertyOp46
 70
     1
102
RTVSPropertyOp47
 70
     1
102
RTVSPropertyOp48
 70
     1
102
RTVSPropertyOp49
 70
     1
102
RTVSPropertyOp50
 70
     1
102
RTVSPropertyOp51
 70
     0
102
RTVSPropertyOp52
 70
     0
102
RTVSPropertyOp53
 70
     1
102
RTVSPropertyOp54
 70
     1
102
RTVSPropertyOp55
 70
     1
102
RTVSPropertyOp56
 70
     1
102
RTVSPropertyOp57
 70
     1
102
RTVSPost2010Prop28
280
     0
102
RTVSPost2010PropOp28
 70
     1
102
RTVSPost2010Prop29
280
     1
102
RTVSPost2010PropOp29
 70
     1
102
RTVSPost2010Prop30
280
     1
102
RTVSPost2010PropOp30
 70
     1
102
RTVSPost2010Prop31
280
     0
102
RTVSPost2010PropOp31
 70
     1
102
RTVSPost2010Prop32
280
     0
102
RTVSPost2010PropOp32
 70
     1
102
RTVSPost2010Prop33
280
     0
102
RTVSPost2010PropOp33
 70
     1
102
RTVSPost2010Prop34
280
     0
102
RTVSPost2010PropOp34
 70
     1
102
RTVSPost2010Prop35
280
     0
102
RTVSPost2010PropOp35
 70
     1
102
RTVSPost2010Prop36
280
     0
102
RTVSPost2010PropOp36
 70
     1
102
RTVSPost2010Prop37
 90
       50
102
RTVSPost2010PropOp37
 70
     1
102
RTVSPost2010Prop38
140
0.0
102
RTVSPost2010PropOp38
 70
     1
102
RTVSPost2010Prop39
140
1.0
102
RTVSPost2010PropOp39
 70
     1
102
RTVSPost2010Prop40
 90
        0
102
RTVSPost2010PropOp40
 70
     1
102
RTVSPost2010Prop41ColorIndex
 90
       18
102
RTVSPost2010Prop41ColorRGB
 90
        0
102
RTVSPost2010PropOp41
 70
     1
102
RTVSPost2010Prop42
 90
       50
102
RTVSPost2010PropOp42
 70
     1
102
RTVSPost2010Prop43
 90
        3
102
RTVSPost2010PropOp43
 70
     1
102
RTVSPost2010Prop44ColorIndex
 90
        5
102
RTVSPost2010Prop44ColorRGB
 90
      255
102
RTVSPost2010PropOp44
 70
     1
102
RTVSPost2010Prop45
280
     0
102
RTVSPost2010PropOp45
 70
     1
102
RTVSPost2010Prop46
 90
       50
102
RTVSPost2010PropOp46
 70
     1
102
RTVSPost2010Prop47
 90
       50
102
RTVSPost2010PropOp47
 70
     1
102
RTVSPost2010Prop48
 90
       50
102
RTVSPost2010PropOp48
 70
     1
102
RTVSPost2010Prop49
280
     0
102
RTVSPost2010PropOp49
 70
     1
102
RTVSPost2010Prop50
 90
       50
102
RTVSPost2010PropOp50
 70
     1
102
RTVSPost2010Prop51ColorIndex
 90
      256
102
RTVSPost2010Prop51ColorRGB
 90
-16777216
102
RTVSPost2010PropOp51
 70
     0
102
RTVSPost2010Prop52
140
1.0
102
RTVSPost2010PropOp52
 70
     0
102
RTVSPost2010Prop53
 90
        2
102
RTVSPost2010PropOp53
 70
     1
102
RTVSPost2010Prop54
  1
strokes_ogs.tif
102
RTVSPost2010PropOp54
 70
     1
102
RTVSPost2010Prop55
280
     0
102
RTVSPost2010PropOp55
 70
     1
102
RTVSPost2010Prop56
140
1.0
102
RTVSPost2010PropOp56
 70
     1
102
RTVSPost2010Prop57
140
1.0
102
RTVSPost2010PropOp57
 70
     1
  0
XRECORD
  5
C97
102
{ACAD_REACTORS
330
C96
102
}
330
C96
100
AcDbXrecord
280
     1
102
RTVSPropertyOp0
 70
     1
102
RTVSPropertyOp1
 70
     1
102
RTVSPropertyOp2
 70
     1
102
RTVSPropertyOp3
 70
     1
102
RTVSPropertyOp4
 70
     1
102
RTVSPropertyOp5
 70
     1
102
RTVSPropertyOp6
 70
     1
102
RTVSPropertyOp7
 70
     1
102
RTVSPropertyOp8
 70
     1
102
RTVSPropertyOp9
 70
     1
102
RTVSPropertyOp10
 70
     1
102
RTVSPropertyOp11
 70
     1
102
RTVSPropertyOp12
 70
     1
102
RTVSPropertyOp13
 70
     1
102
RTVSPropertyOp14
 70
     1
102
RTVSPropertyOp15
 70
     1
102
RTVSPropertyOp16
 70
     1
102
RTVSPropertyOp17
 70
     1
102
RTVSPropertyOp18
 70
     1
102
RTVSPropertyOp19
 70
     1
102
RTVSPropertyOp20
 70
     1
102
RTVSPropertyOp21
 70
     1
102
RTVSPropertyOp22
 70
     1
102
RTVSPropertyOp23
 70
     1
102
RTVSPropertyOp24
 70
     1
102
RTVSPropertyOp25
 70
     1
102
RTVSPropertyOp26
 70
     1
102
RTVSPropertyOp27
 70
     1
102
RTVSPropertyOp28
 70
     1
102
RTVSPropertyOp29
 70
     1
102
RTVSPropertyOp30
 70
     1
102
RTVSPropertyOp31
 70
     1
102
RTVSPropertyOp32
 70
     1
102
RTVSPropertyOp33
 70
     1
102
RTVSPropertyOp34
 70
     1
102
RTVSPropertyOp35
 70
     1
102
RTVSPropertyOp36
 70
     1
102
RTVSPropertyOp37
 70
     1
102
RTVSPropertyOp38
 70
     1
102
RTVSPropertyOp39
 70
     1
102
RTVSPropertyOp40
 70
     1
102
RTVSPropertyOp41
 70
     1
102
RTVSPropertyOp42
 70
     1
102
RTVSPropertyOp43
 70
     1
102
RTVSPropertyOp44
 70
     1
102
RTVSPropertyOp45
 70
     1
102
RTVSPropertyOp46
 70
     1
102
RTVSPropertyOp47
 70
     1
102
RTVSPropertyOp48
 70
     1
102
RTVSPropertyOp49
 70
     1
102
RTVSPropertyOp50
 70
     1
102
RTVSPropertyOp51
 70
     0
102
RTVSPropertyOp52
 70
     0
102
RTVSPropertyOp53
 70
     1
102
RTVSPropertyOp54
 70
     1
102
RTVSPropertyOp55
 70
     1
102
RTVSPropertyOp56
 70
     1
102
RTVSPropertyOp57
 70
     1
102
RTVSPost2010Prop28
280
     0
102
RTVSPost2010PropOp28
 70
     1
102
RTVSPost2010Prop29
280
     1
102
RTVSPost2010PropOp29
 70
     1
102
RTVSPost2010Prop30
280
     1
102
RTVSPost2010PropOp30
 70
     1
102
RTVSPost2010Prop31
280
     0
102
RTVSPost2010PropOp31
 70
     1
102
RTVSPost2010Prop32
280
     0
102
RTVSPost2010PropOp32
 70
     1
102
RTVSPost2010Prop33
280
     0
102
RTVSPost2010PropOp33
 70
     1
102
RTVSPost2010Prop34
280
     0
102
RTVSPost2010PropOp34
 70
     1
102
RTVSPost2010Prop35
280
     0
102
RTVSPost2010PropOp35
 70
     1
102
RTVSPost2010Prop36
280
     0
102
RTVSPost2010PropOp36
 70
     1
102
RTVSPost2010Prop37
 90
       50
102
RTVSPost2010PropOp37
 70
     1
102
RTVSPost2010Prop38
140
0.0
102
RTVSPost2010PropOp38
 70
     1
102
RTVSPost2010Prop39
140
1.0
102
RTVSPost2010PropOp39
 70
     1
102
RTVSPost2010Prop40
 90
        0
102
RTVSPost2010PropOp40
 70
     1
102
RTVSPost2010Prop41ColorIndex
 90
       18
102
RTVSPost2010Prop41ColorRGB
 90
        0
102
RTVSPost2010PropOp41
 70
     1
102
RTVSPost2010Prop42
 90
       50
102
RTVSPost2010PropOp42
 70
     1
102
RTVSPost2010Prop43
 90
        3
102
RTVSPost2010PropOp43
 70
     1
102
RTVSPost2010Prop44ColorIndex
 90
        5
102
RTVSPost2010Prop44ColorRGB
 90
      255
102
RTVSPost2010PropOp44
 70
     1
102
RTVSPost2010Prop45
280
     0
102
RTVSPost2010PropOp45
 70
     1
102
RTVSPost2010Prop46
 90
       50
102
RTVSPost2010PropOp46
 70
     1
102
RTVSPost2010Prop47
 90
       50
102
RTVSPost2010PropOp47
 70
     1
102
RTVSPost2010Prop48
 90
       50
102
RTVSPost2010PropOp48
 70
     1
102
RTVSPost2010Prop49
280
     0
102
RTVSPost2010PropOp49
 70
     1
102
RTVSPost2010Prop50
 90
       50
102
RTVSPost2010PropOp50
 70
     1
102
RTVSPost2010Prop51ColorIndex
 90
      256
102
RTVSPost2010Prop51ColorRGB
 90
-16777216
102
RTVSPost2010PropOp51
 70
     0
102
RTVSPost2010Prop52
140
1.0
102
RTVSPost2010PropOp52
 70
     0
102
RTVSPost2010Prop53
 90
        2
102
RTVSPost2010PropOp53
 70
     1
102
RTVSPost2010Prop54
  1
strokes_ogs.tif
102
RTVSPost2010PropOp54
 70
     1
102
RTVSPost2010Prop55
280
     0
102
RTVSPost2010PropOp55
 70
     1
102
RTVSPost2010Prop56
140
1.0
102
RTVSPost2010PropOp56
 70
     1
102
RTVSPost2010Prop57
140
1.0
102
RTVSPost2010PropOp57
 70
     1
  0
XRECORD
  5
C99
102
{ACAD_REACTORS
330
C98
102
}
330
C98
100
AcDbXrecord
280
     1
102
RTVSPropertyOp0
 70
     1
102
RTVSPropertyOp1
 70
     1
102
RTVSPropertyOp2
 70
     1
102
RTVSPropertyOp3
 70
     1
102
RTVSPropertyOp4
 70
     1
102
RTVSPropertyOp5
 70
     1
102
RTVSPropertyOp6
 70
     1
102
RTVSPropertyOp7
 70
     1
102
RTVSPropertyOp8
 70
     1
102
RTVSPropertyOp9
 70
     1
102
RTVSPropertyOp10
 70
     1
102
RTVSPropertyOp11
 70
     1
102
RTVSPropertyOp12
 70
     1
102
RTVSPropertyOp13
 70
     1
102
RTVSPropertyOp14
 70
     1
102
RTVSPropertyOp15
 70
     1
102
RTVSPropertyOp16
 70
     1
102
RTVSPropertyOp17
 70
     1
102
RTVSPropertyOp18
 70
     1
102
RTVSPropertyOp19
 70
     1
102
RTVSPropertyOp20
 70
     1
102
RTVSPropertyOp21
 70
     1
102
RTVSPropertyOp22
 70
     1
102
RTVSPropertyOp23
 70
     1
102
RTVSPropertyOp24
 70
     1
102
RTVSPropertyOp25
 70
     1
102
RTVSPropertyOp26
 70
     1
102
RTVSPropertyOp27
 70
     1
102
RTVSPropertyOp28
 70
     1
102
RTVSPropertyOp29
 70
     1
102
RTVSPropertyOp30
 70
     1
102
RTVSPropertyOp31
 70
     1
102
RTVSPropertyOp32
 70
     1
102
RTVSPropertyOp33
 70
     1
102
RTVSPropertyOp34
 70
     1
102
RTVSPropertyOp35
 70
     1
102
RTVSPropertyOp36
 70
     1
102
RTVSPropertyOp37
 70
     1
102
RTVSPropertyOp38
 70
     1
102
RTVSPropertyOp39
 70
     1
102
RTVSPropertyOp40
 70
     1
102
RTVSPropertyOp41
 70
     1
102
RTVSPropertyOp42
 70
     1
102
RTVSPropertyOp43
 70
     1
102
RTVSPropertyOp44
 70
     1
102
RTVSPropertyOp45
 70
     1
102
RTVSPropertyOp46
 70
     1
102
RTVSPropertyOp47
 70
     1
102
RTVSPropertyOp48
 70
     1
102
RTVSPropertyOp49
 70
     1
102
RTVSPropertyOp50
 70
     1
102
RTVSPropertyOp51
 70
     0
102
RTVSPropertyOp52
 70
     0
102
RTVSPropertyOp53
 70
     1
102
RTVSPropertyOp54
 70
     1
102
RTVSPropertyOp55
 70
     1
102
RTVSPropertyOp56
 70
     1
102
RTVSPropertyOp57
 70
     1
102
RTVSPost2010Prop28
280
     0
102
RTVSPost2010PropOp28
 70
     1
102
RTVSPost2010Prop29
280
     1
102
RTVSPost2010PropOp29
 70
     1
102
RTVSPost2010Prop30
280
     1
102
RTVSPost2010PropOp30
 70
     1
102
RTVSPost2010Prop31
280
     0
102
RTVSPost2010PropOp31
 70
     1
102
RTVSPost2010Prop32
280
     0
102
RTVSPost2010PropOp32
 70
     1
102
RTVSPost2010Prop33
280
     0
102
RTVSPost2010PropOp33
 70
     1
102
RTVSPost2010Prop34
280
     0
102
RTVSPost2010PropOp34
 70
     1
102
RTVSPost2010Prop35
280
     0
102
RTVSPost2010PropOp35
 70
     1
102
RTVSPost2010Prop36
280
     0
102
RTVSPost2010PropOp36
 70
     1
102
RTVSPost2010Prop37
 90
       50
102
RTVSPost2010PropOp37
 70
     1
102
RTVSPost2010Prop38
140
0.0
102
RTVSPost2010PropOp38
 70
     1
102
RTVSPost2010Prop39
140
1.0
102
RTVSPost2010PropOp39
 70
     1
102
RTVSPost2010Prop40
 90
        0
102
RTVSPost2010PropOp40
 70
     1
102
RTVSPost2010Prop41ColorIndex
 90
       18
102
RTVSPost2010Prop41ColorRGB
 90
        0
102
RTVSPost2010PropOp41
 70
     1
102
RTVSPost2010Prop42
 90
       50
102
RTVSPost2010PropOp42
 70
     1
102
RTVSPost2010Prop43
 90
        3
102
RTVSPost2010PropOp43
 70
     1
102
RTVSPost2010Prop44ColorIndex
 90
        5
102
RTVSPost2010Prop44ColorRGB
 90
      255
102
RTVSPost2010PropOp44
 70
     1
102
RTVSPost2010Prop45
280
     0
102
RTVSPost2010PropOp45
 70
     1
102
RTVSPost2010Prop46
 90
       50
102
RTVSPost2010PropOp46
 70
     1
102
RTVSPost2010Prop47
 90
       50
102
RTVSPost2010PropOp47
 70
     1
102
RTVSPost2010Prop48
 90
       50
102
RTVSPost2010PropOp48
 70
     1
102
RTVSPost2010Prop49
280
     0
102
RTVSPost2010PropOp49
 70
     1
102
RTVSPost2010Prop50
 90
       50
102
RTVSPost2010PropOp50
 70
     1
102
RTVSPost2010Prop51ColorIndex
 90
      256
102
RTVSPost2010Prop51ColorRGB
 90
-16777216
102
RTVSPost2010PropOp51
 70
     0
102
RTVSPost2010Prop52
140
1.0
102
RTVSPost2010PropOp52
 70
     0
102
RTVSPost2010Prop53
 90
        2
102
RTVSPost2010PropOp53
 70
     1
102
RTVSPost2010Prop54
  1
strokes_ogs.tif
102
RTVSPost2010PropOp54
 70
     1
102
RTVSPost2010Prop55
280
     0
102
RTVSPost2010PropOp55
 70
     1
102
RTVSPost2010Prop56
140
1.0
102
RTVSPost2010PropOp56
 70
     1
102
RTVSPost2010Prop57
140
1.0
102
RTVSPost2010PropOp57
 70
     1
  0
XRECORD
  5
C9B
102
{ACAD_REACTORS
330
C9A
102
}
330
C9A
100
AcDbXrecord
280
     1
102
RTVSPropertyOp0
 70
     1
102
RTVSPropertyOp1
 70
     1
102
RTVSPropertyOp2
 70
     1
102
RTVSPropertyOp3
 70
     1
102
RTVSPropertyOp4
 70
     1
102
RTVSPropertyOp5
 70
     1
102
RTVSPropertyOp6
 70
     1
102
RTVSPropertyOp7
 70
     1
102
RTVSPropertyOp8
 70
     1
102
RTVSPropertyOp9
 70
     1
102
RTVSPropertyOp10
 70
     1
102
RTVSPropertyOp11
 70
     1
102
RTVSPropertyOp12
 70
     1
102
RTVSPropertyOp13
 70
     1
102
RTVSPropertyOp14
 70
     1
102
RTVSPropertyOp15
 70
     1
102
RTVSPropertyOp16
 70
     1
102
RTVSPropertyOp17
 70
     1
102
RTVSPropertyOp18
 70
     1
102
RTVSPropertyOp19
 70
     1
102
RTVSPropertyOp20
 70
     1
102
RTVSPropertyOp21
 70
     1
102
RTVSPropertyOp22
 70
     1
102
RTVSPropertyOp23
 70
     1
102
RTVSPropertyOp24
 70
     1
102
RTVSPropertyOp25
 70
     1
102
RTVSPropertyOp26
 70
     1
102
RTVSPropertyOp27
 70
     1
102
RTVSPropertyOp28
 70
     1
102
RTVSPropertyOp29
 70
     1
102
RTVSPropertyOp30
 70
     1
102
RTVSPropertyOp31
 70
     1
102
RTVSPropertyOp32
 70
     1
102
RTVSPropertyOp33
 70
     1
102
RTVSPropertyOp34
 70
     1
102
RTVSPropertyOp35
 70
     1
102
RTVSPropertyOp36
 70
     1
102
RTVSPropertyOp37
 70
     1
102
RTVSPropertyOp38
 70
     1
102
RTVSPropertyOp39
 70
     1
102
RTVSPropertyOp40
 70
     1
102
RTVSPropertyOp41
 70
     1
102
RTVSPropertyOp42
 70
     1
102
RTVSPropertyOp43
 70
     1
102
RTVSPropertyOp44
 70
     1
102
RTVSPropertyOp45
 70
     1
102
RTVSPropertyOp46
 70
     1
102
RTVSPropertyOp47
 70
     1
102
RTVSPropertyOp48
 70
     1
102
RTVSPropertyOp49
 70
     1
102
RTVSPropertyOp50
 70
     1
102
RTVSPropertyOp51
 70
     0
102
RTVSPropertyOp52
 70
     0
102
RTVSPropertyOp53
 70
     1
102
RTVSPropertyOp54
 70
     1
102
RTVSPropertyOp55
 70
     1
102
RTVSPropertyOp56
 70
     1
102
RTVSPropertyOp57
 70
     1
102
RTVSPost2010Prop28
280
     0
102
RTVSPost2010PropOp28
 70
     1
102
RTVSPost2010Prop29
280
     1
102
RTVSPost2010PropOp29
 70
     1
102
RTVSPost2010Prop30
280
     1
102
RTVSPost2010PropOp30
 70
     1
102
RTVSPost2010Prop31
280
     0
102
RTVSPost2010PropOp31
 70
     1
102
RTVSPost2010Prop32
280
     0
102
RTVSPost2010PropOp32
 70
     1
102
RTVSPost2010Prop33
280
     0
102
RTVSPost2010PropOp33
 70
     1
102
RTVSPost2010Prop34
280
     0
102
RTVSPost2010PropOp34
 70
     1
102
RTVSPost2010Prop35
280
     0
102
RTVSPost2010PropOp35
 70
     1
102
RTVSPost2010Prop36
280
     0
102
RTVSPost2010PropOp36
 70
     1
102
RTVSPost2010Prop37
 90
       50
102
RTVSPost2010PropOp37
 70
     1
102
RTVSPost2010Prop38
140
0.0
102
RTVSPost2010PropOp38
 70
     1
102
RTVSPost2010Prop39
140
1.0
102
RTVSPost2010PropOp39
 70
     1
102
RTVSPost2010Prop40
 90
        0
102
RTVSPost2010PropOp40
 70
     1
102
RTVSPost2010Prop41ColorIndex
 90
       18
102
RTVSPost2010Prop41ColorRGB
 90
        0
102
RTVSPost2010PropOp41
 70
     1
102
RTVSPost2010Prop42
 90
       50
102
RTVSPost2010PropOp42
 70
     1
102
RTVSPost2010Prop43
 90
        3
102
RTVSPost2010PropOp43
 70
     1
102
RTVSPost2010Prop44ColorIndex
 90
        5
102
RTVSPost2010Prop44ColorRGB
 90
      255
102
RTVSPost2010PropOp44
 70
     1
102
RTVSPost2010Prop45
280
     0
102
RTVSPost2010PropOp45
 70
     1
102
RTVSPost2010Prop46
 90
       50
102
RTVSPost2010PropOp46
 70
     1
102
RTVSPost2010Prop47
 90
       50
102
RTVSPost2010PropOp47
 70
     1
102
RTVSPost2010Prop48
 90
       50
102
RTVSPost2010PropOp48
 70
     1
102
RTVSPost2010Prop49
280
     0
102
RTVSPost2010PropOp49
 70
     1
102
RTVSPost2010Prop50
 90
       50
102
RTVSPost2010PropOp50
 70
     1
102
RTVSPost2010Prop51ColorIndex
 90
      256
102
RTVSPost2010Prop51ColorRGB
 90
-16777216
102
RTVSPost2010PropOp51
 70
     0
102
RTVSPost2010Prop52
140
1.0
102
RTVSPost2010PropOp52
 70
     0
102
RTVSPost2010Prop53
 90
        2
102
RTVSPost2010PropOp53
 70
     1
102
RTVSPost2010Prop54
  1
strokes_ogs.tif
102
RTVSPost2010PropOp54
 70
     1
102
RTVSPost2010Prop55
280
     0
102
RTVSPost2010PropOp55
 70
     1
102
RTVSPost2010Prop56
140
1.0
102
RTVSPost2010PropOp56
 70
     1
102
RTVSPost2010Prop57
140
1.0
102
RTVSPost2010PropOp57
 70
     1
  0
XRECORD
  5
C9D
102
{ACAD_REACTORS
330
C9C
102
}
330
C9C
100
AcDbXrecord
280
     1
102
RTVSPropertyOp0
 70
     1
102
RTVSPropertyOp1
 70
     1
102
RTVSPropertyOp2
 70
     1
102
RTVSPropertyOp3
 70
     1
102
RTVSPropertyOp4
 70
     1
102
RTVSPropertyOp5
 70
     1
102
RTVSPropertyOp6
 70
     1
102
RTVSPropertyOp7
 70
     1
102
RTVSPropertyOp8
 70
     1
102
RTVSPropertyOp9
 70
     1
102
RTVSPropertyOp10
 70
     1
102
RTVSPropertyOp11
 70
     1
102
RTVSPropertyOp12
 70
     1
102
RTVSPropertyOp13
 70
     1
102
RTVSPropertyOp14
 70
     1
102
RTVSPropertyOp15
 70
     1
102
RTVSPropertyOp16
 70
     1
102
RTVSPropertyOp17
 70
     1
102
RTVSPropertyOp18
 70
     1
102
RTVSPropertyOp19
 70
     1
102
RTVSPropertyOp20
 70
     1
102
RTVSPropertyOp21
 70
     1
102
RTVSPropertyOp22
 70
     1
102
RTVSPropertyOp23
 70
     1
102
RTVSPropertyOp24
 70
     1
102
RTVSPropertyOp25
 70
     1
102
RTVSPropertyOp26
 70
     1
102
RTVSPropertyOp27
 70
     1
102
RTVSPropertyOp28
 70
     1
102
RTVSPropertyOp29
 70
     1
102
RTVSPropertyOp30
 70
     1
102
RTVSPropertyOp31
 70
     1
102
RTVSPropertyOp32
 70
     1
102
RTVSPropertyOp33
 70
     1
102
RTVSPropertyOp34
 70
     1
102
RTVSPropertyOp35
 70
     1
102
RTVSPropertyOp36
 70
     1
102
RTVSPropertyOp37
 70
     1
102
RTVSPropertyOp38
 70
     1
102
RTVSPropertyOp39
 70
     1
102
RTVSPropertyOp40
 70
     1
102
RTVSPropertyOp41
 70
     1
102
RTVSPropertyOp42
 70
     1
102
RTVSPropertyOp43
 70
     1
102
RTVSPropertyOp44
 70
     1
102
RTVSPropertyOp45
 70
     1
102
RTVSPropertyOp46
 70
     1
102
RTVSPropertyOp47
 70
     1
102
RTVSPropertyOp48
 70
     1
102
RTVSPropertyOp49
 70
     1
102
RTVSPropertyOp50
 70
     1
102
RTVSPropertyOp51
 70
     0
102
RTVSPropertyOp52
 70
     0
102
RTVSPropertyOp53
 70
     1
102
RTVSPropertyOp54
 70
     1
102
RTVSPropertyOp55
 70
     1
102
RTVSPropertyOp56
 70
     1
102
RTVSPropertyOp57
 70
     1
102
RTVSPost2010Prop28
280
     0
102
RTVSPost2010PropOp28
 70
     1
102
RTVSPost2010Prop29
280
     1
102
RTVSPost2010PropOp29
 70
     1
102
RTVSPost2010Prop30
280
     1
102
RTVSPost2010PropOp30
 70
     1
102
RTVSPost2010Prop31
280
     0
102
RTVSPost2010PropOp31
 70
     1
102
RTVSPost2010Prop32
280
     0
102
RTVSPost2010PropOp32
 70
     1
102
RTVSPost2010Prop33
280
     0
102
RTVSPost2010PropOp33
 70
     1
102
RTVSPost2010Prop34
280
     0
102
RTVSPost2010PropOp34
 70
     1
102
RTVSPost2010Prop35
280
     0
102
RTVSPost2010PropOp35
 70
     1
102
RTVSPost2010Prop36
280
     0
102
RTVSPost2010PropOp36
 70
     1
102
RTVSPost2010Prop37
 90
       50
102
RTVSPost2010PropOp37
 70
     1
102
RTVSPost2010Prop38
140
0.0
102
RTVSPost2010PropOp38
 70
     1
102
RTVSPost2010Prop39
140
1.0
102
RTVSPost2010PropOp39
 70
     1
102
RTVSPost2010Prop40
 90
        0
102
RTVSPost2010PropOp40
 70
     1
102
RTVSPost2010Prop41ColorIndex
 90
       18
102
RTVSPost2010Prop41ColorRGB
 90
        0
102
RTVSPost2010PropOp41
 70
     1
102
RTVSPost2010Prop42
 90
       50
102
RTVSPost2010PropOp42
 70
     1
102
RTVSPost2010Prop43
 90
        3
102
RTVSPost2010PropOp43
 70
     1
102
RTVSPost2010Prop44ColorIndex
 90
        5
102
RTVSPost2010Prop44ColorRGB
 90
      255
102
RTVSPost2010PropOp44
 70
     1
102
RTVSPost2010Prop45
280
     0
102
RTVSPost2010PropOp45
 70
     1
102
RTVSPost2010Prop46
 90
       50
102
RTVSPost2010PropOp46
 70
     1
102
RTVSPost2010Prop47
 90
       50
102
RTVSPost2010PropOp47
 70
     1
102
RTVSPost2010Prop48
 90
       50
102
RTVSPost2010PropOp48
 70
     1
102
RTVSPost2010Prop49
280
     0
102
RTVSPost2010PropOp49
 70
     1
102
RTVSPost2010Prop50
 90
       50
102
RTVSPost2010PropOp50
 70
     1
102
RTVSPost2010Prop51ColorIndex
 90
      256
102
RTVSPost2010Prop51ColorRGB
 90
-16777216
102
RTVSPost2010PropOp51
 70
     0
102
RTVSPost2010Prop52
140
1.0
102
RTVSPost2010PropOp52
 70
     0
102
RTVSPost2010Prop53
 90
        2
102
RTVSPost2010PropOp53
 70
     1
102
RTVSPost2010Prop54
  1
strokes_ogs.tif
102
RTVSPost2010PropOp54
 70
     1
102
RTVSPost2010Prop55
280
     0
102
RTVSPost2010PropOp55
 70
     1
102
RTVSPost2010Prop56
140
1.0
102
RTVSPost2010PropOp56
 70
     1
102
RTVSPost2010Prop57
140
1.0
102
RTVSPost2010PropOp57
 70
     1
  0
XRECORD
  5
C9F
102
{ACAD_REACTORS
330
C9E
102
}
330
C9E
100
AcDbXrecord
280
     1
102
RTVSPropertyOp0
 70
     0
102
RTVSPropertyOp1
 70
     0
102
RTVSPropertyOp2
 70
     0
102
RTVSPropertyOp3
 70
     0
102
RTVSPropertyOp4
 70
     0
102
RTVSPropertyOp5
 70
     0
102
RTVSPropertyOp6
 70
     0
102
RTVSPropertyOp7
 70
     0
102
RTVSPropertyOp8
 70
     0
102
RTVSPropertyOp9
 70
     0
102
RTVSPropertyOp10
 70
     0
102
RTVSPropertyOp11
 70
     0
102
RTVSPropertyOp12
 70
     0
102
RTVSPropertyOp13
 70
     0
102
RTVSPropertyOp14
 70
     2
102
RTVSPropertyOp15
 70
     0
102
RTVSPropertyOp16
 70
     0
102
RTVSPropertyOp17
 70
     0
102
RTVSPropertyOp18
 70
     0
102
RTVSPropertyOp19
 70
     0
102
RTVSPropertyOp20
 70
     0
102
RTVSPropertyOp21
 70
     0
102
RTVSPropertyOp22
 70
     0
102
RTVSPropertyOp23
 70
     0
102
RTVSPropertyOp24
 70
     0
102
RTVSPropertyOp25
 70
     0
102
RTVSPropertyOp26
 70
     0
102
RTVSPropertyOp27
 70
     0
102
RTVSPropertyOp28
 70
     0
102
RTVSPropertyOp29
 70
     0
102
RTVSPropertyOp30
 70
     0
102
RTVSPropertyOp31
 70
     0
102
RTVSPropertyOp32
 70
     0
102
RTVSPropertyOp33
 70
     1
102
RTVSPropertyOp34
 70
     1
102
RTVSPropertyOp35
 70
     1
102
RTVSPropertyOp36
 70
     1
102
RTVSPropertyOp37
 70
     1
102
RTVSPropertyOp38
 70
     1
102
RTVSPropertyOp39
 70
     1
102
RTVSPropertyOp40
 70
     1
102
RTVSPropertyOp41
 70
     1
102
RTVSPropertyOp42
 70
     1
102
RTVSPropertyOp43
 70
     1
102
RTVSPropertyOp44
 70
     1
102
RTVSPropertyOp45
 70
     1
102
RTVSPropertyOp46
 70
     1
102
RTVSPropertyOp47
 70
     1
102
RTVSPropertyOp48
 70
     1
102
RTVSPropertyOp49
 70
     1
102
RTVSPropertyOp50
 70
     1
102
RTVSPropertyOp51
 70
     0
102
RTVSPropertyOp52
 70
     0
102
RTVSPropertyOp53
 70
     1
102
RTVSPropertyOp54
 70
     1
102
RTVSPropertyOp55
 70
     1
102
RTVSPropertyOp56
 70
     1
102
RTVSPropertyOp57
 70
     1
102
RTVSPost2010Prop28
280
     0
102
RTVSPost2010PropOp28
 70
     0
102
RTVSPost2010Prop29
280
     1
102
RTVSPost2010PropOp29
 70
     0
102
RTVSPost2010Prop30
280
     1
102
RTVSPost2010PropOp30
 70
     0
102
RTVSPost2010Prop31
280
     0
102
RTVSPost2010PropOp31
 70
     0
102
RTVSPost2010Prop32
280
     0
102
RTVSPost2010PropOp32
 70
     0
102
RTVSPost2010Prop33
280
     0
102
RTVSPost2010PropOp33
 70
     1
102
RTVSPost2010Prop34
280
     0
102
RTVSPost2010PropOp34
 70
     1
102
RTVSPost2010Prop35
280
     0
102
RTVSPost2010PropOp35
 70
     1
102
RTVSPost2010Prop36
280
     0
102
RTVSPost2010PropOp36
 70
     1
102
RTVSPost2010Prop37
 90
       50
102
RTVSPost2010PropOp37
 70
     1
102
RTVSPost2010Prop38
140
0.0
102
RTVSPost2010PropOp38
 70
     1
102
RTVSPost2010Prop39
140
1.0
102
RTVSPost2010PropOp39
 70
     1
102
RTVSPost2010Prop40
 90
        0
102
RTVSPost2010PropOp40
 70
     1
102
RTVSPost2010Prop41ColorIndex
 90
       18
102
RTVSPost2010Prop41ColorRGB
 90
        0
102
RTVSPost2010PropOp41
 70
     1
102
RTVSPost2010Prop42
 90
       50
102
RTVSPost2010PropOp42
 70
     1
102
RTVSPost2010Prop43
 90
        3
102
RTVSPost2010PropOp43
 70
     1
102
RTVSPost2010Prop44ColorIndex
 90
        5
102
RTVSPost2010Prop44ColorRGB
 90
      255
102
RTVSPost2010PropOp44
 70
     1
102
RTVSPost2010Prop45
280
     0
102
RTVSPost2010PropOp45
 70
     1
102
RTVSPost2010Prop46
 90
       50
102
RTVSPost2010PropOp46
 70
     1
102
RTVSPost2010Prop47
 90
       50
102
RTVSPost2010PropOp47
 70
     1
102
RTVSPost2010Prop48
 90
       50
102
RTVSPost2010PropOp48
 70
     1
102
RTVSPost2010Prop49
280
     0
102
RTVSPost2010PropOp49
 70
     1
102
RTVSPost2010Prop50
 90
       50
102
RTVSPost2010PropOp50
 70
     1
102
RTVSPost2010Prop51ColorIndex
 90
      256
102
RTVSPost2010Prop51ColorRGB
 90
-16777216
102
RTVSPost2010PropOp51
 70
     0
102
RTVSPost2010Prop52
140
1.0
102
RTVSPost2010PropOp52
 70
     0
102
RTVSPost2010Prop53
 90
        2
102
RTVSPost2010PropOp53
 70
     1
102
RTVSPost2010Prop54
  1
strokes_ogs.tif
102
RTVSPost2010PropOp54
 70
     1
102
RTVSPost2010Prop55
280
     0
102
RTVSPost2010PropOp55
 70
     1
102
RTVSPost2010Prop56
140
1.0
102
RTVSPost2010PropOp56
 70
     1
102
RTVSPost2010Prop57
140
1.0
102
RTVSPost2010PropOp57
 70
     1
  0
XRECORD
  5
CA1
102
{ACAD_REACTORS
330
CA0
102
}
330
CA0
100
AcDbXrecord
280
     1
102
RTVSPropertyOp0
 70
     1
102
RTVSPropertyOp1
 70
     1
102
RTVSPropertyOp2
 70
     1
102
RTVSPropertyOp3
 70
     1
102
RTVSPropertyOp4
 70
     1
102
RTVSPropertyOp5
 70
     1
102
RTVSPropertyOp6
 70
     1
102
RTVSPropertyOp7
 70
     1
102
RTVSPropertyOp8
 70
     1
102
RTVSPropertyOp9
 70
     1
102
RTVSPropertyOp10
 70
     1
102
RTVSPropertyOp11
 70
     1
102
RTVSPropertyOp12
 70
     1
102
RTVSPropertyOp13
 70
     1
102
RTVSPropertyOp14
 70
     1
102
RTVSPropertyOp15
 70
     1
102
RTVSPropertyOp16
 70
     1
102
RTVSPropertyOp17
 70
     1
102
RTVSPropertyOp18
 70
     1
102
RTVSPropertyOp19
 70
     1
102
RTVSPropertyOp20
 70
     1
102
RTVSPropertyOp21
 70
     1
102
RTVSPropertyOp22
 70
     1
102
RTVSPropertyOp23
 70
     1
102
RTVSPropertyOp24
 70
     1
102
RTVSPropertyOp25
 70
     1
102
RTVSPropertyOp26
 70
     1
102
RTVSPropertyOp27
 70
     1
102
RTVSPropertyOp28
 70
     1
102
RTVSPropertyOp29
 70
     1
102
RTVSPropertyOp30
 70
     1
102
RTVSPropertyOp31
 70
     1
102
RTVSPropertyOp32
 70
     1
102
RTVSPropertyOp33
 70
     1
102
RTVSPropertyOp34
 70
     1
102
RTVSPropertyOp35
 70
     1
102
RTVSPropertyOp36
 70
     1
102
RTVSPropertyOp37
 70
     1
102
RTVSPropertyOp38
 70
     1
102
RTVSPropertyOp39
 70
     1
102
RTVSPropertyOp40
 70
     1
102
RTVSPropertyOp41
 70
     1
102
RTVSPropertyOp42
 70
     1
102
RTVSPropertyOp43
 70
     1
102
RTVSPropertyOp44
 70
     1
102
RTVSPropertyOp45
 70
     1
102
RTVSPropertyOp46
 70
     1
102
RTVSPropertyOp47
 70
     1
102
RTVSPropertyOp48
 70
     1
102
RTVSPropertyOp49
 70
     1
102
RTVSPropertyOp50
 70
     1
102
RTVSPropertyOp51
 70
     0
102
RTVSPropertyOp52
 70
     0
102
RTVSPropertyOp53
 70
     1
102
RTVSPropertyOp54
 70
     1
102
RTVSPropertyOp55
 70
     1
102
RTVSPropertyOp56
 70
     1
102
RTVSPropertyOp57
 70
     1
102
RTVSPost2010Prop28
280
     0
102
RTVSPost2010PropOp28
 70
     1
102
RTVSPost2010Prop29
280
     1
102
RTVSPost2010PropOp29
 70
     1
102
RTVSPost2010Prop30
280
     1
102
RTVSPost2010PropOp30
 70
     1
102
RTVSPost2010Prop31
280
     0
102
RTVSPost2010PropOp31
 70
     1
102
RTVSPost2010Prop32
280
     0
102
RTVSPost2010PropOp32
 70
     1
102
RTVSPost2010Prop33
280
     0
102
RTVSPost2010PropOp33
 70
     1
102
RTVSPost2010Prop34
280
     0
102
RTVSPost2010PropOp34
 70
     1
102
RTVSPost2010Prop35
280
     0
102
RTVSPost2010PropOp35
 70
     1
102
RTVSPost2010Prop36
280
     0
102
RTVSPost2010PropOp36
 70
     1
102
RTVSPost2010Prop37
 90
       50
102
RTVSPost2010PropOp37
 70
     1
102
RTVSPost2010Prop38
140
0.0
102
RTVSPost2010PropOp38
 70
     1
102
RTVSPost2010Prop39
140
1.0
102
RTVSPost2010PropOp39
 70
     1
102
RTVSPost2010Prop40
 90
        0
102
RTVSPost2010PropOp40
 70
     1
102
RTVSPost2010Prop41ColorIndex
 90
       18
102
RTVSPost2010Prop41ColorRGB
 90
        0
102
RTVSPost2010PropOp41
 70
     1
102
RTVSPost2010Prop42
 90
       50
102
RTVSPost2010PropOp42
 70
     1
102
RTVSPost2010Prop43
 90
        3
102
RTVSPost2010PropOp43
 70
     1
102
RTVSPost2010Prop44ColorIndex
 90
        5
102
RTVSPost2010Prop44ColorRGB
 90
      255
102
RTVSPost2010PropOp44
 70
     1
102
RTVSPost2010Prop45
280
     0
102
RTVSPost2010PropOp45
 70
     1
102
RTVSPost2010Prop46
 90
       50
102
RTVSPost2010PropOp46
 70
     1
102
RTVSPost2010Prop47
 90
       50
102
RTVSPost2010PropOp47
 70
     1
102
RTVSPost2010Prop48
 90
       50
102
RTVSPost2010PropOp48
 70
     1
102
RTVSPost2010Prop49
280
     0
102
RTVSPost2010PropOp49
 70
     1
102
RTVSPost2010Prop50
 90
       50
102
RTVSPost2010PropOp50
 70
     1
102
RTVSPost2010Prop51ColorIndex
 90
      256
102
RTVSPost2010Prop51ColorRGB
 90
-16777216
102
RTVSPost2010PropOp51
 70
     0
102
RTVSPost2010Prop52
140
1.0
102
RTVSPost2010PropOp52
 70
     0
102
RTVSPost2010Prop53
 90
        2
102
RTVSPost2010PropOp53
 70
     1
102
RTVSPost2010Prop54
  1
strokes_ogs.tif
102
RTVSPost2010PropOp54
 70
     1
102
RTVSPost2010Prop55
280
     0
102
RTVSPost2010PropOp55
 70
     1
102
RTVSPost2010Prop56
140
1.0
102
RTVSPost2010PropOp56
 70
     1
102
RTVSPost2010Prop57
140
1.0
102
RTVSPost2010PropOp57
 70
     1
  0
XRECORD
  5
CA3
102
{ACAD_REACTORS
330
CA2
102
}
330
CA2
100
AcDbXrecord
280
     1
102
RTVSPropertyOp0
 70
     1
102
RTVSPropertyOp1
 70
     1
102
RTVSPropertyOp2
 70
     1
102
RTVSPropertyOp3
 70
     1
102
RTVSPropertyOp4
 70
     1
102
RTVSPropertyOp5
 70
     1
102
RTVSPropertyOp6
 70
     1
102
RTVSPropertyOp7
 70
     1
102
RTVSPropertyOp8
 70
     1
102
RTVSPropertyOp9
 70
     1
102
RTVSPropertyOp10
 70
     1
102
RTVSPropertyOp11
 70
     1
102
RTVSPropertyOp12
 70
     1
102
RTVSPropertyOp13
 70
     1
102
RTVSPropertyOp14
 70
     1
102
RTVSPropertyOp15
 70
     1
102
RTVSPropertyOp16
 70
     1
102
RTVSPropertyOp17
 70
     1
102
RTVSPropertyOp18
 70
     1
102
RTVSPropertyOp19
 70
     1
102
RTVSPropertyOp20
 70
     1
102
RTVSPropertyOp21
 70
     1
102
RTVSPropertyOp22
 70
     1
102
RTVSPropertyOp23
 70
     1
102
RTVSPropertyOp24
 70
     1
102
RTVSPropertyOp25
 70
     1
102
RTVSPropertyOp26
 70
     1
102
RTVSPropertyOp27
 70
     1
102
RTVSPropertyOp28
 70
     1
102
RTVSPropertyOp29
 70
     1
102
RTVSPropertyOp30
 70
     1
102
RTVSPropertyOp31
 70
     1
102
RTVSPropertyOp32
 70
     1
102
RTVSPropertyOp33
 70
     1
102
RTVSPropertyOp34
 70
     1
102
RTVSPropertyOp35
 70
     1
102
RTVSPropertyOp36
 70
     1
102
RTVSPropertyOp37
 70
     1
102
RTVSPropertyOp38
 70
     1
102
RTVSPropertyOp39
 70
     1
102
RTVSPropertyOp40
 70
     1
102
RTVSPropertyOp41
 70
     1
102
RTVSPropertyOp42
 70
     1
102
RTVSPropertyOp43
 70
     1
102
RTVSPropertyOp44
 70
     1
102
RTVSPropertyOp45
 70
     1
102
RTVSPropertyOp46
 70
     1
102
RTVSPropertyOp47
 70
     1
102
RTVSPropertyOp48
 70
     1
102
RTVSPropertyOp49
 70
     1
102
RTVSPropertyOp50
 70
     1
102
RTVSPropertyOp51
 70
     0
102
RTVSPropertyOp52
 70
     0
102
RTVSPropertyOp53
 70
     1
102
RTVSPropertyOp54
 70
     1
102
RTVSPropertyOp55
 70
     1
102
RTVSPropertyOp56
 70
     1
102
RTVSPropertyOp57
 70
     1
102
RTVSPost2010Prop28
280
     0
102
RTVSPost2010PropOp28
 70
     1
102
RTVSPost2010Prop29
280
     1
102
RTVSPost2010PropOp29
 70
     1
102
RTVSPost2010Prop30
280
     1
102
RTVSPost2010PropOp30
 70
     1
102
RTVSPost2010Prop31
280
     0
102
RTVSPost2010PropOp31
 70
     1
102
RTVSPost2010Prop32
280
     0
102
RTVSPost2010PropOp32
 70
     1
102
RTVSPost2010Prop33
280
     0
102
RTVSPost2010PropOp33
 70
     1
102
RTVSPost2010Prop34
280
     0
102
RTVSPost2010PropOp34
 70
     1
102
RTVSPost2010Prop35
280
     0
102
RTVSPost2010PropOp35
 70
     1
102
RTVSPost2010Prop36
280
     0
102
RTVSPost2010PropOp36
 70
     1
102
RTVSPost2010Prop37
 90
       50
102
RTVSPost2010PropOp37
 70
     1
102
RTVSPost2010Prop38
140
0.0
102
RTVSPost2010PropOp38
 70
     1
102
RTVSPost2010Prop39
140
1.0
102
RTVSPost2010PropOp39
 70
     1
102
RTVSPost2010Prop40
 90
        0
102
RTVSPost2010PropOp40
 70
     1
102
RTVSPost2010Prop41ColorIndex
 90
       18
102
RTVSPost2010Prop41ColorRGB
 90
        0
102
RTVSPost2010PropOp41
 70
     1
102
RTVSPost2010Prop42
 90
       50
102
RTVSPost2010PropOp42
 70
     1
102
RTVSPost2010Prop43
 90
        3
102
RTVSPost2010PropOp43
 70
     1
102
RTVSPost2010Prop44ColorIndex
 90
        5
102
RTVSPost2010Prop44ColorRGB
 90
      255
102
RTVSPost2010PropOp44
 70
     1
102
RTVSPost2010Prop45
280
     0
102
RTVSPost2010PropOp45
 70
     1
102
RTVSPost2010Prop46
 90
       50
102
RTVSPost2010PropOp46
 70
     1
102
RTVSPost2010Prop47
 90
       50
102
RTVSPost2010PropOp47
 70
     1
102
RTVSPost2010Prop48
 90
       50
102
RTVSPost2010PropOp48
 70
     1
102
RTVSPost2010Prop49
280
     0
102
RTVSPost2010PropOp49
 70
     1
102
RTVSPost2010Prop50
 90
       50
102
RTVSPost2010PropOp50
 70
     1
102
RTVSPost2010Prop51ColorIndex
 90
      256
102
RTVSPost2010Prop51ColorRGB
 90
-16777216
102
RTVSPost2010PropOp51
 70
     0
102
RTVSPost2010Prop52
140
1.0
102
RTVSPost2010PropOp52
 70
     0
102
RTVSPost2010Prop53
 90
        2
102
RTVSPost2010PropOp53
 70
     1
102
RTVSPost2010Prop54
  1
strokes_ogs.tif
102
RTVSPost2010PropOp54
 70
     1
102
RTVSPost2010Prop55
280
     0
102
RTVSPost2010PropOp55
 70
     1
102
RTVSPost2010Prop56
140
1.0
102
RTVSPost2010PropOp56
 70
     1
102
RTVSPost2010Prop57
140
1.0
102
RTVSPost2010PropOp57
 70
     1
  0
XRECORD
  5
CA5
102
{ACAD_REACTORS
330
CA4
102
}
330
CA4
100
AcDbXrecord
280
     1
102
RTVSPropertyOp0
 70
     1
102
RTVSPropertyOp1
 70
     1
102
RTVSPropertyOp2
 70
     1
102
RTVSPropertyOp3
 70
     1
102
RTVSPropertyOp4
 70
     1
102
RTVSPropertyOp5
 70
     1
102
RTVSPropertyOp6
 70
     1
102
RTVSPropertyOp7
 70
     1
102
RTVSPropertyOp8
 70
     1
102
RTVSPropertyOp9
 70
     1
102
RTVSPropertyOp10
 70
     1
102
RTVSPropertyOp11
 70
     1
102
RTVSPropertyOp12
 70
     1
102
RTVSPropertyOp13
 70
     1
102
RTVSPropertyOp14
 70
     1
102
RTVSPropertyOp15
 70
     1
102
RTVSPropertyOp16
 70
     1
102
RTVSPropertyOp17
 70
     1
102
RTVSPropertyOp18
 70
     1
102
RTVSPropertyOp19
 70
     1
102
RTVSPropertyOp20
 70
     1
102
RTVSPropertyOp21
 70
     1
102
RTVSPropertyOp22
 70
     1
102
RTVSPropertyOp23
 70
     1
102
RTVSPropertyOp24
 70
     1
102
RTVSPropertyOp25
 70
     1
102
RTVSPropertyOp26
 70
     1
102
RTVSPropertyOp27
 70
     1
102
RTVSPropertyOp28
 70
     1
102
RTVSPropertyOp29
 70
     1
102
RTVSPropertyOp30
 70
     1
102
RTVSPropertyOp31
 70
     1
102
RTVSPropertyOp32
 70
     1
102
RTVSPropertyOp33
 70
     1
102
RTVSPropertyOp34
 70
     1
102
RTVSPropertyOp35
 70
     1
102
RTVSPropertyOp36
 70
     1
102
RTVSPropertyOp37
 70
     1
102
RTVSPropertyOp38
 70
     1
102
RTVSPropertyOp39
 70
     1
102
RTVSPropertyOp40
 70
     1
102
RTVSPropertyOp41
 70
     1
102
RTVSPropertyOp42
 70
     1
102
RTVSPropertyOp43
 70
     1
102
RTVSPropertyOp44
 70
     1
102
RTVSPropertyOp45
 70
     1
102
RTVSPropertyOp46
 70
     1
102
RTVSPropertyOp47
 70
     1
102
RTVSPropertyOp48
 70
     1
102
RTVSPropertyOp49
 70
     1
102
RTVSPropertyOp50
 70
     1
102
RTVSPropertyOp51
 70
     0
102
RTVSPropertyOp52
 70
     0
102
RTVSPropertyOp53
 70
     1
102
RTVSPropertyOp54
 70
     1
102
RTVSPropertyOp55
 70
     1
102
RTVSPropertyOp56
 70
     1
102
RTVSPropertyOp57
 70
     1
102
RTVSPost2010Prop28
280
     0
102
RTVSPost2010PropOp28
 70
     1
102
RTVSPost2010Prop29
280
     1
102
RTVSPost2010PropOp29
 70
     1
102
RTVSPost2010Prop30
280
     1
102
RTVSPost2010PropOp30
 70
     1
102
RTVSPost2010Prop31
280
     0
102
RTVSPost2010PropOp31
 70
     1
102
RTVSPost2010Prop32
280
     0
102
RTVSPost2010PropOp32
 70
     1
102
RTVSPost2010Prop33
280
     0
102
RTVSPost2010PropOp33
 70
     1
102
RTVSPost2010Prop34
280
     0
102
RTVSPost2010PropOp34
 70
     1
102
RTVSPost2010Prop35
280
     0
102
RTVSPost2010PropOp35
 70
     1
102
RTVSPost2010Prop36
280
     0
102
RTVSPost2010PropOp36
 70
     1
102
RTVSPost2010Prop37
 90
       50
102
RTVSPost2010PropOp37
 70
     1
102
RTVSPost2010Prop38
140
0.0
102
RTVSPost2010PropOp38
 70
     1
102
RTVSPost2010Prop39
140
1.0
102
RTVSPost2010PropOp39
 70
     1
102
RTVSPost2010Prop40
 90
        0
102
RTVSPost2010PropOp40
 70
     1
102
RTVSPost2010Prop41ColorIndex
 90
       18
102
RTVSPost2010Prop41ColorRGB
 90
        0
102
RTVSPost2010PropOp41
 70
     1
102
RTVSPost2010Prop42
 90
       50
102
RTVSPost2010PropOp42
 70
     1
102
RTVSPost2010Prop43
 90
        3
102
RTVSPost2010PropOp43
 70
     1
102
RTVSPost2010Prop44ColorIndex
 90
        5
102
RTVSPost2010Prop44ColorRGB
 90
      255
102
RTVSPost2010PropOp44
 70
     1
102
RTVSPost2010Prop45
280
     0
102
RTVSPost2010PropOp45
 70
     1
102
RTVSPost2010Prop46
 90
       50
102
RTVSPost2010PropOp46
 70
     1
102
RTVSPost2010Prop47
 90
       50
102
RTVSPost2010PropOp47
 70
     1
102
RTVSPost2010Prop48
 90
       50
102
RTVSPost2010PropOp48
 70
     1
102
RTVSPost2010Prop49
280
     0
102
RTVSPost2010PropOp49
 70
     1
102
RTVSPost2010Prop50
 90
       50
102
RTVSPost2010PropOp50
 70
     1
102
RTVSPost2010Prop51ColorIndex
 90
      256
102
RTVSPost2010Prop51ColorRGB
 90
-16777216
102
RTVSPost2010PropOp51
 70
     0
102
RTVSPost2010Prop52
140
1.0
102
RTVSPost2010PropOp52
 70
     0
102
RTVSPost2010Prop53
 90
        2
102
RTVSPost2010PropOp53
 70
     1
102
RTVSPost2010Prop54
  1
strokes_ogs.tif
102
RTVSPost2010PropOp54
 70
     1
102
RTVSPost2010Prop55
280
     0
102
RTVSPost2010PropOp55
 70
     1
102
RTVSPost2010Prop56
140
1.0
102
RTVSPost2010PropOp56
 70
     1
102
RTVSPost2010Prop57
140
1.0
102
RTVSPost2010PropOp57
 70
     1
  0
XRECORD
  5
CA7
102
{ACAD_REACTORS
330
CA6
102
}
330
CA6
100
AcDbXrecord
280
     1
102
RTVSPropertyOp0
 70
     1
102
RTVSPropertyOp1
 70
     1
102
RTVSPropertyOp2
 70
     1
102
RTVSPropertyOp3
 70
     1
102
RTVSPropertyOp4
 70
     1
102
RTVSPropertyOp5
 70
     1
102
RTVSPropertyOp6
 70
     1
102
RTVSPropertyOp7
 70
     1
102
RTVSPropertyOp8
 70
     1
102
RTVSPropertyOp9
 70
     1
102
RTVSPropertyOp10
 70
     1
102
RTVSPropertyOp11
 70
     1
102
RTVSPropertyOp12
 70
     1
102
RTVSPropertyOp13
 70
     1
102
RTVSPropertyOp14
 70
     1
102
RTVSPropertyOp15
 70
     1
102
RTVSPropertyOp16
 70
     1
102
RTVSPropertyOp17
 70
     1
102
RTVSPropertyOp18
 70
     1
102
RTVSPropertyOp19
 70
     1
102
RTVSPropertyOp20
 70
     1
102
RTVSPropertyOp21
 70
     1
102
RTVSPropertyOp22
 70
     1
102
RTVSPropertyOp23
 70
     1
102
RTVSPropertyOp24
 70
     1
102
RTVSPropertyOp25
 70
     1
102
RTVSPropertyOp26
 70
     1
102
RTVSPropertyOp27
 70
     1
102
RTVSPropertyOp28
 70
     1
102
RTVSPropertyOp29
 70
     1
102
RTVSPropertyOp30
 70
     1
102
RTVSPropertyOp31
 70
     1
102
RTVSPropertyOp32
 70
     1
102
RTVSPropertyOp33
 70
     1
102
RTVSPropertyOp34
 70
     1
102
RTVSPropertyOp35
 70
     1
102
RTVSPropertyOp36
 70
     1
102
RTVSPropertyOp37
 70
     1
102
RTVSPropertyOp38
 70
     1
102
RTVSPropertyOp39
 70
     1
102
RTVSPropertyOp40
 70
     1
102
RTVSPropertyOp41
 70
     1
102
RTVSPropertyOp42
 70
     1
102
RTVSPropertyOp43
 70
     1
102
RTVSPropertyOp44
 70
     1
102
RTVSPropertyOp45
 70
     1
102
RTVSPropertyOp46
 70
     1
102
RTVSPropertyOp47
 70
     1
102
RTVSPropertyOp48
 70
     1
102
RTVSPropertyOp49
 70
     1
102
RTVSPropertyOp50
 70
     1
102
RTVSPropertyOp51
 70
     0
102
RTVSPropertyOp52
 70
     0
102
RTVSPropertyOp53
 70
     1
102
RTVSPropertyOp54
 70
     1
102
RTVSPropertyOp55
 70
     1
102
RTVSPropertyOp56
 70
     1
102
RTVSPropertyOp57
 70
     1
102
RTVSPost2010Prop28
280
     0
102
RTVSPost2010PropOp28
 70
     1
102
RTVSPost2010Prop29
280
     1
102
RTVSPost2010PropOp29
 70
     1
102
RTVSPost2010Prop30
280
     1
102
RTVSPost2010PropOp30
 70
     1
102
RTVSPost2010Prop31
280
     0
102
RTVSPost2010PropOp31
 70
     1
102
RTVSPost2010Prop32
280
     0
102
RTVSPost2010PropOp32
 70
     1
102
RTVSPost2010Prop33
280
     0
102
RTVSPost2010PropOp33
 70
     1
102
RTVSPost2010Prop34
280
     0
102
RTVSPost2010PropOp34
 70
     1
102
RTVSPost2010Prop35
280
     0
102
RTVSPost2010PropOp35
 70
     1
102
RTVSPost2010Prop36
280
     0
102
RTVSPost2010PropOp36
 70
     1
102
RTVSPost2010Prop37
 90
       50
102
RTVSPost2010PropOp37
 70
     1
102
RTVSPost2010Prop38
140
0.0
102
RTVSPost2010PropOp38
 70
     1
102
RTVSPost2010Prop39
140
1.0
102
RTVSPost2010PropOp39
 70
     1
102
RTVSPost2010Prop40
 90
        0
102
RTVSPost2010PropOp40
 70
     1
102
RTVSPost2010Prop41ColorIndex
 90
       18
102
RTVSPost2010Prop41ColorRGB
 90
        0
102
RTVSPost2010PropOp41
 70
     1
102
RTVSPost2010Prop42
 90
       50
102
RTVSPost2010PropOp42
 70
     1
102
RTVSPost2010Prop43
 90
        3
102
RTVSPost2010PropOp43
 70
     1
102
RTVSPost2010Prop44ColorIndex
 90
        5
102
RTVSPost2010Prop44ColorRGB
 90
      255
102
RTVSPost2010PropOp44
 70
     1
102
RTVSPost2010Prop45
280
     0
102
RTVSPost2010PropOp45
 70
     1
102
RTVSPost2010Prop46
 90
       50
102
RTVSPost2010PropOp46
 70
     1
102
RTVSPost2010Prop47
 90
       50
102
RTVSPost2010PropOp47
 70
     1
102
RTVSPost2010Prop48
 90
       50
102
RTVSPost2010PropOp48
 70
     1
102
RTVSPost2010Prop49
280
     0
102
RTVSPost2010PropOp49
 70
     1
102
RTVSPost2010Prop50
 90
       50
102
RTVSPost2010PropOp50
 70
     1
102
RTVSPost2010Prop51ColorIndex
 90
      256
102
RTVSPost2010Prop51ColorRGB
 90
-16777216
102
RTVSPost2010PropOp51
 70
     0
102
RTVSPost2010Prop52
140
1.0
102
RTVSPost2010PropOp52
 70
     0
102
RTVSPost2010Prop53
 90
        2
102
RTVSPost2010PropOp53
 70
     1
102
RTVSPost2010Prop54
  1
strokes_ogs.tif
102
RTVSPost2010PropOp54
 70
     1
102
RTVSPost2010Prop55
280
     0
102
RTVSPost2010PropOp55
 70
     1
102
RTVSPost2010Prop56
140
1.0
102
RTVSPost2010PropOp56
 70
     1
102
RTVSPost2010Prop57
140
1.0
102
RTVSPost2010PropOp57
 70
     1
  0
XRECORD
  5
CA9
102
{ACAD_REACTORS
330
CA8
102
}
330
CA8
100
AcDbXrecord
280
     1
102
RTVSPropertyOp0
 70
     1
102
RTVSPropertyOp1
 70
     1
102
RTVSPropertyOp2
 70
     1
102
RTVSPropertyOp3
 70
     1
102
RTVSPropertyOp4
 70
     1
102
RTVSPropertyOp5
 70
     1
102
RTVSPropertyOp6
 70
     1
102
RTVSPropertyOp7
 70
     1
102
RTVSPropertyOp8
 70
     1
102
RTVSPropertyOp9
 70
     1
102
RTVSPropertyOp10
 70
     1
102
RTVSPropertyOp11
 70
     1
102
RTVSPropertyOp12
 70
     1
102
RTVSPropertyOp13
 70
     1
102
RTVSPropertyOp14
 70
     1
102
RTVSPropertyOp15
 70
     1
102
RTVSPropertyOp16
 70
     1
102
RTVSPropertyOp17
 70
     1
102
RTVSPropertyOp18
 70
     1
102
RTVSPropertyOp19
 70
     1
102
RTVSPropertyOp20
 70
     1
102
RTVSPropertyOp21
 70
     1
102
RTVSPropertyOp22
 70
     1
102
RTVSPropertyOp23
 70
     1
102
RTVSPropertyOp24
 70
     1
102
RTVSPropertyOp25
 70
     1
102
RTVSPropertyOp26
 70
     1
102
RTVSPropertyOp27
 70
     1
102
RTVSPropertyOp28
 70
     1
102
RTVSPropertyOp29
 70
     1
102
RTVSPropertyOp30
 70
     1
102
RTVSPropertyOp31
 70
     1
102
RTVSPropertyOp32
 70
     1
102
RTVSPropertyOp33
 70
     1
102
RTVSPropertyOp34
 70
     1
102
RTVSPropertyOp35
 70
     1
102
RTVSPropertyOp36
 70
     1
102
RTVSPropertyOp37
 70
     1
102
RTVSPropertyOp38
 70
     1
102
RTVSPropertyOp39
 70
     1
102
RTVSPropertyOp40
 70
     1
102
RTVSPropertyOp41
 70
     1
102
RTVSPropertyOp42
 70
     1
102
RTVSPropertyOp43
 70
     1
102
RTVSPropertyOp44
 70
     1
102
RTVSPropertyOp45
 70
     1
102
RTVSPropertyOp46
 70
     1
102
RTVSPropertyOp47
 70
     1
102
RTVSPropertyOp48
 70
     1
102
RTVSPropertyOp49
 70
     1
102
RTVSPropertyOp50
 70
     1
102
RTVSPropertyOp51
 70
     0
102
RTVSPropertyOp52
 70
     0
102
RTVSPropertyOp53
 70
     1
102
RTVSPropertyOp54
 70
     1
102
RTVSPropertyOp55
 70
     1
102
RTVSPropertyOp56
 70
     1
102
RTVSPropertyOp57
 70
     1
102
RTVSPost2010Prop28
280
     0
102
RTVSPost2010PropOp28
 70
     1
102
RTVSPost2010Prop29
280
     1
102
RTVSPost2010PropOp29
 70
     1
102
RTVSPost2010Prop30
280
     1
102
RTVSPost2010PropOp30
 70
     1
102
RTVSPost2010Prop31
280
     0
102
RTVSPost2010PropOp31
 70
     1
102
RTVSPost2010Prop32
280
     0
102
RTVSPost2010PropOp32
 70
     1
102
RTVSPost2010Prop33
280
     0
102
RTVSPost2010PropOp33
 70
     1
102
RTVSPost2010Prop34
280
     0
102
RTVSPost2010PropOp34
 70
     1
102
RTVSPost2010Prop35
280
     0
102
RTVSPost2010PropOp35
 70
     1
102
RTVSPost2010Prop36
280
     0
102
RTVSPost2010PropOp36
 70
     1
102
RTVSPost2010Prop37
 90
       50
102
RTVSPost2010PropOp37
 70
     1
102
RTVSPost2010Prop38
140
0.0
102
RTVSPost2010PropOp38
 70
     1
102
RTVSPost2010Prop39
140
1.0
102
RTVSPost2010PropOp39
 70
     1
102
RTVSPost2010Prop40
 90
        0
102
RTVSPost2010PropOp40
 70
     1
102
RTVSPost2010Prop41ColorIndex
 90
       18
102
RTVSPost2010Prop41ColorRGB
 90
        0
102
RTVSPost2010PropOp41
 70
     1
102
RTVSPost2010Prop42
 90
       50
102
RTVSPost2010PropOp42
 70
     1
102
RTVSPost2010Prop43
 90
        3
102
RTVSPost2010PropOp43
 70
     1
102
RTVSPost2010Prop44ColorIndex
 90
        5
102
RTVSPost2010Prop44ColorRGB
 90
      255
102
RTVSPost2010PropOp44
 70
     1
102
RTVSPost2010Prop45
280
     0
102
RTVSPost2010PropOp45
 70
     1
102
RTVSPost2010Prop46
 90
       50
102
RTVSPost2010PropOp46
 70
     1
102
RTVSPost2010Prop47
 90
       50
102
RTVSPost2010PropOp47
 70
     1
102
RTVSPost2010Prop48
 90
       50
102
RTVSPost2010PropOp48
 70
     1
102
RTVSPost2010Prop49
280
     0
102
RTVSPost2010PropOp49
 70
     1
102
RTVSPost2010Prop50
 90
       50
102
RTVSPost2010PropOp50
 70
     1
102
RTVSPost2010Prop51ColorIndex
 90
      256
102
RTVSPost2010Prop51ColorRGB
 90
-16777216
102
RTVSPost2010PropOp51
 70
     0
102
RTVSPost2010Prop52
140
1.0
102
RTVSPost2010PropOp52
 70
     0
102
RTVSPost2010Prop53
 90
        2
102
RTVSPost2010PropOp53
 70
     1
102
RTVSPost2010Prop54
  1
strokes_ogs.tif
102
RTVSPost2010PropOp54
 70
     1
102
RTVSPost2010Prop55
280
     0
102
RTVSPost2010PropOp55
 70
     1
102
RTVSPost2010Prop56
140
1.0
102
RTVSPost2010PropOp56
 70
     1
102
RTVSPost2010Prop57
140
1.0
102
RTVSPost2010PropOp57
 70
     1
  0
XRECORD
  5
CAB
102
{ACAD_REACTORS
330
CAA
102
}
330
CAA
100
AcDbXrecord
280
     1
102
RTVSPropertyOp0
 70
     1
102
RTVSPropertyOp1
 70
     1
102
RTVSPropertyOp2
 70
     1
102
RTVSPropertyOp3
 70
     1
102
RTVSPropertyOp4
 70
     1
102
RTVSPropertyOp5
 70
     1
102
RTVSPropertyOp6
 70
     1
102
RTVSPropertyOp7
 70
     1
102
RTVSPropertyOp8
 70
     1
102
RTVSPropertyOp9
 70
     1
102
RTVSPropertyOp10
 70
     1
102
RTVSPropertyOp11
 70
     1
102
RTVSPropertyOp12
 70
     1
102
RTVSPropertyOp13
 70
     1
102
RTVSPropertyOp14
 70
     1
102
RTVSPropertyOp15
 70
     1
102
RTVSPropertyOp16
 70
     1
102
RTVSPropertyOp17
 70
     1
102
RTVSPropertyOp18
 70
     1
102
RTVSPropertyOp19
 70
     1
102
RTVSPropertyOp20
 70
     1
102
RTVSPropertyOp21
 70
     1
102
RTVSPropertyOp22
 70
     1
102
RTVSPropertyOp23
 70
     1
102
RTVSPropertyOp24
 70
     1
102
RTVSPropertyOp25
 70
     1
102
RTVSPropertyOp26
 70
     1
102
RTVSPropertyOp27
 70
     1
102
RTVSPropertyOp28
 70
     1
102
RTVSPropertyOp29
 70
     1
102
RTVSPropertyOp30
 70
     1
102
RTVSPropertyOp31
 70
     1
102
RTVSPropertyOp32
 70
     1
102
RTVSPropertyOp33
 70
     1
102
RTVSPropertyOp34
 70
     1
102
RTVSPropertyOp35
 70
     1
102
RTVSPropertyOp36
 70
     1
102
RTVSPropertyOp37
 70
     1
102
RTVSPropertyOp38
 70
     1
102
RTVSPropertyOp39
 70
     1
102
RTVSPropertyOp40
 70
     1
102
RTVSPropertyOp41
 70
     1
102
RTVSPropertyOp42
 70
     1
102
RTVSPropertyOp43
 70
     1
102
RTVSPropertyOp44
 70
     1
102
RTVSPropertyOp45
 70
     1
102
RTVSPropertyOp46
 70
     1
102
RTVSPropertyOp47
 70
     1
102
RTVSPropertyOp48
 70
     1
102
RTVSPropertyOp49
 70
     1
102
RTVSPropertyOp50
 70
     1
102
RTVSPropertyOp51
 70
     0
102
RTVSPropertyOp52
 70
     0
102
RTVSPropertyOp53
 70
     1
102
RTVSPropertyOp54
 70
     1
102
RTVSPropertyOp55
 70
     1
102
RTVSPropertyOp56
 70
     1
102
RTVSPropertyOp57
 70
     1
102
RTVSPost2010Prop28
280
     0
102
RTVSPost2010PropOp28
 70
     1
102
RTVSPost2010Prop29
280
     1
102
RTVSPost2010PropOp29
 70
     1
102
RTVSPost2010Prop30
280
     1
102
RTVSPost2010PropOp30
 70
     1
102
RTVSPost2010Prop31
280
     0
102
RTVSPost2010PropOp31
 70
     1
102
RTVSPost2010Prop32
280
     0
102
RTVSPost2010PropOp32
 70
     1
102
RTVSPost2010Prop33
280
     0
102
RTVSPost2010PropOp33
 70
     1
102
RTVSPost2010Prop34
280
     0
102
RTVSPost2010PropOp34
 70
     1
102
RTVSPost2010Prop35
280
     0
102
RTVSPost2010PropOp35
 70
     1
102
RTVSPost2010Prop36
280
     0
102
RTVSPost2010PropOp36
 70
     1
102
RTVSPost2010Prop37
 90
       50
102
RTVSPost2010PropOp37
 70
     1
102
RTVSPost2010Prop38
140
0.0
102
RTVSPost2010PropOp38
 70
     1
102
RTVSPost2010Prop39
140
1.0
102
RTVSPost2010PropOp39
 70
     1
102
RTVSPost2010Prop40
 90
        0
102
RTVSPost2010PropOp40
 70
     1
102
RTVSPost2010Prop41ColorIndex
 90
       18
102
RTVSPost2010Prop41ColorRGB
 90
        0
102
RTVSPost2010PropOp41
 70
     1
102
RTVSPost2010Prop42
 90
       50
102
RTVSPost2010PropOp42
 70
     1
102
RTVSPost2010Prop43
 90
        3
102
RTVSPost2010PropOp43
 70
     1
102
RTVSPost2010Prop44ColorIndex
 90
        5
102
RTVSPost2010Prop44ColorRGB
 90
      255
102
RTVSPost2010PropOp44
 70
     1
102
RTVSPost2010Prop45
280
     0
102
RTVSPost2010PropOp45
 70
     1
102
RTVSPost2010Prop46
 90
       50
102
RTVSPost2010PropOp46
 70
     1
102
RTVSPost2010Prop47
 90
       50
102
RTVSPost2010PropOp47
 70
     1
102
RTVSPost2010Prop48
 90
       50
102
RTVSPost2010PropOp48
 70
     1
102
RTVSPost2010Prop49
280
     0
102
RTVSPost2010PropOp49
 70
     1
102
RTVSPost2010Prop50
 90
       50
102
RTVSPost2010PropOp50
 70
     1
102
RTVSPost2010Prop51ColorIndex
 90
      256
102
RTVSPost2010Prop51ColorRGB
 90
-16777216
102
RTVSPost2010PropOp51
 70
     0
102
RTVSPost2010Prop52
140
1.0
102
RTVSPost2010PropOp52
 70
     0
102
RTVSPost2010Prop53
 90
        2
102
RTVSPost2010PropOp53
 70
     1
102
RTVSPost2010Prop54
  1
strokes_ogs.tif
102
RTVSPost2010PropOp54
 70
     1
102
RTVSPost2010Prop55
280
     0
102
RTVSPost2010PropOp55
 70
     1
102
RTVSPost2010Prop56
140
1.0
102
RTVSPost2010PropOp56
 70
     1
102
RTVSPost2010Prop57
140
1.0
102
RTVSPost2010PropOp57
 70
     1
  0
XRECORD
  5
CAD
102
{ACAD_REACTORS
330
CAC
102
}
330
CAC
100
AcDbXrecord
280
     1
102
RTVSPropertyOp0
 70
     0
102
RTVSPropertyOp1
 70
     0
102
RTVSPropertyOp2
 70
     0
102
RTVSPropertyOp3
 70
     0
102
RTVSPropertyOp4
 70
     0
102
RTVSPropertyOp5
 70
     0
102
RTVSPropertyOp6
 70
     0
102
RTVSPropertyOp7
 70
     0
102
RTVSPropertyOp8
 70
     0
102
RTVSPropertyOp9
 70
     0
102
RTVSPropertyOp10
 70
     0
102
RTVSPropertyOp11
 70
     0
102
RTVSPropertyOp12
 70
     0
102
RTVSPropertyOp13
 70
     0
102
RTVSPropertyOp14
 70
     2
102
RTVSPropertyOp15
 70
     0
102
RTVSPropertyOp16
 70
     0
102
RTVSPropertyOp17
 70
     0
102
RTVSPropertyOp18
 70
     0
102
RTVSPropertyOp19
 70
     0
102
RTVSPropertyOp20
 70
     0
102
RTVSPropertyOp21
 70
     0
102
RTVSPropertyOp22
 70
     0
102
RTVSPropertyOp23
 70
     0
102
RTVSPropertyOp24
 70
     0
102
RTVSPropertyOp25
 70
     0
102
RTVSPropertyOp26
 70
     0
102
RTVSPropertyOp27
 70
     0
102
RTVSPropertyOp28
 70
     0
102
RTVSPropertyOp29
 70
     0
102
RTVSPropertyOp30
 70
     0
102
RTVSPropertyOp31
 70
     0
102
RTVSPropertyOp32
 70
     0
102
RTVSPropertyOp33
 70
     1
102
RTVSPropertyOp34
 70
     1
102
RTVSPropertyOp35
 70
     1
102
RTVSPropertyOp36
 70
     1
102
RTVSPropertyOp37
 70
     1
102
RTVSPropertyOp38
 70
     1
102
RTVSPropertyOp39
 70
     1
102
RTVSPropertyOp40
 70
     1
102
RTVSPropertyOp41
 70
     1
102
RTVSPropertyOp42
 70
     1
102
RTVSPropertyOp43
 70
     1
102
RTVSPropertyOp44
 70
     1
102
RTVSPropertyOp45
 70
     1
102
RTVSPropertyOp46
 70
     1
102
RTVSPropertyOp47
 70
     1
102
RTVSPropertyOp48
 70
     1
102
RTVSPropertyOp49
 70
     1
102
RTVSPropertyOp50
 70
     1
102
RTVSPropertyOp51
 70
     0
102
RTVSPropertyOp52
 70
     0
102
RTVSPropertyOp53
 70
     1
102
RTVSPropertyOp54
 70
     1
102
RTVSPropertyOp55
 70
     1
102
RTVSPropertyOp56
 70
     1
102
RTVSPropertyOp57
 70
     1
102
RTVSPost2010Prop28
280
     0
102
RTVSPost2010PropOp28
 70
     0
102
RTVSPost2010Prop29
280
     1
102
RTVSPost2010PropOp29
 70
     0
102
RTVSPost2010Prop30
280
     1
102
RTVSPost2010PropOp30
 70
     0
102
RTVSPost2010Prop31
280
     0
102
RTVSPost2010PropOp31
 70
     0
102
RTVSPost2010Prop32
280
     0
102
RTVSPost2010PropOp32
 70
     0
102
RTVSPost2010Prop33
280
     0
102
RTVSPost2010PropOp33
 70
     1
102
RTVSPost2010Prop34
280
     0
102
RTVSPost2010PropOp34
 70
     1
102
RTVSPost2010Prop35
280
     0
102
RTVSPost2010PropOp35
 70
     1
102
RTVSPost2010Prop36
280
     0
102
RTVSPost2010PropOp36
 70
     1
102
RTVSPost2010Prop37
 90
       50
102
RTVSPost2010PropOp37
 70
     1
102
RTVSPost2010Prop38
140
0.0
102
RTVSPost2010PropOp38
 70
     1
102
RTVSPost2010Prop39
140
1.0
102
RTVSPost2010PropOp39
 70
     1
102
RTVSPost2010Prop40
 90
        0
102
RTVSPost2010PropOp40
 70
     1
102
RTVSPost2010Prop41ColorIndex
 90
       18
102
RTVSPost2010Prop41ColorRGB
 90
        0
102
RTVSPost2010PropOp41
 70
     1
102
RTVSPost2010Prop42
 90
       50
102
RTVSPost2010PropOp42
 70
     1
102
RTVSPost2010Prop43
 90
        3
102
RTVSPost2010PropOp43
 70
     1
102
RTVSPost2010Prop44ColorIndex
 90
        5
102
RTVSPost2010Prop44ColorRGB
 90
      255
102
RTVSPost2010PropOp44
 70
     1
102
RTVSPost2010Prop45
280
     0
102
RTVSPost2010PropOp45
 70
     1
102
RTVSPost2010Prop46
 90
       50
102
RTVSPost2010PropOp46
 70
     1
102
RTVSPost2010Prop47
 90
       50
102
RTVSPost2010PropOp47
 70
     1
102
RTVSPost2010Prop48
 90
       50
102
RTVSPost2010PropOp48
 70
     1
102
RTVSPost2010Prop49
280
     0
102
RTVSPost2010PropOp49
 70
     1
102
RTVSPost2010Prop50
 90
       50
102
RTVSPost2010PropOp50
 70
     1
102
RTVSPost2010Prop51ColorIndex
 90
      256
102
RTVSPost2010Prop51ColorRGB
 90
-16777216
102
RTVSPost2010PropOp51
 70
     0
102
RTVSPost2010Prop52
140
1.0
102
RTVSPost2010PropOp52
 70
     0
102
RTVSPost2010Prop53
 90
        2
102
RTVSPost2010PropOp53
 70
     1
102
RTVSPost2010Prop54
  1
strokes_ogs.tif
102
RTVSPost2010PropOp54
 70
     1
102
RTVSPost2010Prop55
280
     0
102
RTVSPost2010PropOp55
 70
     1
102
RTVSPost2010Prop56
140
1.0
102
RTVSPost2010PropOp56
 70
     1
102
RTVSPost2010Prop57
140
1.0
102
RTVSPost2010PropOp57
 70
     1
  0
XRECORD
  5
CAF
102
{ACAD_REACTORS
330
CAE
102
}
330
CAE
100
AcDbXrecord
280
     1
102
RTVSPropertyOp0
 70
     1
102
RTVSPropertyOp1
 70
     1
102
RTVSPropertyOp2
 70
     1
102
RTVSPropertyOp3
 70
     1
102
RTVSPropertyOp4
 70
     1
102
RTVSPropertyOp5
 70
     1
102
RTVSPropertyOp6
 70
     1
102
RTVSPropertyOp7
 70
     1
102
RTVSPropertyOp8
 70
     1
102
RTVSPropertyOp9
 70
     1
102
RTVSPropertyOp10
 70
     1
102
RTVSPropertyOp11
 70
     1
102
RTVSPropertyOp12
 70
     1
102
RTVSPropertyOp13
 70
     1
102
RTVSPropertyOp14
 70
     1
102
RTVSPropertyOp15
 70
     1
102
RTVSPropertyOp16
 70
     1
102
RTVSPropertyOp17
 70
     1
102
RTVSPropertyOp18
 70
     1
102
RTVSPropertyOp19
 70
     1
102
RTVSPropertyOp20
 70
     1
102
RTVSPropertyOp21
 70
     1
102
RTVSPropertyOp22
 70
     1
102
RTVSPropertyOp23
 70
     1
102
RTVSPropertyOp24
 70
     1
102
RTVSPropertyOp25
 70
     1
102
RTVSPropertyOp26
 70
     1
102
RTVSPropertyOp27
 70
     1
102
RTVSPropertyOp28
 70
     1
102
RTVSPropertyOp29
 70
     1
102
RTVSPropertyOp30
 70
     1
102
RTVSPropertyOp31
 70
     1
102
RTVSPropertyOp32
 70
     1
102
RTVSPropertyOp33
 70
     1
102
RTVSPropertyOp34
 70
     1
102
RTVSPropertyOp35
 70
     1
102
RTVSPropertyOp36
 70
     1
102
RTVSPropertyOp37
 70
     1
102
RTVSPropertyOp38
 70
     1
102
RTVSPropertyOp39
 70
     1
102
RTVSPropertyOp40
 70
     1
102
RTVSPropertyOp41
 70
     1
102
RTVSPropertyOp42
 70
     1
102
RTVSPropertyOp43
 70
     1
102
RTVSPropertyOp44
 70
     1
102
RTVSPropertyOp45
 70
     1
102
RTVSPropertyOp46
 70
     1
102
RTVSPropertyOp47
 70
     1
102
RTVSPropertyOp48
 70
     1
102
RTVSPropertyOp49
 70
     1
102
RTVSPropertyOp50
 70
     1
102
RTVSPropertyOp51
 70
     0
102
RTVSPropertyOp52
 70
     0
102
RTVSPropertyOp53
 70
     1
102
RTVSPropertyOp54
 70
     1
102
RTVSPropertyOp55
 70
     1
102
RTVSPropertyOp56
 70
     1
102
RTVSPropertyOp57
 70
     1
102
RTVSPost2010Prop28
280
     0
102
RTVSPost2010PropOp28
 70
     1
102
RTVSPost2010Prop29
280
     1
102
RTVSPost2010PropOp29
 70
     1
102
RTVSPost2010Prop30
280
     1
102
RTVSPost2010PropOp30
 70
     1
102
RTVSPost2010Prop31
280
     0
102
RTVSPost2010PropOp31
 70
     1
102
RTVSPost2010Prop32
280
     0
102
RTVSPost2010PropOp32
 70
     1
102
RTVSPost2010Prop33
280
     0
102
RTVSPost2010PropOp33
 70
     1
102
RTVSPost2010Prop34
280
     0
102
RTVSPost2010PropOp34
 70
     1
102
RTVSPost2010Prop35
280
     0
102
RTVSPost2010PropOp35
 70
     1
102
RTVSPost2010Prop36
280
     0
102
RTVSPost2010PropOp36
 70
     1
102
RTVSPost2010Prop37
 90
       50
102
RTVSPost2010PropOp37
 70
     1
102
RTVSPost2010Prop38
140
0.0
102
RTVSPost2010PropOp38
 70
     1
102
RTVSPost2010Prop39
140
1.0
102
RTVSPost2010PropOp39
 70
     1
102
RTVSPost2010Prop40
 90
        0
102
RTVSPost2010PropOp40
 70
     1
102
RTVSPost2010Prop41ColorIndex
 90
       18
102
RTVSPost2010Prop41ColorRGB
 90
        0
102
RTVSPost2010PropOp41
 70
     1
102
RTVSPost2010Prop42
 90
       50
102
RTVSPost2010PropOp42
 70
     1
102
RTVSPost2010Prop43
 90
        3
102
RTVSPost2010PropOp43
 70
     1
102
RTVSPost2010Prop44ColorIndex
 90
        5
102
RTVSPost2010Prop44ColorRGB
 90
      255
102
RTVSPost2010PropOp44
 70
     1
102
RTVSPost2010Prop45
280
     0
102
RTVSPost2010PropOp45
 70
     1
102
RTVSPost2010Prop46
 90
       50
102
RTVSPost2010PropOp46
 70
     1
102
RTVSPost2010Prop47
 90
       50
102
RTVSPost2010PropOp47
 70
     1
102
RTVSPost2010Prop48
 90
       50
102
RTVSPost2010PropOp48
 70
     1
102
RTVSPost2010Prop49
280
     0
102
RTVSPost2010PropOp49
 70
     1
102
RTVSPost2010Prop50
 90
       50
102
RTVSPost2010PropOp50
 70
     1
102
RTVSPost2010Prop51ColorIndex
 90
      256
102
RTVSPost2010Prop51ColorRGB
 90
-16777216
102
RTVSPost2010PropOp51
 70
     0
102
RTVSPost2010Prop52
140
1.0
102
RTVSPost2010PropOp52
 70
     0
102
RTVSPost2010Prop53
 90
        2
102
RTVSPost2010PropOp53
 70
     1
102
RTVSPost2010Prop54
  1
strokes_ogs.tif
102
RTVSPost2010PropOp54
 70
     1
102
RTVSPost2010Prop55
280
     0
102
RTVSPost2010PropOp55
 70
     1
102
RTVSPost2010Prop56
140
1.0
102
RTVSPost2010PropOp56
 70
     1
102
RTVSPost2010Prop57
140
1.0
102
RTVSPost2010PropOp57
 70
     1
  0
XRECORD
  5
CB1
102
{ACAD_REACTORS
330
CB0
102
}
330
CB0
100
AcDbXrecord
280
     1
102
RTVSPropertyOp0
 70
     0
102
RTVSPropertyOp1
 70
     0
102
RTVSPropertyOp2
 70
     0
102
RTVSPropertyOp3
 70
     0
102
RTVSPropertyOp4
 70
     0
102
RTVSPropertyOp5
 70
     0
102
RTVSPropertyOp6
 70
     0
102
RTVSPropertyOp7
 70
     0
102
RTVSPropertyOp8
 70
     0
102
RTVSPropertyOp9
 70
     0
102
RTVSPropertyOp10
 70
     0
102
RTVSPropertyOp11
 70
     0
102
RTVSPropertyOp12
 70
     0
102
RTVSPropertyOp13
 70
     0
102
RTVSPropertyOp14
 70
     2
102
RTVSPropertyOp15
 70
     0
102
RTVSPropertyOp16
 70
     0
102
RTVSPropertyOp17
 70
     0
102
RTVSPropertyOp18
 70
     0
102
RTVSPropertyOp19
 70
     0
102
RTVSPropertyOp20
 70
     0
102
RTVSPropertyOp21
 70
     0
102
RTVSPropertyOp22
 70
     0
102
RTVSPropertyOp23
 70
     0
102
RTVSPropertyOp24
 70
     0
102
RTVSPropertyOp25
 70
     0
102
RTVSPropertyOp26
 70
     0
102
RTVSPropertyOp27
 70
     0
102
RTVSPropertyOp28
 70
     0
102
RTVSPropertyOp29
 70
     0
102
RTVSPropertyOp30
 70
     0
102
RTVSPropertyOp31
 70
     0
102
RTVSPropertyOp32
 70
     0
102
RTVSPropertyOp33
 70
     1
102
RTVSPropertyOp34
 70
     1
102
RTVSPropertyOp35
 70
     1
102
RTVSPropertyOp36
 70
     1
102
RTVSPropertyOp37
 70
     1
102
RTVSPropertyOp38
 70
     1
102
RTVSPropertyOp39
 70
     1
102
RTVSPropertyOp40
 70
     1
102
RTVSPropertyOp41
 70
     1
102
RTVSPropertyOp42
 70
     1
102
RTVSPropertyOp43
 70
     1
102
RTVSPropertyOp44
 70
     1
102
RTVSPropertyOp45
 70
     1
102
RTVSPropertyOp46
 70
     1
102
RTVSPropertyOp47
 70
     1
102
RTVSPropertyOp48
 70
     1
102
RTVSPropertyOp49
 70
     1
102
RTVSPropertyOp50
 70
     1
102
RTVSPropertyOp51
 70
     0
102
RTVSPropertyOp52
 70
     0
102
RTVSPropertyOp53
 70
     1
102
RTVSPropertyOp54
 70
     1
102
RTVSPropertyOp55
 70
     1
102
RTVSPropertyOp56
 70
     1
102
RTVSPropertyOp57
 70
     1
102
RTVSPost2010Prop28
280
     0
102
RTVSPost2010PropOp28
 70
     0
102
RTVSPost2010Prop29
280
     1
102
RTVSPost2010PropOp29
 70
     0
102
RTVSPost2010Prop30
280
     1
102
RTVSPost2010PropOp30
 70
     0
102
RTVSPost2010Prop31
280
     0
102
RTVSPost2010PropOp31
 70
     0
102
RTVSPost2010Prop32
280
     0
102
RTVSPost2010PropOp32
 70
     0
102
RTVSPost2010Prop33
280
     0
102
RTVSPost2010PropOp33
 70
     1
102
RTVSPost2010Prop34
280
     0
102
RTVSPost2010PropOp34
 70
     1
102
RTVSPost2010Prop35
280
     0
102
RTVSPost2010PropOp35
 70
     1
102
RTVSPost2010Prop36
280
     0
102
RTVSPost2010PropOp36
 70
     1
102
RTVSPost2010Prop37
 90
       50
102
RTVSPost2010PropOp37
 70
     1
102
RTVSPost2010Prop38
140
0.0
102
RTVSPost2010PropOp38
 70
     1
102
RTVSPost2010Prop39
140
1.0
102
RTVSPost2010PropOp39
 70
     1
102
RTVSPost2010Prop40
 90
        0
102
RTVSPost2010PropOp40
 70
     1
102
RTVSPost2010Prop41ColorIndex
 90
       18
102
RTVSPost2010Prop41ColorRGB
 90
        0
102
RTVSPost2010PropOp41
 70
     1
102
RTVSPost2010Prop42
 90
       50
102
RTVSPost2010PropOp42
 70
     1
102
RTVSPost2010Prop43
 90
        3
102
RTVSPost2010PropOp43
 70
     1
102
RTVSPost2010Prop44ColorIndex
 90
        5
102
RTVSPost2010Prop44ColorRGB
 90
      255
102
RTVSPost2010PropOp44
 70
     1
102
RTVSPost2010Prop45
280
     0
102
RTVSPost2010PropOp45
 70
     1
102
RTVSPost2010Prop46
 90
       50
102
RTVSPost2010PropOp46
 70
     1
102
RTVSPost2010Prop47
 90
       50
102
RTVSPost2010PropOp47
 70
     1
102
RTVSPost2010Prop48
 90
       50
102
RTVSPost2010PropOp48
 70
     1
102
RTVSPost2010Prop49
280
     0
102
RTVSPost2010PropOp49
 70
     1
102
RTVSPost2010Prop50
 90
       50
102
RTVSPost2010PropOp50
 70
     1
102
RTVSPost2010Prop51ColorIndex
 90
      256
102
RTVSPost2010Prop51ColorRGB
 90
-16777216
102
RTVSPost2010PropOp51
 70
     0
102
RTVSPost2010Prop52
140
1.0
102
RTVSPost2010PropOp52
 70
     0
102
RTVSPost2010Prop53
 90
        2
102
RTVSPost2010PropOp53
 70
     1
102
RTVSPost2010Prop54
  1
strokes_ogs.tif
102
RTVSPost2010PropOp54
 70
     1
102
RTVSPost2010Prop55
280
     0
102
RTVSPost2010PropOp55
 70
     1
102
RTVSPost2010Prop56
140
1.0
102
RTVSPost2010PropOp56
 70
     1
102
RTVSPost2010Prop57
140
1.0
102
RTVSPost2010PropOp57
 70
     1
  0
XRECORD
  5
CB3
102
{ACAD_REACTORS
330
CB2
102
}
330
CB2
100
AcDbXrecord
280
     1
102
RTVSPropertyOp0
 70
     1
102
RTVSPropertyOp1
 70
     1
102
RTVSPropertyOp2
 70
     1
102
RTVSPropertyOp3
 70
     1
102
RTVSPropertyOp4
 70
     1
102
RTVSPropertyOp5
 70
     1
102
RTVSPropertyOp6
 70
     1
102
RTVSPropertyOp7
 70
     1
102
RTVSPropertyOp8
 70
     1
102
RTVSPropertyOp9
 70
     1
102
RTVSPropertyOp10
 70
     1
102
RTVSPropertyOp11
 70
     1
102
RTVSPropertyOp12
 70
     1
102
RTVSPropertyOp13
 70
     1
102
RTVSPropertyOp14
 70
     1
102
RTVSPropertyOp15
 70
     1
102
RTVSPropertyOp16
 70
     1
102
RTVSPropertyOp17
 70
     1
102
RTVSPropertyOp18
 70
     1
102
RTVSPropertyOp19
 70
     1
102
RTVSPropertyOp20
 70
     1
102
RTVSPropertyOp21
 70
     1
102
RTVSPropertyOp22
 70
     1
102
RTVSPropertyOp23
 70
     1
102
RTVSPropertyOp24
 70
     1
102
RTVSPropertyOp25
 70
     1
102
RTVSPropertyOp26
 70
     1
102
RTVSPropertyOp27
 70
     1
102
RTVSPropertyOp28
 70
     1
102
RTVSPropertyOp29
 70
     1
102
RTVSPropertyOp30
 70
     1
102
RTVSPropertyOp31
 70
     1
102
RTVSPropertyOp32
 70
     1
102
RTVSPropertyOp33
 70
     1
102
RTVSPropertyOp34
 70
     1
102
RTVSPropertyOp35
 70
     1
102
RTVSPropertyOp36
 70
     1
102
RTVSPropertyOp37
 70
     1
102
RTVSPropertyOp38
 70
     1
102
RTVSPropertyOp39
 70
     1
102
RTVSPropertyOp40
 70
     1
102
RTVSPropertyOp41
 70
     1
102
RTVSPropertyOp42
 70
     1
102
RTVSPropertyOp43
 70
     1
102
RTVSPropertyOp44
 70
     1
102
RTVSPropertyOp45
 70
     1
102
RTVSPropertyOp46
 70
     1
102
RTVSPropertyOp47
 70
     1
102
RTVSPropertyOp48
 70
     1
102
RTVSPropertyOp49
 70
     1
102
RTVSPropertyOp50
 70
     1
102
RTVSPropertyOp51
 70
     0
102
RTVSPropertyOp52
 70
     0
102
RTVSPropertyOp53
 70
     1
102
RTVSPropertyOp54
 70
     1
102
RTVSPropertyOp55
 70
     1
102
RTVSPropertyOp56
 70
     1
102
RTVSPropertyOp57
 70
     1
102
RTVSPost2010Prop28
280
     0
102
RTVSPost2010PropOp28
 70
     1
102
RTVSPost2010Prop29
280
     1
102
RTVSPost2010PropOp29
 70
     1
102
RTVSPost2010Prop30
280
     1
102
RTVSPost2010PropOp30
 70
     1
102
RTVSPost2010Prop31
280
     0
102
RTVSPost2010PropOp31
 70
     1
102
RTVSPost2010Prop32
280
     0
102
RTVSPost2010PropOp32
 70
     1
102
RTVSPost2010Prop33
280
     0
102
RTVSPost2010PropOp33
 70
     1
102
RTVSPost2010Prop34
280
     0
102
RTVSPost2010PropOp34
 70
     1
102
RTVSPost2010Prop35
280
     0
102
RTVSPost2010PropOp35
 70
     1
102
RTVSPost2010Prop36
280
     0
102
RTVSPost2010PropOp36
 70
     1
102
RTVSPost2010Prop37
 90
       50
102
RTVSPost2010PropOp37
 70
     1
102
RTVSPost2010Prop38
140
0.0
102
RTVSPost2010PropOp38
 70
     1
102
RTVSPost2010Prop39
140
1.0
102
RTVSPost2010PropOp39
 70
     1
102
RTVSPost2010Prop40
 90
        0
102
RTVSPost2010PropOp40
 70
     1
102
RTVSPost2010Prop41ColorIndex
 90
       18
102
RTVSPost2010Prop41ColorRGB
 90
        0
102
RTVSPost2010PropOp41
 70
     1
102
RTVSPost2010Prop42
 90
       50
102
RTVSPost2010PropOp42
 70
     1
102
RTVSPost2010Prop43
 90
        3
102
RTVSPost2010PropOp43
 70
     1
102
RTVSPost2010Prop44ColorIndex
 90
        5
102
RTVSPost2010Prop44ColorRGB
 90
      255
102
RTVSPost2010PropOp44
 70
     1
102
RTVSPost2010Prop45
280
     0
102
RTVSPost2010PropOp45
 70
     1
102
RTVSPost2010Prop46
 90
       50
102
RTVSPost2010PropOp46
 70
     1
102
RTVSPost2010Prop47
 90
       50
102
RTVSPost2010PropOp47
 70
     1
102
RTVSPost2010Prop48
 90
       50
102
RTVSPost2010PropOp48
 70
     1
102
RTVSPost2010Prop49
280
     0
102
RTVSPost2010PropOp49
 70
     1
102
RTVSPost2010Prop50
 90
       50
102
RTVSPost2010PropOp50
 70
     1
102
RTVSPost2010Prop51ColorIndex
 90
      256
102
RTVSPost2010Prop51ColorRGB
 90
-16777216
102
RTVSPost2010PropOp51
 70
     0
102
RTVSPost2010Prop52
140
1.0
102
RTVSPost2010PropOp52
 70
     0
102
RTVSPost2010Prop53
 90
        2
102
RTVSPost2010PropOp53
 70
     1
102
RTVSPost2010Prop54
  1
strokes_ogs.tif
102
RTVSPost2010PropOp54
 70
     1
102
RTVSPost2010Prop55
280
     0
102
RTVSPost2010PropOp55
 70
     1
102
RTVSPost2010Prop56
140
1.0
102
RTVSPost2010PropOp56
 70
     1
102
RTVSPost2010Prop57
140
1.0
102
RTVSPost2010PropOp57
 70
     1
  0
XRECORD
  5
CB5
102
{ACAD_REACTORS
330
CB4
102
}
330
CB4
100
AcDbXrecord
280
     1
102
RTVSPropertyOp0
 70
     1
102
RTVSPropertyOp1
 70
     1
102
RTVSPropertyOp2
 70
     1
102
RTVSPropertyOp3
 70
     1
102
RTVSPropertyOp4
 70
     1
102
RTVSPropertyOp5
 70
     1
102
RTVSPropertyOp6
 70
     1
102
RTVSPropertyOp7
 70
     1
102
RTVSPropertyOp8
 70
     1
102
RTVSPropertyOp9
 70
     1
102
RTVSPropertyOp10
 70
     1
102
RTVSPropertyOp11
 70
     1
102
RTVSPropertyOp12
 70
     1
102
RTVSPropertyOp13
 70
     1
102
RTVSPropertyOp14
 70
     1
102
RTVSPropertyOp15
 70
     1
102
RTVSPropertyOp16
 70
     1
102
RTVSPropertyOp17
 70
     1
102
RTVSPropertyOp18
 70
     1
102
RTVSPropertyOp19
 70
     1
102
RTVSPropertyOp20
 70
     1
102
RTVSPropertyOp21
 70
     1
102
RTVSPropertyOp22
 70
     1
102
RTVSPropertyOp23
 70
     1
102
RTVSPropertyOp24
 70
     1
102
RTVSPropertyOp25
 70
     1
102
RTVSPropertyOp26
 70
     1
102
RTVSPropertyOp27
 70
     1
102
RTVSPropertyOp28
 70
     1
102
RTVSPropertyOp29
 70
     1
102
RTVSPropertyOp30
 70
     1
102
RTVSPropertyOp31
 70
     1
102
RTVSPropertyOp32
 70
     1
102
RTVSPropertyOp33
 70
     1
102
RTVSPropertyOp34
 70
     1
102
RTVSPropertyOp35
 70
     1
102
RTVSPropertyOp36
 70
     1
102
RTVSPropertyOp37
 70
     1
102
RTVSPropertyOp38
 70
     1
102
RTVSPropertyOp39
 70
     1
102
RTVSPropertyOp40
 70
     1
102
RTVSPropertyOp41
 70
     1
102
RTVSPropertyOp42
 70
     1
102
RTVSPropertyOp43
 70
     1
102
RTVSPropertyOp44
 70
     1
102
RTVSPropertyOp45
 70
     1
102
RTVSPropertyOp46
 70
     1
102
RTVSPropertyOp47
 70
     1
102
RTVSPropertyOp48
 70
     1
102
RTVSPropertyOp49
 70
     1
102
RTVSPropertyOp50
 70
     1
102
RTVSPropertyOp51
 70
     0
102
RTVSPropertyOp52
 70
     0
102
RTVSPropertyOp53
 70
     1
102
RTVSPropertyOp54
 70
     1
102
RTVSPropertyOp55
 70
     1
102
RTVSPropertyOp56
 70
     1
102
RTVSPropertyOp57
 70
     1
102
RTVSPost2010Prop28
280
     0
102
RTVSPost2010PropOp28
 70
     1
102
RTVSPost2010Prop29
280
     1
102
RTVSPost2010PropOp29
 70
     1
102
RTVSPost2010Prop30
280
     1
102
RTVSPost2010PropOp30
 70
     1
102
RTVSPost2010Prop31
280
     0
102
RTVSPost2010PropOp31
 70
     1
102
RTVSPost2010Prop32
280
     0
102
RTVSPost2010PropOp32
 70
     1
102
RTVSPost2010Prop33
280
     0
102
RTVSPost2010PropOp33
 70
     1
102
RTVSPost2010Prop34
280
     0
102
RTVSPost2010PropOp34
 70
     1
102
RTVSPost2010Prop35
280
     0
102
RTVSPost2010PropOp35
 70
     1
102
RTVSPost2010Prop36
280
     0
102
RTVSPost2010PropOp36
 70
     1
102
RTVSPost2010Prop37
 90
       50
102
RTVSPost2010PropOp37
 70
     1
102
RTVSPost2010Prop38
140
0.0
102
RTVSPost2010PropOp38
 70
     1
102
RTVSPost2010Prop39
140
1.0
102
RTVSPost2010PropOp39
 70
     1
102
RTVSPost2010Prop40
 90
        0
102
RTVSPost2010PropOp40
 70
     1
102
RTVSPost2010Prop41ColorIndex
 90
       18
102
RTVSPost2010Prop41ColorRGB
 90
        0
102
RTVSPost2010PropOp41
 70
     1
102
RTVSPost2010Prop42
 90
       50
102
RTVSPost2010PropOp42
 70
     1
102
RTVSPost2010Prop43
 90
        3
102
RTVSPost2010PropOp43
 70
     1
102
RTVSPost2010Prop44ColorIndex
 90
        5
102
RTVSPost2010Prop44ColorRGB
 90
      255
102
RTVSPost2010PropOp44
 70
     1
102
RTVSPost2010Prop45
280
     0
102
RTVSPost2010PropOp45
 70
     1
102
RTVSPost2010Prop46
 90
       50
102
RTVSPost2010PropOp46
 70
     1
102
RTVSPost2010Prop47
 90
       50
102
RTVSPost2010PropOp47
 70
     1
102
RTVSPost2010Prop48
 90
       50
102
RTVSPost2010PropOp48
 70
     1
102
RTVSPost2010Prop49
280
     0
102
RTVSPost2010PropOp49
 70
     1
102
RTVSPost2010Prop50
 90
       50
102
RTVSPost2010PropOp50
 70
     1
102
RTVSPost2010Prop51ColorIndex
 90
      256
102
RTVSPost2010Prop51ColorRGB
 90
-16777216
102
RTVSPost2010PropOp51
 70
     0
102
RTVSPost2010Prop52
140
1.0
102
RTVSPost2010PropOp52
 70
     0
102
RTVSPost2010Prop53
 90
        2
102
RTVSPost2010PropOp53
 70
     1
102
RTVSPost2010Prop54
  1
strokes_ogs.tif
102
RTVSPost2010PropOp54
 70
     1
102
RTVSPost2010Prop55
280
     0
102
RTVSPost2010PropOp55
 70
     1
102
RTVSPost2010Prop56
140
1.0
102
RTVSPost2010PropOp56
 70
     1
102
RTVSPost2010Prop57
140
1.0
102
RTVSPost2010PropOp57
 70
     1
  0
XRECORD
  5
CB7
102
{ACAD_REACTORS
330
CB6
102
}
330
CB6
100
AcDbXrecord
280
     1
102
RTVSPropertyOp0
 70
     1
102
RTVSPropertyOp1
 70
     1
102
RTVSPropertyOp2
 70
     1
102
RTVSPropertyOp3
 70
     1
102
RTVSPropertyOp4
 70
     1
102
RTVSPropertyOp5
 70
     1
102
RTVSPropertyOp6
 70
     1
102
RTVSPropertyOp7
 70
     1
102
RTVSPropertyOp8
 70
     1
102
RTVSPropertyOp9
 70
     1
102
RTVSPropertyOp10
 70
     1
102
RTVSPropertyOp11
 70
     1
102
RTVSPropertyOp12
 70
     1
102
RTVSPropertyOp13
 70
     1
102
RTVSPropertyOp14
 70
     1
102
RTVSPropertyOp15
 70
     1
102
RTVSPropertyOp16
 70
     1
102
RTVSPropertyOp17
 70
     1
102
RTVSPropertyOp18
 70
     1
102
RTVSPropertyOp19
 70
     1
102
RTVSPropertyOp20
 70
     1
102
RTVSPropertyOp21
 70
     1
102
RTVSPropertyOp22
 70
     1
102
RTVSPropertyOp23
 70
     1
102
RTVSPropertyOp24
 70
     1
102
RTVSPropertyOp25
 70
     1
102
RTVSPropertyOp26
 70
     1
102
RTVSPropertyOp27
 70
     1
102
RTVSPropertyOp28
 70
     1
102
RTVSPropertyOp29
 70
     1
102
RTVSPropertyOp30
 70
     1
102
RTVSPropertyOp31
 70
     1
102
RTVSPropertyOp32
 70
     1
102
RTVSPropertyOp33
 70
     1
102
RTVSPropertyOp34
 70
     1
102
RTVSPropertyOp35
 70
     1
102
RTVSPropertyOp36
 70
     1
102
RTVSPropertyOp37
 70
     1
102
RTVSPropertyOp38
 70
     1
102
RTVSPropertyOp39
 70
     1
102
RTVSPropertyOp40
 70
     1
102
RTVSPropertyOp41
 70
     1
102
RTVSPropertyOp42
 70
     1
102
RTVSPropertyOp43
 70
     1
102
RTVSPropertyOp44
 70
     1
102
RTVSPropertyOp45
 70
     1
102
RTVSPropertyOp46
 70
     1
102
RTVSPropertyOp47
 70
     1
102
RTVSPropertyOp48
 70
     1
102
RTVSPropertyOp49
 70
     1
102
RTVSPropertyOp50
 70
     1
102
RTVSPropertyOp51
 70
     0
102
RTVSPropertyOp52
 70
     0
102
RTVSPropertyOp53
 70
     1
102
RTVSPropertyOp54
 70
     1
102
RTVSPropertyOp55
 70
     1
102
RTVSPropertyOp56
 70
     1
102
RTVSPropertyOp57
 70
     1
102
RTVSPost2010Prop28
280
     0
102
RTVSPost2010PropOp28
 70
     1
102
RTVSPost2010Prop29
280
     1
102
RTVSPost2010PropOp29
 70
     1
102
RTVSPost2010Prop30
280
     1
102
RTVSPost2010PropOp30
 70
     1
102
RTVSPost2010Prop31
280
     0
102
RTVSPost2010PropOp31
 70
     1
102
RTVSPost2010Prop32
280
     0
102
RTVSPost2010PropOp32
 70
     1
102
RTVSPost2010Prop33
280
     0
102
RTVSPost2010PropOp33
 70
     1
102
RTVSPost2010Prop34
280
     0
102
RTVSPost2010PropOp34
 70
     1
102
RTVSPost2010Prop35
280
     0
102
RTVSPost2010PropOp35
 70
     1
102
RTVSPost2010Prop36
280
     0
102
RTVSPost2010PropOp36
 70
     1
102
RTVSPost2010Prop37
 90
       50
102
RTVSPost2010PropOp37
 70
     1
102
RTVSPost2010Prop38
140
0.0
102
RTVSPost2010PropOp38
 70
     1
102
RTVSPost2010Prop39
140
1.0
102
RTVSPost2010PropOp39
 70
     1
102
RTVSPost2010Prop40
 90
        0
102
RTVSPost2010PropOp40
 70
     1
102
RTVSPost2010Prop41ColorIndex
 90
       18
102
RTVSPost2010Prop41ColorRGB
 90
        0
102
RTVSPost2010PropOp41
 70
     1
102
RTVSPost2010Prop42
 90
       50
102
RTVSPost2010PropOp42
 70
     1
102
RTVSPost2010Prop43
 90
        3
102
RTVSPost2010PropOp43
 70
     1
102
RTVSPost2010Prop44ColorIndex
 90
        5
102
RTVSPost2010Prop44ColorRGB
 90
      255
102
RTVSPost2010PropOp44
 70
     1
102
RTVSPost2010Prop45
280
     0
102
RTVSPost2010PropOp45
 70
     1
102
RTVSPost2010Prop46
 90
       50
102
RTVSPost2010PropOp46
 70
     1
102
RTVSPost2010Prop47
 90
       50
102
RTVSPost2010PropOp47
 70
     1
102
RTVSPost2010Prop48
 90
       50
102
RTVSPost2010PropOp48
 70
     1
102
RTVSPost2010Prop49
280
     0
102
RTVSPost2010PropOp49
 70
     1
102
RTVSPost2010Prop50
 90
       50
102
RTVSPost2010PropOp50
 70
     1
102
RTVSPost2010Prop51ColorIndex
 90
      256
102
RTVSPost2010Prop51ColorRGB
 90
-16777216
102
RTVSPost2010PropOp51
 70
     0
102
RTVSPost2010Prop52
140
1.0
102
RTVSPost2010PropOp52
 70
     0
102
RTVSPost2010Prop53
 90
        2
102
RTVSPost2010PropOp53
 70
     1
102
RTVSPost2010Prop54
  1
strokes_ogs.tif
102
RTVSPost2010PropOp54
 70
     1
102
RTVSPost2010Prop55
280
     0
102
RTVSPost2010PropOp55
 70
     1
102
RTVSPost2010Prop56
140
1.0
102
RTVSPost2010PropOp56
 70
     1
102
RTVSPost2010Prop57
140
1.0
102
RTVSPost2010PropOp57
 70
     1
  0
XRECORD
  5
CB9
102
{ACAD_REACTORS
330
CB8
102
}
330
CB8
100
AcDbXrecord
280
     1
102
RTVSPropertyOp0
 70
     1
102
RTVSPropertyOp1
 70
     1
102
RTVSPropertyOp2
 70
     1
102
RTVSPropertyOp3
 70
     1
102
RTVSPropertyOp4
 70
     1
102
RTVSPropertyOp5
 70
     1
102
RTVSPropertyOp6
 70
     1
102
RTVSPropertyOp7
 70
     1
102
RTVSPropertyOp8
 70
     1
102
RTVSPropertyOp9
 70
     1
102
RTVSPropertyOp10
 70
     1
102
RTVSPropertyOp11
 70
     1
102
RTVSPropertyOp12
 70
     1
102
RTVSPropertyOp13
 70
     1
102
RTVSPropertyOp14
 70
     1
102
RTVSPropertyOp15
 70
     1
102
RTVSPropertyOp16
 70
     1
102
RTVSPropertyOp17
 70
     1
102
RTVSPropertyOp18
 70
     1
102
RTVSPropertyOp19
 70
     1
102
RTVSPropertyOp20
 70
     1
102
RTVSPropertyOp21
 70
     1
102
RTVSPropertyOp22
 70
     1
102
RTVSPropertyOp23
 70
     1
102
RTVSPropertyOp24
 70
     1
102
RTVSPropertyOp25
 70
     1
102
RTVSPropertyOp26
 70
     1
102
RTVSPropertyOp27
 70
     1
102
RTVSPropertyOp28
 70
     1
102
RTVSPropertyOp29
 70
     1
102
RTVSPropertyOp30
 70
     1
102
RTVSPropertyOp31
 70
     1
102
RTVSPropertyOp32
 70
     1
102
RTVSPropertyOp33
 70
     1
102
RTVSPropertyOp34
 70
     1
102
RTVSPropertyOp35
 70
     1
102
RTVSPropertyOp36
 70
     1
102
RTVSPropertyOp37
 70
     1
102
RTVSPropertyOp38
 70
     1
102
RTVSPropertyOp39
 70
     1
102
RTVSPropertyOp40
 70
     1
102
RTVSPropertyOp41
 70
     1
102
RTVSPropertyOp42
 70
     1
102
RTVSPropertyOp43
 70
     1
102
RTVSPropertyOp44
 70
     1
102
RTVSPropertyOp45
 70
     1
102
RTVSPropertyOp46
 70
     1
102
RTVSPropertyOp47
 70
     1
102
RTVSPropertyOp48
 70
     1
102
RTVSPropertyOp49
 70
     1
102
RTVSPropertyOp50
 70
     1
102
RTVSPropertyOp51
 70
     0
102
RTVSPropertyOp52
 70
     0
102
RTVSPropertyOp53
 70
     1
102
RTVSPropertyOp54
 70
     1
102
RTVSPropertyOp55
 70
     1
102
RTVSPropertyOp56
 70
     1
102
RTVSPropertyOp57
 70
     1
102
RTVSPost2010Prop28
280
     0
102
RTVSPost2010PropOp28
 70
     1
102
RTVSPost2010Prop29
280
     1
102
RTVSPost2010PropOp29
 70
     1
102
RTVSPost2010Prop30
280
     1
102
RTVSPost2010PropOp30
 70
     1
102
RTVSPost2010Prop31
280
     0
102
RTVSPost2010PropOp31
 70
     1
102
RTVSPost2010Prop32
280
     0
102
RTVSPost2010PropOp32
 70
     1
102
RTVSPost2010Prop33
280
     0
102
RTVSPost2010PropOp33
 70
     1
102
RTVSPost2010Prop34
280
     0
102
RTVSPost2010PropOp34
 70
     1
102
RTVSPost2010Prop35
280
     0
102
RTVSPost2010PropOp35
 70
     1
102
RTVSPost2010Prop36
280
     0
102
RTVSPost2010PropOp36
 70
     1
102
RTVSPost2010Prop37
 90
       50
102
RTVSPost2010PropOp37
 70
     1
102
RTVSPost2010Prop38
140
0.0
102
RTVSPost2010PropOp38
 70
     1
102
RTVSPost2010Prop39
140
1.0
102
RTVSPost2010PropOp39
 70
     1
102
RTVSPost2010Prop40
 90
        0
102
RTVSPost2010PropOp40
 70
     1
102
RTVSPost2010Prop41ColorIndex
 90
       18
102
RTVSPost2010Prop41ColorRGB
 90
        0
102
RTVSPost2010PropOp41
 70
     1
102
RTVSPost2010Prop42
 90
       50
102
RTVSPost2010PropOp42
 70
     1
102
RTVSPost2010Prop43
 90
        3
102
RTVSPost2010PropOp43
 70
     1
102
RTVSPost2010Prop44ColorIndex
 90
        5
102
RTVSPost2010Prop44ColorRGB
 90
      255
102
RTVSPost2010PropOp44
 70
     1
102
RTVSPost2010Prop45
280
     0
102
RTVSPost2010PropOp45
 70
     1
102
RTVSPost2010Prop46
 90
       50
102
RTVSPost2010PropOp46
 70
     1
102
RTVSPost2010Prop47
 90
       50
102
RTVSPost2010PropOp47
 70
     1
102
RTVSPost2010Prop48
 90
       50
102
RTVSPost2010PropOp48
 70
     1
102
RTVSPost2010Prop49
280
     0
102
RTVSPost2010PropOp49
 70
     1
102
RTVSPost2010Prop50
 90
       50
102
RTVSPost2010PropOp50
 70
     1
102
RTVSPost2010Prop51ColorIndex
 90
      256
102
RTVSPost2010Prop51ColorRGB
 90
-16777216
102
RTVSPost2010PropOp51
 70
     0
102
RTVSPost2010Prop52
140
1.0
102
RTVSPost2010PropOp52
 70
     0
102
RTVSPost2010Prop53
 90
        2
102
RTVSPost2010PropOp53
 70
     1
102
RTVSPost2010Prop54
  1
strokes_ogs.tif
102
RTVSPost2010PropOp54
 70
     1
102
RTVSPost2010Prop55
280
     0
102
RTVSPost2010PropOp55
 70
     1
102
RTVSPost2010Prop56
140
1.0
102
RTVSPost2010PropOp56
 70
     1
102
RTVSPost2010Prop57
140
1.0
102
RTVSPost2010PropOp57
 70
     1
  0
XRECORD
  5
CBB
102
{ACAD_REACTORS
330
CBA
102
}
330
CBA
100
AcDbXrecord
280
     1
102
RTVSPropertyOp0
 70
     1
102
RTVSPropertyOp1
 70
     1
102
RTVSPropertyOp2
 70
     1
102
RTVSPropertyOp3
 70
     1
102
RTVSPropertyOp4
 70
     1
102
RTVSPropertyOp5
 70
     1
102
RTVSPropertyOp6
 70
     1
102
RTVSPropertyOp7
 70
     1
102
RTVSPropertyOp8
 70
     1
102
RTVSPropertyOp9
 70
     1
102
RTVSPropertyOp10
 70
     1
102
RTVSPropertyOp11
 70
     1
102
RTVSPropertyOp12
 70
     1
102
RTVSPropertyOp13
 70
     1
102
RTVSPropertyOp14
 70
     1
102
RTVSPropertyOp15
 70
     1
102
RTVSPropertyOp16
 70
     1
102
RTVSPropertyOp17
 70
     1
102
RTVSPropertyOp18
 70
     1
102
RTVSPropertyOp19
 70
     1
102
RTVSPropertyOp20
 70
     1
102
RTVSPropertyOp21
 70
     1
102
RTVSPropertyOp22
 70
     1
102
RTVSPropertyOp23
 70
     1
102
RTVSPropertyOp24
 70
     1
102
RTVSPropertyOp25
 70
     1
102
RTVSPropertyOp26
 70
     1
102
RTVSPropertyOp27
 70
     1
102
RTVSPropertyOp28
 70
     1
102
RTVSPropertyOp29
 70
     1
102
RTVSPropertyOp30
 70
     1
102
RTVSPropertyOp31
 70
     1
102
RTVSPropertyOp32
 70
     1
102
RTVSPropertyOp33
 70
     1
102
RTVSPropertyOp34
 70
     1
102
RTVSPropertyOp35
 70
     1
102
RTVSPropertyOp36
 70
     1
102
RTVSPropertyOp37
 70
     1
102
RTVSPropertyOp38
 70
     1
102
RTVSPropertyOp39
 70
     1
102
RTVSPropertyOp40
 70
     1
102
RTVSPropertyOp41
 70
     1
102
RTVSPropertyOp42
 70
     1
102
RTVSPropertyOp43
 70
     1
102
RTVSPropertyOp44
 70
     1
102
RTVSPropertyOp45
 70
     1
102
RTVSPropertyOp46
 70
     1
102
RTVSPropertyOp47
 70
     1
102
RTVSPropertyOp48
 70
     1
102
RTVSPropertyOp49
 70
     1
102
RTVSPropertyOp50
 70
     1
102
RTVSPropertyOp51
 70
     0
102
RTVSPropertyOp52
 70
     0
102
RTVSPropertyOp53
 70
     1
102
RTVSPropertyOp54
 70
     1
102
RTVSPropertyOp55
 70
     1
102
RTVSPropertyOp56
 70
     1
102
RTVSPropertyOp57
 70
     1
102
RTVSPost2010Prop28
280
     0
102
RTVSPost2010PropOp28
 70
     1
102
RTVSPost2010Prop29
280
     1
102
RTVSPost2010PropOp29
 70
     1
102
RTVSPost2010Prop30
280
     1
102
RTVSPost2010PropOp30
 70
     1
102
RTVSPost2010Prop31
280
     0
102
RTVSPost2010PropOp31
 70
     1
102
RTVSPost2010Prop32
280
     0
102
RTVSPost2010PropOp32
 70
     1
102
RTVSPost2010Prop33
280
     0
102
RTVSPost2010PropOp33
 70
     1
102
RTVSPost2010Prop34
280
     0
102
RTVSPost2010PropOp34
 70
     1
102
RTVSPost2010Prop35
280
     0
102
RTVSPost2010PropOp35
 70
     1
102
RTVSPost2010Prop36
280
     0
102
RTVSPost2010PropOp36
 70
     1
102
RTVSPost2010Prop37
 90
       50
102
RTVSPost2010PropOp37
 70
     1
102
RTVSPost2010Prop38
140
0.0
102
RTVSPost2010PropOp38
 70
     1
102
RTVSPost2010Prop39
140
1.0
102
RTVSPost2010PropOp39
 70
     1
102
RTVSPost2010Prop40
 90
        0
102
RTVSPost2010PropOp40
 70
     1
102
RTVSPost2010Prop41ColorIndex
 90
       18
102
RTVSPost2010Prop41ColorRGB
 90
        0
102
RTVSPost2010PropOp41
 70
     1
102
RTVSPost2010Prop42
 90
       50
102
RTVSPost2010PropOp42
 70
     1
102
RTVSPost2010Prop43
 90
        3
102
RTVSPost2010PropOp43
 70
     1
102
RTVSPost2010Prop44ColorIndex
 90
        5
102
RTVSPost2010Prop44ColorRGB
 90
      255
102
RTVSPost2010PropOp44
 70
     1
102
RTVSPost2010Prop45
280
     0
102
RTVSPost2010PropOp45
 70
     1
102
RTVSPost2010Prop46
 90
       50
102
RTVSPost2010PropOp46
 70
     1
102
RTVSPost2010Prop47
 90
       50
102
RTVSPost2010PropOp47
 70
     1
102
RTVSPost2010Prop48
 90
       50
102
RTVSPost2010PropOp48
 70
     1
102
RTVSPost2010Prop49
280
     0
102
RTVSPost2010PropOp49
 70
     1
102
RTVSPost2010Prop50
 90
       50
102
RTVSPost2010PropOp50
 70
     1
102
RTVSPost2010Prop51ColorIndex
 90
      256
102
RTVSPost2010Prop51ColorRGB
 90
-16777216
102
RTVSPost2010PropOp51
 70
     0
102
RTVSPost2010Prop52
140
1.0
102
RTVSPost2010PropOp52
 70
     0
102
RTVSPost2010Prop53
 90
        2
102
RTVSPost2010PropOp53
 70
     1
102
RTVSPost2010Prop54
  1
strokes_ogs.tif
102
RTVSPost2010PropOp54
 70
     1
102
RTVSPost2010Prop55
280
     0
102
RTVSPost2010PropOp55
 70
     1
102
RTVSPost2010Prop56
140
1.0
102
RTVSPost2010PropOp56
 70
     1
102
RTVSPost2010Prop57
140
1.0
102
RTVSPost2010PropOp57
 70
     1
  0
XRECORD
  5
CBD
102
{ACAD_REACTORS
330
CBC
102
}
330
CBC
100
AcDbXrecord
280
     1
102
RTVSPropertyOp0
 70
     1
102
RTVSPropertyOp1
 70
     1
102
RTVSPropertyOp2
 70
     1
102
RTVSPropertyOp3
 70
     1
102
RTVSPropertyOp4
 70
     1
102
RTVSPropertyOp5
 70
     1
102
RTVSPropertyOp6
 70
     1
102
RTVSPropertyOp7
 70
     1
102
RTVSPropertyOp8
 70
     1
102
RTVSPropertyOp9
 70
     1
102
RTVSPropertyOp10
 70
     1
102
RTVSPropertyOp11
 70
     1
102
RTVSPropertyOp12
 70
     1
102
RTVSPropertyOp13
 70
     1
102
RTVSPropertyOp14
 70
     1
102
RTVSPropertyOp15
 70
     1
102
RTVSPropertyOp16
 70
     1
102
RTVSPropertyOp17
 70
     1
102
RTVSPropertyOp18
 70
     1
102
RTVSPropertyOp19
 70
     1
102
RTVSPropertyOp20
 70
     1
102
RTVSPropertyOp21
 70
     1
102
RTVSPropertyOp22
 70
     1
102
RTVSPropertyOp23
 70
     1
102
RTVSPropertyOp24
 70
     1
102
RTVSPropertyOp25
 70
     1
102
RTVSPropertyOp26
 70
     1
102
RTVSPropertyOp27
 70
     1
102
RTVSPropertyOp28
 70
     1
102
RTVSPropertyOp29
 70
     1
102
RTVSPropertyOp30
 70
     1
102
RTVSPropertyOp31
 70
     1
102
RTVSPropertyOp32
 70
     1
102
RTVSPropertyOp33
 70
     1
102
RTVSPropertyOp34
 70
     1
102
RTVSPropertyOp35
 70
     1
102
RTVSPropertyOp36
 70
     1
102
RTVSPropertyOp37
 70
     1
102
RTVSPropertyOp38
 70
     1
102
RTVSPropertyOp39
 70
     1
102
RTVSPropertyOp40
 70
     1
102
RTVSPropertyOp41
 70
     1
102
RTVSPropertyOp42
 70
     1
102
RTVSPropertyOp43
 70
     1
102
RTVSPropertyOp44
 70
     1
102
RTVSPropertyOp45
 70
     1
102
RTVSPropertyOp46
 70
     1
102
RTVSPropertyOp47
 70
     1
102
RTVSPropertyOp48
 70
     1
102
RTVSPropertyOp49
 70
     1
102
RTVSPropertyOp50
 70
     1
102
RTVSPropertyOp51
 70
     0
102
RTVSPropertyOp52
 70
     0
102
RTVSPropertyOp53
 70
     1
102
RTVSPropertyOp54
 70
     1
102
RTVSPropertyOp55
 70
     1
102
RTVSPropertyOp56
 70
     1
102
RTVSPropertyOp57
 70
     1
102
RTVSPost2010Prop28
280
     0
102
RTVSPost2010PropOp28
 70
     1
102
RTVSPost2010Prop29
280
     1
102
RTVSPost2010PropOp29
 70
     1
102
RTVSPost2010Prop30
280
     1
102
RTVSPost2010PropOp30
 70
     1
102
RTVSPost2010Prop31
280
     0
102
RTVSPost2010PropOp31
 70
     1
102
RTVSPost2010Prop32
280
     0
102
RTVSPost2010PropOp32
 70
     1
102
RTVSPost2010Prop33
280
     0
102
RTVSPost2010PropOp33
 70
     1
102
RTVSPost2010Prop34
280
     0
102
RTVSPost2010PropOp34
 70
     1
102
RTVSPost2010Prop35
280
     0
102
RTVSPost2010PropOp35
 70
     1
102
RTVSPost2010Prop36
280
     0
102
RTVSPost2010PropOp36
 70
     1
102
RTVSPost2010Prop37
 90
       50
102
RTVSPost2010PropOp37
 70
     1
102
RTVSPost2010Prop38
140
0.0
102
RTVSPost2010PropOp38
 70
     1
102
RTVSPost2010Prop39
140
1.0
102
RTVSPost2010PropOp39
 70
     1
102
RTVSPost2010Prop40
 90
        0
102
RTVSPost2010PropOp40
 70
     1
102
RTVSPost2010Prop41ColorIndex
 90
       18
102
RTVSPost2010Prop41ColorRGB
 90
        0
102
RTVSPost2010PropOp41
 70
     1
102
RTVSPost2010Prop42
 90
       50
102
RTVSPost2010PropOp42
 70
     1
102
RTVSPost2010Prop43
 90
        3
102
RTVSPost2010PropOp43
 70
     1
102
RTVSPost2010Prop44ColorIndex
 90
        5
102
RTVSPost2010Prop44ColorRGB
 90
      255
102
RTVSPost2010PropOp44
 70
     1
102
RTVSPost2010Prop45
280
     0
102
RTVSPost2010PropOp45
 70
     1
102
RTVSPost2010Prop46
 90
       50
102
RTVSPost2010PropOp46
 70
     1
102
RTVSPost2010Prop47
 90
       50
102
RTVSPost2010PropOp47
 70
     1
102
RTVSPost2010Prop48
 90
       50
102
RTVSPost2010PropOp48
 70
     1
102
RTVSPost2010Prop49
280
     0
102
RTVSPost2010PropOp49
 70
     1
102
RTVSPost2010Prop50
 90
       50
102
RTVSPost2010PropOp50
 70
     1
102
RTVSPost2010Prop51ColorIndex
 90
      256
102
RTVSPost2010Prop51ColorRGB
 90
-16777216
102
RTVSPost2010PropOp51
 70
     0
102
RTVSPost2010Prop52
140
1.0
102
RTVSPost2010PropOp52
 70
     0
102
RTVSPost2010Prop53
 90
        2
102
RTVSPost2010PropOp53
 70
     1
102
RTVSPost2010Prop54
  1
strokes_ogs.tif
102
RTVSPost2010PropOp54
 70
     1
102
RTVSPost2010Prop55
280
     0
102
RTVSPost2010PropOp55
 70
     1
102
RTVSPost2010Prop56
140
1.0
102
RTVSPost2010PropOp56
 70
     1
102
RTVSPost2010Prop57
140
1.0
102
RTVSPost2010PropOp57
 70
     1
  0
XRECORD
  5
CBF
102
{ACAD_REACTORS
330
CBE
102
}
330
CBE
100
AcDbXrecord
280
     1
102
RTVSPropertyOp0
 70
     1
102
RTVSPropertyOp1
 70
     1
102
RTVSPropertyOp2
 70
     1
102
RTVSPropertyOp3
 70
     1
102
RTVSPropertyOp4
 70
     1
102
RTVSPropertyOp5
 70
     1
102
RTVSPropertyOp6
 70
     1
102
RTVSPropertyOp7
 70
     1
102
RTVSPropertyOp8
 70
     1
102
RTVSPropertyOp9
 70
     1
102
RTVSPropertyOp10
 70
     1
102
RTVSPropertyOp11
 70
     1
102
RTVSPropertyOp12
 70
     1
102
RTVSPropertyOp13
 70
     1
102
RTVSPropertyOp14
 70
     1
102
RTVSPropertyOp15
 70
     1
102
RTVSPropertyOp16
 70
     1
102
RTVSPropertyOp17
 70
     1
102
RTVSPropertyOp18
 70
     1
102
RTVSPropertyOp19
 70
     1
102
RTVSPropertyOp20
 70
     1
102
RTVSPropertyOp21
 70
     1
102
RTVSPropertyOp22
 70
     1
102
RTVSPropertyOp23
 70
     1
102
RTVSPropertyOp24
 70
     1
102
RTVSPropertyOp25
 70
     1
102
RTVSPropertyOp26
 70
     1
102
RTVSPropertyOp27
 70
     1
102
RTVSPropertyOp28
 70
     1
102
RTVSPropertyOp29
 70
     1
102
RTVSPropertyOp30
 70
     1
102
RTVSPropertyOp31
 70
     1
102
RTVSPropertyOp32
 70
     1
102
RTVSPropertyOp33
 70
     1
102
RTVSPropertyOp34
 70
     1
102
RTVSPropertyOp35
 70
     1
102
RTVSPropertyOp36
 70
     1
102
RTVSPropertyOp37
 70
     1
102
RTVSPropertyOp38
 70
     1
102
RTVSPropertyOp39
 70
     1
102
RTVSPropertyOp40
 70
     1
102
RTVSPropertyOp41
 70
     1
102
RTVSPropertyOp42
 70
     1
102
RTVSPropertyOp43
 70
     1
102
RTVSPropertyOp44
 70
     1
102
RTVSPropertyOp45
 70
     1
102
RTVSPropertyOp46
 70
     1
102
RTVSPropertyOp47
 70
     1
102
RTVSPropertyOp48
 70
     1
102
RTVSPropertyOp49
 70
     1
102
RTVSPropertyOp50
 70
     1
102
RTVSPropertyOp51
 70
     0
102
RTVSPropertyOp52
 70
     0
102
RTVSPropertyOp53
 70
     1
102
RTVSPropertyOp54
 70
     1
102
RTVSPropertyOp55
 70
     1
102
RTVSPropertyOp56
 70
     1
102
RTVSPropertyOp57
 70
     1
102
RTVSPost2010Prop28
280
     0
102
RTVSPost2010PropOp28
 70
     1
102
RTVSPost2010Prop29
280
     1
102
RTVSPost2010PropOp29
 70
     1
102
RTVSPost2010Prop30
280
     1
102
RTVSPost2010PropOp30
 70
     1
102
RTVSPost2010Prop31
280
     0
102
RTVSPost2010PropOp31
 70
     1
102
RTVSPost2010Prop32
280
     0
102
RTVSPost2010PropOp32
 70
     1
102
RTVSPost2010Prop33
280
     0
102
RTVSPost2010PropOp33
 70
     1
102
RTVSPost2010Prop34
280
     0
102
RTVSPost2010PropOp34
 70
     1
102
RTVSPost2010Prop35
280
     0
102
RTVSPost2010PropOp35
 70
     1
102
RTVSPost2010Prop36
280
     0
102
RTVSPost2010PropOp36
 70
     1
102
RTVSPost2010Prop37
 90
       50
102
RTVSPost2010PropOp37
 70
     1
102
RTVSPost2010Prop38
140
0.0
102
RTVSPost2010PropOp38
 70
     1
102
RTVSPost2010Prop39
140
1.0
102
RTVSPost2010PropOp39
 70
     1
102
RTVSPost2010Prop40
 90
        0
102
RTVSPost2010PropOp40
 70
     1
102
RTVSPost2010Prop41ColorIndex
 90
       18
102
RTVSPost2010Prop41ColorRGB
 90
        0
102
RTVSPost2010PropOp41
 70
     1
102
RTVSPost2010Prop42
 90
       50
102
RTVSPost2010PropOp42
 70
     1
102
RTVSPost2010Prop43
 90
        3
102
RTVSPost2010PropOp43
 70
     1
102
RTVSPost2010Prop44ColorIndex
 90
        5
102
RTVSPost2010Prop44ColorRGB
 90
      255
102
RTVSPost2010PropOp44
 70
     1
102
RTVSPost2010Prop45
280
     0
102
RTVSPost2010PropOp45
 70
     1
102
RTVSPost2010Prop46
 90
       50
102
RTVSPost2010PropOp46
 70
     1
102
RTVSPost2010Prop47
 90
       50
102
RTVSPost2010PropOp47
 70
     1
102
RTVSPost2010Prop48
 90
       50
102
RTVSPost2010PropOp48
 70
     1
102
RTVSPost2010Prop49
280
     0
102
RTVSPost2010PropOp49
 70
     1
102
RTVSPost2010Prop50
 90
       50
102
RTVSPost2010PropOp50
 70
     1
102
RTVSPost2010Prop51ColorIndex
 90
      256
102
RTVSPost2010Prop51ColorRGB
 90
-16777216
102
RTVSPost2010PropOp51
 70
     0
102
RTVSPost2010Prop52
140
1.0
102
RTVSPost2010PropOp52
 70
     0
102
RTVSPost2010Prop53
 90
        2
102
RTVSPost2010PropOp53
 70
     1
102
RTVSPost2010Prop54
  1
strokes_ogs.tif
102
RTVSPost2010PropOp54
 70
     1
102
RTVSPost2010Prop55
280
     0
102
RTVSPost2010PropOp55
 70
     1
102
RTVSPost2010Prop56
140
1.0
102
RTVSPost2010PropOp56
 70
     1
102
RTVSPost2010Prop57
140
1.0
102
RTVSPost2010PropOp57
 70
     1
  0
XRECORD
  5
CC1
102
{ACAD_REACTORS
330
CC0
102
}
330
CC0
100
AcDbXrecord
280
     1
102
RTVSPropertyOp0
 70
     1
102
RTVSPropertyOp1
 70
     1
102
RTVSPropertyOp2
 70
     1
102
RTVSPropertyOp3
 70
     1
102
RTVSPropertyOp4
 70
     1
102
RTVSPropertyOp5
 70
     1
102
RTVSPropertyOp6
 70
     1
102
RTVSPropertyOp7
 70
     1
102
RTVSPropertyOp8
 70
     1
102
RTVSPropertyOp9
 70
     1
102
RTVSPropertyOp10
 70
     1
102
RTVSPropertyOp11
 70
     1
102
RTVSPropertyOp12
 70
     1
102
RTVSPropertyOp13
 70
     1
102
RTVSPropertyOp14
 70
     1
102
RTVSPropertyOp15
 70
     1
102
RTVSPropertyOp16
 70
     1
102
RTVSPropertyOp17
 70
     1
102
RTVSPropertyOp18
 70
     1
102
RTVSPropertyOp19
 70
     1
102
RTVSPropertyOp20
 70
     1
102
RTVSPropertyOp21
 70
     1
102
RTVSPropertyOp22
 70
     1
102
RTVSPropertyOp23
 70
     1
102
RTVSPropertyOp24
 70
     1
102
RTVSPropertyOp25
 70
     1
102
RTVSPropertyOp26
 70
     1
102
RTVSPropertyOp27
 70
     1
102
RTVSPropertyOp28
 70
     1
102
RTVSPropertyOp29
 70
     1
102
RTVSPropertyOp30
 70
     1
102
RTVSPropertyOp31
 70
     1
102
RTVSPropertyOp32
 70
     1
102
RTVSPropertyOp33
 70
     1
102
RTVSPropertyOp34
 70
     1
102
RTVSPropertyOp35
 70
     1
102
RTVSPropertyOp36
 70
     1
102
RTVSPropertyOp37
 70
     1
102
RTVSPropertyOp38
 70
     1
102
RTVSPropertyOp39
 70
     1
102
RTVSPropertyOp40
 70
     1
102
RTVSPropertyOp41
 70
     1
102
RTVSPropertyOp42
 70
     1
102
RTVSPropertyOp43
 70
     1
102
RTVSPropertyOp44
 70
     1
102
RTVSPropertyOp45
 70
     1
102
RTVSPropertyOp46
 70
     1
102
RTVSPropertyOp47
 70
     1
102
RTVSPropertyOp48
 70
     1
102
RTVSPropertyOp49
 70
     1
102
RTVSPropertyOp50
 70
     1
102
RTVSPropertyOp51
 70
     0
102
RTVSPropertyOp52
 70
     0
102
RTVSPropertyOp53
 70
     1
102
RTVSPropertyOp54
 70
     1
102
RTVSPropertyOp55
 70
     1
102
RTVSPropertyOp56
 70
     1
102
RTVSPropertyOp57
 70
     1
102
RTVSPost2010Prop28
280
     0
102
RTVSPost2010PropOp28
 70
     1
102
RTVSPost2010Prop29
280
     1
102
RTVSPost2010PropOp29
 70
     1
102
RTVSPost2010Prop30
280
     1
102
RTVSPost2010PropOp30
 70
     1
102
RTVSPost2010Prop31
280
     0
102
RTVSPost2010PropOp31
 70
     1
102
RTVSPost2010Prop32
280
     0
102
RTVSPost2010PropOp32
 70
     1
102
RTVSPost2010Prop33
280
     0
102
RTVSPost2010PropOp33
 70
     1
102
RTVSPost2010Prop34
280
     0
102
RTVSPost2010PropOp34
 70
     1
102
RTVSPost2010Prop35
280
     0
102
RTVSPost2010PropOp35
 70
     1
102
RTVSPost2010Prop36
280
     0
102
RTVSPost2010PropOp36
 70
     1
102
RTVSPost2010Prop37
 90
       50
102
RTVSPost2010PropOp37
 70
     1
102
RTVSPost2010Prop38
140
0.0
102
RTVSPost2010PropOp38
 70
     1
102
RTVSPost2010Prop39
140
1.0
102
RTVSPost2010PropOp39
 70
     1
102
RTVSPost2010Prop40
 90
        0
102
RTVSPost2010PropOp40
 70
     1
102
RTVSPost2010Prop41ColorIndex
 90
       18
102
RTVSPost2010Prop41ColorRGB
 90
        0
102
RTVSPost2010PropOp41
 70
     1
102
RTVSPost2010Prop42
 90
       50
102
RTVSPost2010PropOp42
 70
     1
102
RTVSPost2010Prop43
 90
        3
102
RTVSPost2010PropOp43
 70
     1
102
RTVSPost2010Prop44ColorIndex
 90
        5
102
RTVSPost2010Prop44ColorRGB
 90
      255
102
RTVSPost2010PropOp44
 70
     1
102
RTVSPost2010Prop45
280
     0
102
RTVSPost2010PropOp45
 70
     1
102
RTVSPost2010Prop46
 90
       50
102
RTVSPost2010PropOp46
 70
     1
102
RTVSPost2010Prop47
 90
       50
102
RTVSPost2010PropOp47
 70
     1
102
RTVSPost2010Prop48
 90
       50
102
RTVSPost2010PropOp48
 70
     1
102
RTVSPost2010Prop49
280
     0
102
RTVSPost2010PropOp49
 70
     1
102
RTVSPost2010Prop50
 90
       50
102
RTVSPost2010PropOp50
 70
     1
102
RTVSPost2010Prop51ColorIndex
 90
      256
102
RTVSPost2010Prop51ColorRGB
 90
-16777216
102
RTVSPost2010PropOp51
 70
     0
102
RTVSPost2010Prop52
140
1.0
102
RTVSPost2010PropOp52
 70
     0
102
RTVSPost2010Prop53
 90
        2
102
RTVSPost2010PropOp53
 70
     1
102
RTVSPost2010Prop54
  1
strokes_ogs.tif
102
RTVSPost2010PropOp54
 70
     1
102
RTVSPost2010Prop55
280
     0
102
RTVSPost2010PropOp55
 70
     1
102
RTVSPost2010Prop56
140
1.0
102
RTVSPost2010PropOp56
 70
     1
102
RTVSPost2010Prop57
140
1.0
102
RTVSPost2010PropOp57
 70
     1
  0
ENDSEC
  0
EOF
