  0
SECTION
  2
HEADER
  9
$ACADVER
  1
AC1015
  9
$ACADMAINTVER
 70
     6
  9
$DWGCODEPAGE
  3
ANSI_932
  9
$INSBASE
 10
0.0
 20
0.0
 30
0.0
  9
$EXTMIN
 10
-138.5
 20
-90.0
 30
0.0
  9
$EXTMAX
 10
138.5
 20
98.472617
 30
0.0
  9
$LIMMIN
 10
-138.501
 20
-90.138917
  9
$LIMMAX
 10
138.510415
 20
98.47361800000002
  9
$ORTHOMODE
 70
     1
  9
$REGENMODE
 70
     1
  9
$FILLMODE
 70
     1
  9
$QTEXTMODE
 70
     0
  9
$MIRRTEXT
 70
     0
  9
$LTSCALE
 40
4.616823999999998
  9
$ATTMODE
 70
     1
  9
$TEXTSIZE
 40
3.2
  9
$TRACEWID
 40
0.05
  9
$TEXTSTYLE
  7
高3.2
  9
$CLAYER
  8
0
  9
$CELTYPE
  6
CONTINUOUS
  9
$CECOLOR
 62
   256
  9
$CELTSCALE
 40
1.0
  9
$DISPSILH
 70
     0
  9
$DIMSCALE
 40
1.0
  9
$DIMASZ
 40
2.5
  9
$DIMEXO
 40
0.25
  9
$DIMDLI
 40
0.2
  9
$DIMRND
 40
0.0
  9
$DIMDLE
 40
0.0
  9
$DIMEXE
 40
1.25
  9
$DIMTP
 40
0.0
  9
$DIMTM
 40
0.0
  9
$DIMTXT
 40
3.0
  9
$DIMCEN
 40
0.0
  9
$DIMTSZ
 40
0.0
  9
$DIMTOL
 70
     0
  9
$DIMLIM
 70
     0
  9
$DIMTIH
 70
     0
  9
$DIMTOH
 70
     0
  9
$DIMSE1
 70
     0
  9
$DIMSE2
 70
     0
  9
$DIMTAD
 70
     3
  9
$DIMZIN
 70
     8
  9
$DIMBLK
  1
Open30
  9
$DIMASO
 70
     1
  9
$DIMSHO
 70
     1
  9
$DIMPOST
  1

  9
$DIMAPOST
  1

  9
$DIMALT
 70
     0
  9
$DIMALTD
 70
     3
  9
$DIMALTF
 40
0.03937007874016
  9
$DIMLFAC
 40
1.0
  9
$DIMTOFL
 70
     1
  9
$DIMTVP
 40
0.0
  9
$DIMTIX
 70
     0
  9
$DIMSOXD
 70
     0
  9
$DIMSAH
 70
     0
  9
$DIMBLK1
  1

  9
$DIMBLK2
  1

  9
$DIMSTYLE
  2
1：1
  9
$DIMCLRD
 70
     0
  9
$DIMCLRE
 70
     0
  9
$DIMCLRT
 70
     4
  9
$DIMTFAC
 40
1.0
  9
$DIMGAP
 40
0.625
  9
$DIMJUST
 70
     0
  9
$DIMSD1
 70
     0
  9
$DIMSD2
 70
     0
  9
$DIMTOLJ
 70
     0
  9
$DIMTZIN
 70
     8
  9
$DIMALTZ
 70
     0
  9
$DIMALTTZ
 70
     0
  9
$DIMUPT
 70
     1
  9
$DIMDEC
 70
     2
  9
$DIMTDEC
 70
     2
  9
$DIMALTU
 70
     2
  9
$DIMALTTD
 70
     3
  9
$DIMTXSTY
  7
STANDARD
  9
$DIMAUNIT
 70
     0
  9
$DIMADEC
 70
     1
  9
$DIMALTRND
 40
0.0
  9
$DIMAZIN
 70
     2
  9
$DIMDSEP
 70
    46
  9
$DIMATFIT
 70
     0
  9
$DIMFRAC
 70
     0
  9
$DIMLDRBLK
  1
Open30
  9
$DIMLUNIT
 70
     2
  9
$DIMLWD
 70
    -2
  9
$DIMLWE
 70
    -2
  9
$DIMTMOVE
 70
     0
  9
$LUNITS
 70
     2
  9
$LUPREC
 70
     4
  9
$SKETCHINC
 40
0.1
  9
$FILLETRAD
 40
4.0
  9
$AUNITS
 70
     0
  9
$AUPREC
 70
     0
  9
$MENU
  1
.
  9
$ELEVATION
 40
0.0
  9
$PELEVATION
 40
0.0
  9
$THICKNESS
 40
0.0
  9
$LIMCHECK
 70
     0
  9
$CHAMFERA
 40
0.0
  9
$CHAMFERB
 40
0.0
  9
$CHAMFERC
 40
0.0
  9
$CHAMFERD
 40
0.0
  9
$SKPOLY
 70
     0
  9
$TDCREATE
 40
2456258.742566713
  9
$TDUCREATE
 40
2456258.367566713
  9
$TDUPDATE
 40
2460074.761717442
  9
$TDUUPDATE
 40
2460074.386717442
  9
$TDINDWG
 40
0.059872581
  9
$TDUSRTIMER
 40
0.0598607523
  9
$USRTIMER
 70
     1
  9
$ANGBASE
 50
0.0
  9
$ANGDIR
 70
     0
  9
$PDMODE
 70
     0
  9
$PDSIZE
 40
0.0
  9
$PLINEWID
 40
0.0
  9
$SPLFRAME
 70
     0
  9
$SPLINETYPE
 70
     6
  9
$SPLINESEGS
 70
     8
  9
$HANDSEED
  5
917
  9
$SURFTAB1
 70
     6
  9
$SURFTAB2
 70
     6
  9
$SURFTYPE
 70
     6
  9
$SURFU
 70
     6
  9
$SURFV
 70
     6
  9
$UCSBASE
  2

  9
$UCSNAME
  2

  9
$UCSORG
 10
0.0
 20
0.0
 30
0.0
  9
$UCSXDIR
 10
1.0
 20
0.0
 30
0.0
  9
$UCSYDIR
 10
0.0
 20
1.0
 30
0.0
  9
$UCSORTHOREF
  2

  9
$UCSORTHOVIEW
 70
     0
  9
$UCSORGTOP
 10
0.0
 20
0.0
 30
0.0
  9
$UCSORGBOTTOM
 10
0.0
 20
0.0
 30
0.0
  9
$UCSORGLEFT
 10
0.0
 20
0.0
 30
0.0
  9
$UCSORGRIGHT
 10
0.0
 20
0.0
 30
0.0
  9
$UCSORGFRONT
 10
0.0
 20
0.0
 30
0.0
  9
$UCSORGBACK
 10
0.0
 20
0.0
 30
0.0
  9
$PUCSBASE
  2

  9
$PUCSNAME
  2

  9
$PUCSORG
 10
0.0
 20
0.0
 30
0.0
  9
$PUCSXDIR
 10
1.0
 20
0.0
 30
0.0
  9
$PUCSYDIR
 10
0.0
 20
1.0
 30
0.0
  9
$PUCSORTHOREF
  2

  9
$PUCSORTHOVIEW
 70
     0
  9
$PUCSORGTOP
 10
0.0
 20
0.0
 30
0.0
  9
$PUCSORGBOTTOM
 10
0.0
 20
0.0
 30
0.0
  9
$PUCSORGLEFT
 10
0.0
 20
0.0
 30
0.0
  9
$PUCSORGRIGHT
 10
0.0
 20
0.0
 30
0.0
  9
$PUCSORGFRONT
 10
0.0
 20
0.0
 30
0.0
  9
$PUCSORGBACK
 10
0.0
 20
0.0
 30
0.0
  9
$USERI1
 70
     0
  9
$USERI2
 70
     0
  9
$USERI3
 70
     0
  9
$USERI4
 70
     0
  9
$USERI5
 70
     0
  9
$USERR1
 40
0.0
  9
$USERR2
 40
0.0
  9
$USERR3
 40
0.0
  9
$USERR4
 40
0.0
  9
$USERR5
 40
0.0
  9
$WORLDVIEW
 70
     1
  9
$SHADEDGE
 70
     3
  9
$SHADEDIF
 70
    70
  9
$TILEMODE
 70
     1
  9
$MAXACTVP
 70
    64
  9
$PINSBASE
 10
0.0
 20
0.0
 30
0.0
  9
$PLIMCHECK
 70
     0
  9
$PEXTMIN
 10
1.000000000000000E+20
 20
1.000000000000000E+20
 30
1.000000000000000E+20
  9
$PEXTMAX
 10
-1.000000000000000E+20
 20
-1.000000000000000E+20
 30
-1.000000000000000E+20
  9
$PLIMMIN
 10
0.0
 20
0.0
  9
$PLIMMAX
 10
12.0
 20
9.0
  9
$UNITMODE
 70
     0
  9
$VISRETAIN
 70
     1
  9
$PLINEGEN
 70
     0
  9
$PSLTSCALE
 70
     1
  9
$TREEDEPTH
 70
  3020
  9
$CMLSTYLE
  2
Standard
  9
$CMLJUST
 70
     0
  9
$CMLSCALE
 40
1.0
  9
$PROXYGRAPHICS
 70
     1
  9
$MEASUREMENT
 70
     0
  9
$CELWEIGHT
370
    -1
  9
$ENDCAPS
280
     0
  9
$JOINSTYLE
280
     0
  9
$LWDISPLAY
290
     0
  9
$INSUNITS
 70
     0
  9
$HYPERLINKBASE
  1

  9
$STYLESHEET
  1
n-plot.ctb
  9
$XEDIT
290
     1
  9
$CEPSNTYPE
380
     0
  9
$PSTYLEMODE
290
     1
  9
$FINGERPRINTGUID
  2
{D39499FC-011E-49AD-A67A-53F5681A5ACA}
  9
$VERSIONGUID
  2
{FD127B5D-2639-4EDD-A545-976A23F68EA1}
  9
$EXTNAMES
290
     1
  9
$PSVPSCALE
 40
0.0
  9
$OLESTARTUP
290
     0
  0
ENDSEC
  0
SECTION
  2
CLASSES
  0
CLASS
  1
ACDBDICTIONARYWDFLT
  2
AcDbDictionaryWithDefault
  3
ObjectDBX Classes
 90
        0
280
     0
281
     0
  0
CLASS
  1
MATERIAL
  2
AcDbMaterial
  3
ObjectDBX Classes
 90
     1153
280
     0
281
     0
  0
CLASS
  1
VISUALSTYLE
  2
AcDbVisualStyle
  3
ObjectDBX Classes
 90
     4095
280
     0
281
     0
  0
CLASS
  1
TABLESTYLE
  2
AcDbTableStyle
  3
ObjectDBX Classes
 90
     4095
280
     0
281
     0
  0
CLASS
  1
SORTENTSTABLE
  2
AcDbSortentsTable
  3
ObjectDBX Classes
 90
        0
280
     0
281
     0
  0
CLASS
  1
DICTIONARYVAR
  2
AcDbDictionaryVar
  3
ObjectDBX Classes
 90
        0
280
     0
281
     0
  0
CLASS
  1
SCALE
  2
AcDbScale
  3
ObjectDBX Classes
 90
     1153
280
     0
281
     0
  0
CLASS
  1
MLEADERSTYLE
  2
AcDbMLeaderStyle
  3
ACDB_MLEADERSTYLE_CLASS
 90
     4095
280
     0
281
     0
  0
CLASS
  1
CELLSTYLEMAP
  2
AcDbCellStyleMap
  3
ObjectDBX Classes
 90
     1152
280
     0
281
     0
  0
CLASS
  1
ACDBPLACEHOLDER
  2
AcDbPlaceHolder
  3
ObjectDBX Classes
 90
        0
280
     0
281
     0
  0
CLASS
  1
LAYOUT
  2
AcDbLayout
  3
ObjectDBX Classes
 90
        0
280
     0
281
     0
  0
ENDSEC
  0
SECTION
  2
TABLES
  0
TABLE
  2
VPORT
  5
8
102
{ACAD_XDICTIONARY
360
8D8
102
}
330
0
100
AcDbSymbolTable
 70
     1
  0
VPORT
  5
56
330
8
100
AcDbSymbolTableRecord
100
AcDbViewportTableRecord
  2
*Active
 70
     0
 10
0.0
 20
0.0
 11
1.0
 21
1.0
 12
0.0000000000000195
 22
4.236308500000014
 13
0.0
 23
0.0
 14
1.0
 24
1.0
 15
0.0
 25
0.0
 16
0.0
 26
0.0
 36
1.0
 17
0.0
 27
0.0
 37
0.0
 40
267.1880108991825
 41
1.048022598870056
 42
50.0
 43
0.0
 44
0.0
 50
0.0
 51
0.0
 71
     0
 72
  1000
 73
     1
 74
     1
 75
     0
 76
     0
 77
     0
 78
     0
281
     0
 65
     1
110
0.0
120
0.0
130
0.0
111
1.0
121
0.0
131
0.0
112
0.0
122
1.0
132
0.0
 79
     0
146
0.0
  0
ENDTAB
  0
TABLE
  2
LTYPE
  5
5
330
0
100
AcDbSymbolTable
 70
     3
  0
LTYPE
  5
28
330
5
100
AcDbSymbolTableRecord
100
AcDbLinetypeTableRecord
  2
ByBlock
 70
     0
  3

 72
    65
 73
     0
 40
0.0
  0
LTYPE
  5
29
330
5
100
AcDbSymbolTableRecord
100
AcDbLinetypeTableRecord
  2
ByLayer
 70
     0
  3

 72
    65
 73
     0
 40
0.0
  0
LTYPE
  5
2A
330
5
100
AcDbSymbolTableRecord
100
AcDbLinetypeTableRecord
  2
CONTINUOUS
 70
     0
  3
Solid-line
 72
    65
 73
     0
 40
0.0
  0
LTYPE
  5
3D
330
5
100
AcDbSymbolTableRecord
100
AcDbLinetypeTableRecord
  2
CENTER
 70
     0
  3
CENTER
 72
    65
 73
     4
 40
2.0
 49
1.25
 74
     0
 49
-0.25
 74
     0
 49
0.25
 74
     0
 49
-0.25
 74
     0
  0
LTYPE
  5
43
330
5
100
AcDbSymbolTableRecord
100
AcDbLinetypeTableRecord
  2
DASHED
 70
     0
  3
DASHED
 72
    65
 73
     2
 40
0.75
 49
0.5
 74
     0
 49
-0.25
 74
     0
  0
ENDTAB
  0
TABLE
  2
LAYER
  5
2
102
{ACAD_XDICTIONARY
360
2E8
102
}
330
0
100
AcDbSymbolTable
 70
     2
  0
LAYER
  5
25
102
{ACAD_XDICTIONARY
360
452
102
}
330
2
100
AcDbSymbolTableRecord
100
AcDbLayerTableRecord
  2
0
 70
     0
 62
     7
  6
CONTINUOUS
370
    -3
390
F
  0
LAYER
  5
2DE
330
2
100
AcDbSymbolTableRecord
100
AcDbLayerTableRecord
  2
Defpoints
 70
     0
 62
     7
  6
CONTINUOUS
290
     0
370
    -3
390
F
  0
ENDTAB
  0
TABLE
  2
STYLE
  5
3
330
0
100
AcDbSymbolTable
 70
     6
  0
STYLE
  5
26
330
3
100
AcDbSymbolTableRecord
100
AcDbTextStyleTableRecord
  2
STANDARD
 70
     0
 40
0.0
 41
1.0
 50
0.0
 71
     0
 42
0.2
  3
TXT
  4
BIGFONT
  0
STYLE
  5
2DF
330
3
100
AcDbSymbolTableRecord
100
AcDbTextStyleTableRecord
  2
高3.2
 70
     0
 40
3.2
 41
1.0
 50
0.0
 71
     0
 42
3.2
  3
txt.shx
  4
bigfont.shx
  0
STYLE
  5
54B
330
3
100
AcDbSymbolTableRecord
100
AcDbTextStyleTableRecord
  2
高6.3
 70
     0
 40
6.299999999999998
 41
1.0
 50
0.0
 71
     0
 42
6.299999999999998
  3
txt.shx
  4
bigfont.shx
  0
STYLE
  5
54C
330
3
100
AcDbSymbolTableRecord
100
AcDbTextStyleTableRecord
  2
高2.5
 70
     0
 40
2.5
 41
1.0
 50
0.0
 71
     0
 42
0.2
  3
txt.shx
  4
bigfont.shx
  0
STYLE
  5
54D
330
3
100
AcDbSymbolTableRecord
100
AcDbTextStyleTableRecord
  2
高4.5
 70
     0
 40
4.5
 41
1.0
 50
0.0
 71
     0
 42
6.299999999999998
  3
txt.shx
  4
bigfont.shx
  0
STYLE
  5
54E
330
3
100
AcDbSymbolTableRecord
100
AcDbTextStyleTableRecord
  2
高2
 70
     0
 40
2.0
 41
1.0
 50
0.0
 71
     0
 42
2.0
  3
txt.shx
  4
bigfont.shx
  0
ENDTAB
  0
TABLE
  2
VIEW
  5
6
330
0
100
AcDbSymbolTable
 70
     0
  0
ENDTAB
  0
TABLE
  2
UCS
  5
7
330
0
100
AcDbSymbolTable
 70
     0
  0
ENDTAB
  0
TABLE
  2
APPID
  5
9
330
0
100
AcDbSymbolTable
 70
    10
  0
APPID
  5
27
330
9
100
AcDbSymbolTableRecord
100
AcDbRegAppTableRecord
  2
ACAD
 70
     0
  0
APPID
  5
2E3
330
9
100
AcDbSymbolTableRecord
100
AcDbRegAppTableRecord
  2
ACAD_DSTYLE_DIMJOGGED_JOGANGLE_SYMBOL
 70
     0
  0
APPID
  5
2E4
330
9
100
AcDbSymbolTableRecord
100
AcDbRegAppTableRecord
  2
ACAD_DSTYLE_DIMJAG
 70
     0
  0
APPID
  5
2E5
330
9
100
AcDbSymbolTableRecord
100
AcDbRegAppTableRecord
  2
ACAD_DSTYLE_DIMBREAK
 70
     0
  0
APPID
  5
2E6
330
9
100
AcDbSymbolTableRecord
100
AcDbRegAppTableRecord
  2
ACAD_DSTYLE_DIMTALN
 70
     0
  0
APPID
  5
2E7
330
9
100
AcDbSymbolTableRecord
100
AcDbRegAppTableRecord
  2
ACAD_PSEXT
 70
     0
  0
APPID
  5
450
330
9
100
AcDbSymbolTableRecord
100
AcDbRegAppTableRecord
  2
ACAD_EXEMPT_FROM_CAD_STANDARDS
 70
     0
  0
APPID
  5
493
330
9
100
AcDbSymbolTableRecord
100
AcDbRegAppTableRecord
  2
ACAD_DSTYLE_DIMARC_LENGTH_SYMBOL
 70
     0
  0
APPID
  5
494
330
9
100
AcDbSymbolTableRecord
100
AcDbRegAppTableRecord
  2
ACAD_DSTYLE_DIMEXT_LENGTH
 70
     0
  0
APPID
  5
4A9
330
9
100
AcDbSymbolTableRecord
100
AcDbRegAppTableRecord
  2
ACAD_MLEADERVER
 70
     0
  0
ENDTAB
  0
TABLE
  2
DIMSTYLE
  5
A
330
0
100
AcDbSymbolTable
 70
    11
100
AcDbDimStyleTable
  0
DIMSTYLE
105
2BE
330
A
100
AcDbSymbolTableRecord
100
AcDbDimStyleTableRecord
  2
Standard
 70
     0
178
     0
340
26
  0
DIMSTYLE
105
2E0
102
{ACAD_REACTORS
330
3F1
330
838
102
}
330
A
100
AcDbSymbolTableRecord
100
AcDbDimStyleTableRecord
  2
1：1
 70
     0
 41
2.5
 42
0.25
 43
0.2
 44
1.25
 73
     0
 74
     0
 77
     3
 78
     8
 79
     2
140
3.0
141
0.0
143
0.03937007874016
147
0.625
171
     3
172
     1
271
     2
178
     4
179
     1
271
     2
272
     2
274
     3
283
     0
284
     8
288
     1
289
     0
340
26
341
2C0
342
2C0
1001
ACAD_DSTYLE_DIMJOGGED_JOGANGLE_SYMBOL
1070
   384
1040
1.570796326794896
1001
ACAD_DSTYLE_DIMARC_LENGTH_SYMBOL
1070
   379
1070
     2
  0
DIMSTYLE
105
2E1
330
A
100
AcDbSymbolTableRecord
100
AcDbDimStyleTableRecord
  2
1／4
 70
     0
 41
2.5
 42
0.25
 43
0.2
 44
1.25
 73
     0
 74
     0
 77
     3
 78
     8
 79
     2
140
3.0
141
0.0
143
0.03937007874016
144
4.0
147
0.625
171
     3
172
     1
271
     2
178
     4
179
     1
271
     2
272
     2
274
     3
283
     0
284
     8
288
     1
289
     0
340
26
341
2C0
342
2C0
1001
ACAD_DSTYLE_DIMJOGGED_JOGANGLE_SYMBOL
1070
   384
1040
1.570796326794896
1001
ACAD_DSTYLE_DIMARC_LENGTH_SYMBOL
1070
   379
1070
     2
  0
DIMSTYLE
105
54F
330
A
100
AcDbSymbolTableRecord
100
AcDbDimStyleTableRecord
  2
2：1
 70
     0
 41
2.5
 42
0.25
 43
0.2
 44
1.25
 73
     0
 74
     0
 77
     3
 78
     8
 79
     2
140
3.0
141
0.0
143
0.03937007874016
144
0.5
147
0.625
171
     3
172
     1
271
     2
178
     4
179
     1
271
     2
272
     2
274
     3
283
     0
284
     8
288
     1
289
     0
340
26
341
2C0
342
2C0
1001
ACAD_DSTYLE_DIMJOGGED_JOGANGLE_SYMBOL
1070
   384
1040
1.570796326794896
1001
ACAD_DSTYLE_DIMARC_LENGTH_SYMBOL
1070
   379
1070
     2
  0
DIMSTYLE
105
550
330
A
100
AcDbSymbolTableRecord
100
AcDbDimStyleTableRecord
  2
5：1
 70
     0
 41
2.5
 42
0.25
 43
0.2
 44
1.25
 73
     0
 74
     0
 77
     3
 78
     8
 79
     2
140
3.0
141
0.0
143
0.03937007874016
144
0.2
147
0.625
171
     3
172
     1
271
     2
178
     4
179
     1
271
     2
272
     2
274
     3
283
     0
284
     8
288
     1
289
     0
340
26
341
2C0
342
2C0
1001
ACAD_DSTYLE_DIMJOGGED_JOGANGLE_SYMBOL
1070
   384
1040
1.570796326794896
1001
ACAD_DSTYLE_DIMARC_LENGTH_SYMBOL
1070
   379
1070
     2
  0
DIMSTYLE
105
551
330
A
100
AcDbSymbolTableRecord
100
AcDbDimStyleTableRecord
  2
10：1
 70
     0
 41
2.5
 42
0.25
 43
0.2
 44
1.25
 73
     0
 74
     0
 77
     3
 78
     8
 79
     2
140
3.0
141
0.0
143
0.03937007874016
144
0.1
147
0.625
171
     3
172
     1
271
     2
178
     4
179
     1
271
     2
272
     2
274
     3
283
     0
284
     8
288
     1
289
     0
340
26
341
2C0
342
2C0
1001
ACAD_DSTYLE_DIMJOGGED_JOGANGLE_SYMBOL
1070
   384
1040
1.570796326794896
1001
ACAD_DSTYLE_DIMARC_LENGTH_SYMBOL
1070
   379
1070
     2
  0
DIMSTYLE
105
552
330
A
100
AcDbSymbolTableRecord
100
AcDbDimStyleTableRecord
  2
1／2
 70
     0
 41
2.5
 42
0.25
 43
0.2
 44
1.25
 73
     0
 74
     0
 77
     3
 78
     8
 79
     2
140
3.0
141
0.0
143
0.03937007874016
144
2.0
147
0.625
171
     3
172
     1
271
     2
178
     4
179
     1
271
     2
272
     2
274
     3
283
     0
284
     8
288
     1
289
     0
340
26
341
2C0
342
2C0
1001
ACAD_DSTYLE_DIMJOGGED_JOGANGLE_SYMBOL
1070
   384
1040
1.570796326794896
1001
ACAD_DSTYLE_DIMARC_LENGTH_SYMBOL
1070
   379
1070
     2
  0
DIMSTYLE
105
553
330
A
100
AcDbSymbolTableRecord
100
AcDbDimStyleTableRecord
  2
1／5
 70
     0
 41
2.5
 42
0.25
 43
0.2
 44
1.25
 73
     0
 74
     0
 77
     3
 78
     8
 79
     2
140
3.0
141
0.0
143
0.03937007874016
144
5.0
147
0.625
171
     3
172
     1
271
     2
178
     4
179
     1
271
     2
272
     2
274
     3
283
     0
284
     8
288
     1
289
     0
340
26
341
2C0
342
2C0
1001
ACAD_DSTYLE_DIMJOGGED_JOGANGLE_SYMBOL
1070
   384
1040
1.570796326794896
1001
ACAD_DSTYLE_DIMARC_LENGTH_SYMBOL
1070
   379
1070
     2
  0
DIMSTYLE
105
554
330
A
100
AcDbSymbolTableRecord
100
AcDbDimStyleTableRecord
  2
1／10
 70
     0
 41
2.5
 42
0.25
 43
0.2
 44
1.25
 73
     0
 74
     0
 77
     3
 78
     8
 79
     2
140
3.0
141
0.0
143
0.03937007874016
144
10.0
147
0.625
171
     3
172
     1
271
     2
178
     4
179
     1
271
     2
272
     2
274
     3
283
     0
284
     8
288
     1
289
     0
340
26
341
2C0
342
2C0
1001
ACAD_DSTYLE_DIMJOGGED_JOGANGLE_SYMBOL
1070
   384
1040
1.570796326794896
1001
ACAD_DSTYLE_DIMARC_LENGTH_SYMBOL
1070
   379
1070
     2
  0
DIMSTYLE
105
555
330
A
100
AcDbSymbolTableRecord
100
AcDbDimStyleTableRecord
  2
1／3
 70
     0
 41
2.5
 42
0.25
 43
0.2
 44
1.25
 73
     0
 74
     0
 77
     3
 78
     8
 79
     2
140
3.0
141
0.0
143
0.03937007874016
144
3.0
147
0.625
171
     3
172
     1
271
     2
178
     4
179
     1
271
     2
272
     2
274
     3
283
     0
284
     8
288
     1
289
     0
340
26
341
2C0
342
2C0
1001
ACAD_DSTYLE_DIMJOGGED_JOGANGLE_SYMBOL
1070
   384
1040
1.570796326794896
1001
ACAD_DSTYLE_DIMARC_LENGTH_SYMBOL
1070
   379
1070
     2
  0
DIMSTYLE
105
556
102
{ACAD_REACTORS
330
B8
330
B7
330
B6
330
B4
330
B3
330
B5
102
}
330
A
100
AcDbSymbolTableRecord
100
AcDbDimStyleTableRecord
  2
FREE
 70
     0
 41
2.5
 42
0.25
 43
0.2
 44
1.25
 73
     0
 74
     0
 77
     3
 78
     8
 79
     2
140
3.0
141
0.0
143
0.03937007874016
147
0.625
171
     3
172
     1
271
     2
178
     4
179
     1
271
     2
272
     2
274
     3
283
     0
284
     8
288
     1
289
     0
340
26
341
2C0
342
2C0
1001
ACAD_DSTYLE_DIMBREAK
1070
   391
1040
3.75
1001
ACAD_DSTYLE_DIMJAG
1070
   388
1040
1.5
1001
ACAD_DSTYLE_DIMTALN
1070
   392
1070
     0
1001
ACAD_DSTYLE_DIMJOGGED_JOGANGLE_SYMBOL
1070
   384
1040
1.570796326794896
1001
ACAD_DSTYLE_DIMARC_LENGTH_SYMBOL
1070
   379
1070
     2
  0
ENDTAB
  0
TABLE
  2
BLOCK_RECORD
  5
1
330
0
100
AcDbSymbolTable
 70
    20
  0
BLOCK_RECORD
  5
36
102
{ACAD_XDICTIONARY
360
412
102
}
330
1
100
AcDbSymbolTableRecord
100
AcDbBlockTableRecord
  2
*Model_Space
340
39
  0
BLOCK_RECORD
  5
32
330
1
100
AcDbSymbolTableRecord
100
AcDbBlockTableRecord
  2
*Paper_Space
340
35
  0
BLOCK_RECORD
  5
2C0
330
1
100
AcDbSymbolTableRecord
100
AcDbBlockTableRecord
  2
_Open30
340
0
102
{BLKREFS
331
7DF
331
7E0
331
630
331
631
331
63B
331
63C
331
646
331
647
331
651
331
652
331
65C
331
65D
331
667
331
668
331
672
331
673
331
67D
331
67E
331
688
331
689
331
691
331
692
331
7E8
331
7E9
331
7F1
331
7F2
331
7FA
331
7FB
331
803
331
804
331
80C
331
80D
331
815
331
816
331
821
331
822
331
84C
331
84D
331
7DF
331
7E0
331
630
331
631
331
63B
331
63C
331
646
331
647
331
651
331
652
331
65C
331
65D
331
667
331
668
331
672
331
673
331
67D
331
67E
331
688
331
689
331
691
331
692
331
7E8
331
7E9
331
7F1
331
7F2
331
7FA
331
7FB
331
803
331
804
331
80C
331
80D
331
815
331
816
331
821
331
822
331
84C
331
84D
102
}
  0
BLOCK_RECORD
  5
3F2
330
1
100
AcDbSymbolTableRecord
100
AcDbBlockTableRecord
  2
*D1
340
0
  0
BLOCK_RECORD
  5
5A1
330
1
100
AcDbSymbolTableRecord
100
AcDbBlockTableRecord
  2
*D2
340
0
  0
BLOCK_RECORD
  5
5AF
330
1
100
AcDbSymbolTableRecord
100
AcDbBlockTableRecord
  2
*D3
340
0
  0
BLOCK_RECORD
  5
5BD
330
1
100
AcDbSymbolTableRecord
100
AcDbBlockTableRecord
  2
*D4
340
0
  0
BLOCK_RECORD
  5
5CB
330
1
100
AcDbSymbolTableRecord
100
AcDbBlockTableRecord
  2
*D5
340
0
  0
BLOCK_RECORD
  5
5D9
330
1
100
AcDbSymbolTableRecord
100
AcDbBlockTableRecord
  2
*D6
340
0
  0
BLOCK_RECORD
  5
5E7
330
1
100
AcDbSymbolTableRecord
100
AcDbBlockTableRecord
  2
*D7
340
0
  0
BLOCK_RECORD
  5
5F5
330
1
100
AcDbSymbolTableRecord
100
AcDbBlockTableRecord
  2
*D8
340
0
  0
BLOCK_RECORD
  5
603
330
1
100
AcDbSymbolTableRecord
100
AcDbBlockTableRecord
  2
*D9
340
0
  0
BLOCK_RECORD
  5
611
330
1
100
AcDbSymbolTableRecord
100
AcDbBlockTableRecord
  2
*D10
340
0
  0
BLOCK_RECORD
  5
61F
330
1
100
AcDbSymbolTableRecord
100
AcDbBlockTableRecord
  2
*D11
340
0
  0
BLOCK_RECORD
  5
699
330
1
100
AcDbSymbolTableRecord
100
AcDbBlockTableRecord
  2
*D12
340
0
  0
BLOCK_RECORD
  5
6A5
330
1
100
AcDbSymbolTableRecord
100
AcDbBlockTableRecord
  2
*D13
340
0
  0
BLOCK_RECORD
  5
6B1
330
1
100
AcDbSymbolTableRecord
100
AcDbBlockTableRecord
  2
*D14
340
0
  0
BLOCK_RECORD
  5
6BD
330
1
100
AcDbSymbolTableRecord
100
AcDbBlockTableRecord
  2
*D15
340
0
  0
BLOCK_RECORD
  5
6C9
330
1
100
AcDbSymbolTableRecord
100
AcDbBlockTableRecord
  2
*D16
340
0
  0
BLOCK_RECORD
  5
6D5
330
1
100
AcDbSymbolTableRecord
100
AcDbBlockTableRecord
  2
*D17
340
0
  0
BLOCK_RECORD
  5
81D
330
1
100
AcDbSymbolTableRecord
100
AcDbBlockTableRecord
  2
*D18
340
0
  0
BLOCK_RECORD
  5
839
330
1
100
AcDbSymbolTableRecord
100
AcDbBlockTableRecord
  2
*D19
340
0
  0
ENDTAB
  0
ENDSEC
  0
SECTION
  2
BLOCKS
  0
BLOCK
  5
37
330
36
100
AcDbEntity
  8
0
100
AcDbBlockBegin
  2
*Model_Space
 70
     0
 10
0.0
 20
0.0
 30
0.0
  3
*Model_Space
  1

  0
ENDBLK
  5
38
330
36
100
AcDbEntity
  8
0
100
AcDbBlockEnd
  0
BLOCK
  5
33
330
32
100
AcDbEntity
 67
     1
  8
0
100
AcDbBlockBegin
  2
*Paper_Space
 70
     0
 10
0.0
 20
0.0
 30
0.0
  3
*Paper_Space
  1

  0
ENDBLK
  5
34
330
32
100
AcDbEntity
 67
     1
  8
0
100
AcDbBlockEnd
  0
BLOCK
  5
2C1
330
2C0
100
AcDbEntity
  8
0
100
AcDbBlockBegin
  2
_Open30
 70
     0
 10
0.0
 20
0.0
 30
0.0
  3
_Open30
  1

  0
LINE
  5
2C2
330
2C0
100
AcDbEntity
  8
0
  6
ByBlock
 62
     0
370
    -2
100
AcDbLine
 10
-1.0
 20
0.267949
 30
0.0
 11
0.0
 21
0.0
 31
0.0
  0
LINE
  5
2C3
330
2C0
100
AcDbEntity
  8
0
  6
ByBlock
 62
     0
370
    -2
100
AcDbLine
 10
0.0
 20
0.0
 30
0.0
 11
-1.0
 21
-0.267949
 31
0.0
  0
LINE
  5
2C4
330
2C0
100
AcDbEntity
  8
0
  6
ByBlock
 62
     0
370
    -2
100
AcDbLine
 10
0.0
 20
0.0
 30
0.0
 11
-1.0
 21
0.0
 31
0.0
  0
ENDBLK
  5
2C5
330
2C0
100
AcDbEntity
  8
0
100
AcDbBlockEnd
  0
BLOCK
  5
3FC
330
3F2
100
AcDbEntity
  8
0
100
AcDbBlockBegin
  2
*D1
 70
     1
 10
0.0
 20
0.0
 30
0.0
  3
*D1
  1

  0
LINE
  5
7DC
330
3F2
100
AcDbEntity
  8
0
  6
Continuous
 62
     0
370
    -2
100
AcDbLine
 10
11.34188312953763
 20
7.421940994669396
 30
0.0
 11
11.34188312953763
 21
-22.5611619544988
 31
0.0
  0
LINE
  5
7DD
330
3F2
100
AcDbEntity
  8
0
  6
Continuous
 62
     0
370
    -2
100
AcDbLine
 10
26.493562
 20
-5.990965
 30
0.0
 11
26.493562
 21
-22.5611619544988
 31
0.0
  0
LINE
  5
7DE
330
3F2
100
AcDbEntity
  8
0
  6
Continuous
 62
     0
370
    -2
100
AcDbLine
 10
13.84188312953763
 20
-21.3111619544988
 30
0.0
 11
23.993562
 21
-21.3111619544988
 31
0.0
  0
INSERT
  5
7DF
330
3F2
100
AcDbEntity
  8
0
  6
Continuous
 62
     0
370
    -2
100
AcDbBlockReference
  2
_Open30
 10
11.34188312953763
 20
-21.3111619544988
 30
0.0
 41
2.5
 42
2.5
 43
2.5
 50
180.0
  0
INSERT
  5
7E0
330
3F2
100
AcDbEntity
  8
0
  6
Continuous
 62
     0
370
    -2
100
AcDbBlockReference
  2
_Open30
 10
26.493562
 20
-21.3111619544988
 30
0.0
 41
2.5
 42
2.5
 43
2.5
  0
MTEXT
  5
7E1
330
3F2
100
AcDbEntity
  8
0
  6
Continuous
 62
     4
100
AcDbMText
 10
18.69964167325054
 20
-19.1861619544988
 30
0.0
 40
3.0
 41
0.0
 71
     5
 72
     1
  1
(125)
 73
     1
 44
1.0
  0
POINT
  5
7E2
330
3F2
100
AcDbEntity
  8
Defpoints
  6
Continuous
 62
     0
100
AcDbPoint
 10
11.34188312953763
 20
7.671940994669396
 30
0.0
  0
POINT
  5
7E3
330
3F2
100
AcDbEntity
  8
Defpoints
  6
Continuous
 62
     0
100
AcDbPoint
 10
26.493562
 20
-5.740965
 30
0.0
  0
POINT
  5
7E4
330
3F2
100
AcDbEntity
  8
Defpoints
  6
Continuous
 62
     0
100
AcDbPoint
 10
26.493562
 20
-21.3111619544988
 30
0.0
  0
ENDBLK
  5
3FD
330
3F2
100
AcDbEntity
  8
0
100
AcDbBlockEnd
  0
BLOCK
  5
5A2
330
5A1
100
AcDbEntity
  8
0
100
AcDbBlockBegin
  2
*D2
 70
     1
 10
0.0
 20
0.0
 30
0.0
  3
*D2
  1

  0
LINE
  5
62B
330
5A1
100
AcDbEntity
  8
0
 62
     0
370
    -2
100
AcDbLine
 10
419.6323925374223
 20
70.04038473698517
 30
0.0
 11
419.6323925374223
 21
67.13075331497635
 31
0.0
  0
LINE
  5
62C
330
5A1
100
AcDbEntity
  8
0
 62
     0
370
    -2
100
AcDbLine
 10
417.1752054833018
 20
70.04038473698517
 30
0.0
 11
417.1752054833018
 21
67.13075331497635
 31
0.0
  0
LINE
  5
62D
330
5A1
100
AcDbEntity
  8
0
 62
     0
370
    -2
100
AcDbLine
 10
422.132392537422
 20
68.38075331497635
 30
0.0
 11
424.6323925374221
 21
68.38075331497635
 31
0.0
  0
LINE
  5
62E
330
5A1
100
AcDbEntity
  8
0
 62
     0
370
    -2
100
AcDbLine
 10
414.675205483302
 20
68.38075331497635
 30
0.0
 11
401.9252054833018
 21
68.38075331497635
 31
0.0
  0
LINE
  5
62F
330
5A1
100
AcDbEntity
  8
0
 62
     0
370
    -2
100
AcDbLine
 10
419.6323925374223
 20
68.38075331497635
 30
0.0
 11
417.1752054833018
 21
68.38075331497635
 31
0.0
  0
INSERT
  5
630
330
5A1
100
AcDbEntity
  8
0
 62
     0
370
    -2
100
AcDbBlockReference
  2
_Open30
 10
419.6323925374223
 20
68.38075331497635
 30
0.0
 41
2.5
 42
2.5
 43
2.5
 50
180.0
  0
INSERT
  5
631
330
5A1
100
AcDbEntity
  8
0
 62
     0
370
    -2
100
AcDbBlockReference
  2
_Open30
 10
417.1752054833018
 20
68.38075331497635
 30
0.0
 41
2.5
 42
2.5
 43
2.5
  0
MTEXT
  5
632
330
5A1
100
AcDbEntity
  8
0
 62
     4
100
AcDbMText
 10
407.0502054833018
 20
70.50575331497635
 30
0.0
 40
3.0
 41
0.0
 71
     5
 72
     1
  1
2.46
 73
     1
 44
1.0
  0
POINT
  5
633
330
5A1
100
AcDbEntity
  8
Defpoints
 62
     0
100
AcDbPoint
 10
419.6323925374223
 20
70.29038473698517
 30
0.0
  0
POINT
  5
634
330
5A1
100
AcDbEntity
  8
Defpoints
 62
     0
100
AcDbPoint
 10
417.1752054833018
 20
70.29038473698517
 30
0.0
  0
POINT
  5
635
330
5A1
100
AcDbEntity
  8
Defpoints
 62
     0
100
AcDbPoint
 10
417.1752054833018
 20
68.38075331497635
 30
0.0
  0
ENDBLK
  5
5A3
330
5A1
100
AcDbEntity
  8
0
100
AcDbBlockEnd
  0
BLOCK
  5
5B0
330
5AF
100
AcDbEntity
  8
0
100
AcDbBlockBegin
  2
*D3
 70
     1
 10
0.0
 20
0.0
 30
0.0
  3
*D3
  1

  0
LINE
  5
636
330
5AF
100
AcDbEntity
  8
0
 62
     0
370
    -2
100
AcDbLine
 10
421.2705174434955
 20
64.5842951642228
 30
0.0
 11
421.2705174434955
 21
62.03840309475946
 31
0.0
  0
LINE
  5
637
330
5AF
100
AcDbEntity
  8
0
 62
     0
370
    -2
100
AcDbLine
 10
418.1762816453526
 20
64.5842951642228
 30
0.0
 11
418.1762816453526
 21
62.03840309475946
 31
0.0
  0
LINE
  5
638
330
5AF
100
AcDbEntity
  8
0
 62
     0
370
    -2
100
AcDbLine
 10
423.7705174434954
 20
63.28840309475946
 30
0.0
 11
426.2705174434954
 21
63.28840309475946
 31
0.0
  0
LINE
  5
639
330
5AF
100
AcDbEntity
  8
0
 62
     0
370
    -2
100
AcDbLine
 10
415.6762816453523
 20
63.28840309475946
 30
0.0
 11
401.8429483120192
 21
63.28840309475946
 31
0.0
  0
LINE
  5
63A
330
5AF
100
AcDbEntity
  8
0
 62
     0
370
    -2
100
AcDbLine
 10
421.2705174434955
 20
63.28840309475946
 30
0.0
 11
418.1762816453526
 21
63.28840309475946
 31
0.0
  0
INSERT
  5
63B
330
5AF
100
AcDbEntity
  8
0
 62
     0
370
    -2
100
AcDbBlockReference
  2
_Open30
 10
421.2705174434955
 20
63.28840309475946
 30
0.0
 41
2.5
 42
2.5
 43
2.5
 50
180.0
  0
INSERT
  5
63C
330
5AF
100
AcDbEntity
  8
0
 62
     0
370
    -2
100
AcDbBlockReference
  2
_Open30
 10
418.1762816453526
 20
63.28840309475946
 30
0.0
 41
2.5
 42
2.5
 43
2.5
  0
MTEXT
  5
63D
330
5AF
100
AcDbEntity
  8
0
 62
     4
100
AcDbMText
 10
407.0512816453526
 20
65.16340309475946
 30
0.0
 40
2.5
 41
0.0
 71
     5
 72
     1
  1
15.47
  7
高2.5
 73
     1
 44
1.0
  0
POINT
  5
63E
330
5AF
100
AcDbEntity
  8
Defpoints
 62
     0
100
AcDbPoint
 10
421.2705174434955
 20
64.8342951642228
 30
0.0
  0
POINT
  5
63F
330
5AF
100
AcDbEntity
  8
Defpoints
 62
     0
100
AcDbPoint
 10
418.1762816453526
 20
64.8342951642228
 30
0.0
  0
POINT
  5
640
330
5AF
100
AcDbEntity
  8
Defpoints
 62
     0
100
AcDbPoint
 10
418.1762816453526
 20
63.28840309475946
 30
0.0
  0
ENDBLK
  5
5B1
330
5AF
100
AcDbEntity
  8
0
100
AcDbBlockEnd
  0
BLOCK
  5
5BE
330
5BD
100
AcDbEntity
  8
0
100
AcDbBlockBegin
  2
*D4
 70
     1
 10
0.0
 20
0.0
 30
0.0
  3
*D4
  1

  0
LINE
  5
641
330
5BD
100
AcDbEntity
  8
0
 62
     0
370
    -2
100
AcDbLine
 10
422.9996490515809
 20
59.12820544837632
 30
0.0
 11
422.9996490515809
 21
56.85511778600903
 31
0.0
  0
LINE
  5
642
330
5BD
100
AcDbEntity
  8
0
 62
     0
370
    -2
100
AcDbLine
 10
418.9953440983891
 20
59.12820544837632
 30
0.0
 11
418.9953440983891
 21
56.85511778600903
 31
0.0
  0
LINE
  5
643
330
5BD
100
AcDbEntity
  8
0
 62
     0
370
    -2
100
AcDbLine
 10
425.4996490515808
 20
58.10511778600903
 30
0.0
 11
427.9996490515808
 21
58.10511778600903
 31
0.0
  0
LINE
  5
644
330
5BD
100
AcDbEntity
  8
0
 62
     0
370
    -2
100
AcDbLine
 10
416.4953440983891
 20
58.10511778600903
 30
0.0
 11
404.7453440983891
 21
58.10511778600903
 31
0.0
  0
LINE
  5
645
330
5BD
100
AcDbEntity
  8
0
 62
     0
370
    -2
100
AcDbLine
 10
422.9996490515809
 20
58.10511778600903
 30
0.0
 11
418.9953440983891
 21
58.10511778600903
 31
0.0
  0
INSERT
  5
646
330
5BD
100
AcDbEntity
  8
0
 62
     0
370
    -2
100
AcDbBlockReference
  2
_Open30
 10
422.9996490515809
 20
58.10511778600903
 30
0.0
 41
2.5
 42
2.5
 43
2.5
 50
180.0
  0
INSERT
  5
647
330
5BD
100
AcDbEntity
  8
0
 62
     0
370
    -2
100
AcDbBlockReference
  2
_Open30
 10
418.9953440983891
 20
58.10511778600903
 30
0.0
 41
2.5
 42
2.5
 43
2.5
  0
MTEXT
  5
648
330
5BD
100
AcDbEntity
  8
0
 62
     4
100
AcDbMText
 10
409.3703440983891
 20
60.33011778600903
 30
0.0
 40
3.2
 41
0.0
 71
     5
 72
     1
  1
8.01
  7
高3.2
 73
     1
 44
1.0
  0
POINT
  5
649
330
5BD
100
AcDbEntity
  8
Defpoints
 62
     0
100
AcDbPoint
 10
422.9996490515809
 20
59.37820544837632
 30
0.0
  0
POINT
  5
64A
330
5BD
100
AcDbEntity
  8
Defpoints
 62
     0
100
AcDbPoint
 10
418.9953440983891
 20
59.37820544837632
 30
0.0
  0
POINT
  5
64B
330
5BD
100
AcDbEntity
  8
Defpoints
 62
     0
100
AcDbPoint
 10
418.9953440983891
 20
58.10511778600903
 30
0.0
  0
ENDBLK
  5
5BF
330
5BD
100
AcDbEntity
  8
0
100
AcDbBlockEnd
  0
BLOCK
  5
5CC
330
5CB
100
AcDbEntity
  8
0
100
AcDbBlockBegin
  2
*D5
 70
     1
 10
0.0
 20
0.0
 30
0.0
  3
*D5
  1

  0
LINE
  5
64C
330
5CB
100
AcDbEntity
  8
0
 62
     0
370
    -2
100
AcDbLine
 10
422.9086423495686
 20
53.8539854803447
 30
0.0
 11
422.9086423495686
 21
52.0355719728883
 31
0.0
  0
LINE
  5
64D
330
5CB
100
AcDbEntity
  8
0
 62
     0
370
    -2
100
AcDbLine
 10
418.1762816453526
 20
53.8539854803447
 30
0.0
 11
418.1762816453526
 21
52.0355719728883
 31
0.0
  0
LINE
  5
64E
330
5CB
100
AcDbEntity
  8
0
 62
     0
370
    -2
100
AcDbLine
 10
425.4086423495686
 20
53.2855719728883
 30
0.0
 11
427.9086423495686
 21
53.2855719728883
 31
0.0
  0
LINE
  5
64F
330
5CB
100
AcDbEntity
  8
0
 62
     0
370
    -2
100
AcDbLine
 10
415.6762816453523
 20
53.2855719728883
 30
0.0
 11
393.9262816453526
 21
53.2855719728883
 31
0.0
  0
LINE
  5
650
330
5CB
100
AcDbEntity
  8
0
 62
     0
370
    -2
100
AcDbLine
 10
422.9086423495686
 20
53.2855719728883
 30
0.0
 11
418.1762816453526
 21
53.2855719728883
 31
0.0
  0
INSERT
  5
651
330
5CB
100
AcDbEntity
  8
0
 62
     0
370
    -2
100
AcDbBlockReference
  2
_Open30
 10
422.9086423495686
 20
53.2855719728883
 30
0.0
 41
2.5
 42
2.5
 43
2.5
 50
180.0
  0
INSERT
  5
652
330
5CB
100
AcDbEntity
  8
0
 62
     0
370
    -2
100
AcDbBlockReference
  2
_Open30
 10
418.1762816453526
 20
53.2855719728883
 30
0.0
 41
2.5
 42
2.5
 43
2.5
  0
MTEXT
  5
653
330
5CB
100
AcDbEntity
  8
0
 62
     4
100
AcDbMText
 10
403.5512816453524
 20
56.16057197288832
 30
0.0
 40
4.5
 41
0.0
 71
     5
 72
     1
  1
47.32
  7
高4.5
 73
     1
 44
1.0
  0
POINT
  5
654
330
5CB
100
AcDbEntity
  8
Defpoints
 62
     0
100
AcDbPoint
 10
422.9086423495686
 20
54.1039854803447
 30
0.0
  0
POINT
  5
655
330
5CB
100
AcDbEntity
  8
Defpoints
 62
     0
100
AcDbPoint
 10
418.1762816453526
 20
54.1039854803447
 30
0.0
  0
POINT
  5
656
330
5CB
100
AcDbEntity
  8
Defpoints
 62
     0
100
AcDbPoint
 10
418.1762816453526
 20
53.2855719728883
 30
0.0
  0
ENDBLK
  5
5CD
330
5CB
100
AcDbEntity
  8
0
100
AcDbBlockEnd
  0
BLOCK
  5
5DA
330
5D9
100
AcDbEntity
  8
0
100
AcDbBlockBegin
  2
*D6
 70
     1
 10
0.0
 20
0.0
 30
0.0
  3
*D6
  1

  0
LINE
  5
657
330
5D9
100
AcDbEntity
  8
0
 62
     0
370
    -2
100
AcDbLine
 10
444.3862786175761
 20
70.04038473698517
 30
0.0
 11
444.3862786175761
 21
67.13075331497635
 31
0.0
  0
LINE
  5
658
330
5D9
100
AcDbEntity
  8
0
 62
     0
370
    -2
100
AcDbLine
 10
441.9290915634558
 20
70.04038473698517
 30
0.0
 11
441.9290915634558
 21
67.13075331497635
 31
0.0
  0
LINE
  5
659
330
5D9
100
AcDbEntity
  8
0
 62
     0
370
    -2
100
AcDbLine
 10
446.8862786175761
 20
68.38075331497635
 30
0.0
 11
449.386278617576
 21
68.38075331497635
 31
0.0
  0
LINE
  5
65A
330
5D9
100
AcDbEntity
  8
0
 62
     0
370
    -2
100
AcDbLine
 10
439.4290915634558
 20
68.38075331497635
 30
0.0
 11
417.8290915634558
 21
68.38075331497635
 31
0.0
  0
LINE
  5
65B
330
5D9
100
AcDbEntity
  8
0
 62
     0
370
    -2
100
AcDbLine
 10
444.3862786175761
 20
68.38075331497635
 30
0.0
 11
441.9290915634558
 21
68.38075331497635
 31
0.0
  0
INSERT
  5
65C
330
5D9
100
AcDbEntity
  8
0
 62
     0
370
    -2
100
AcDbBlockReference
  2
_Open30
 10
444.3862786175761
 20
68.38075331497635
 30
0.0
 41
2.5
 42
2.5
 43
2.5
 50
180.0
  0
INSERT
  5
65D
330
5D9
100
AcDbEntity
  8
0
 62
     0
370
    -2
100
AcDbBlockReference
  2
_Open30
 10
441.9290915634558
 20
68.38075331497635
 30
0.0
 41
2.5
 42
2.5
 43
2.5
  0
MTEXT
  5
65E
330
5D9
100
AcDbEntity
  8
0
 62
     4
100
AcDbMText
 10
427.3790915634558
 20
72.15575331497634
 30
0.0
 40
6.299999999999998
 41
0.0
 71
     5
 72
     1
  1
0.25
  7
高6.3
 73
     1
 44
1.0
  0
POINT
  5
65F
330
5D9
100
AcDbEntity
  8
Defpoints
 62
     0
100
AcDbPoint
 10
444.3862786175761
 20
70.29038473698517
 30
0.0
  0
POINT
  5
660
330
5D9
100
AcDbEntity
  8
Defpoints
 62
     0
100
AcDbPoint
 10
441.9290915634558
 20
70.29038473698517
 30
0.0
  0
POINT
  5
661
330
5D9
100
AcDbEntity
  8
Defpoints
 62
     0
100
AcDbPoint
 10
441.9290915634558
 20
68.38075331497635
 30
0.0
  0
ENDBLK
  5
5DB
330
5D9
100
AcDbEntity
  8
0
100
AcDbBlockEnd
  0
BLOCK
  5
5E8
330
5E7
100
AcDbEntity
  8
0
100
AcDbBlockBegin
  2
*D7
 70
     1
 10
0.0
 20
0.0
 30
0.0
  3
*D7
  1

  0
LINE
  5
662
330
5E7
100
AcDbEntity
  8
0
 62
     0
370
    -2
100
AcDbLine
 10
446.0244035236493
 20
64.5842951642228
 30
0.0
 11
446.0244035236493
 21
62.03840309475946
 31
0.0
  0
LINE
  5
663
330
5E7
100
AcDbEntity
  8
0
 62
     0
370
    -2
100
AcDbLine
 10
442.9301677255063
 20
64.5842951642228
 30
0.0
 11
442.9301677255063
 21
62.03840309475946
 31
0.0
  0
LINE
  5
664
330
5E7
100
AcDbEntity
  8
0
 62
     0
370
    -2
100
AcDbLine
 10
448.5244035236493
 20
63.28840309475946
 30
0.0
 11
451.0244035236492
 21
63.28840309475946
 31
0.0
  0
LINE
  5
665
330
5E7
100
AcDbEntity
  8
0
 62
     0
370
    -2
100
AcDbLine
 10
440.4301677255062
 20
63.28840309475946
 30
0.0
 11
428.4301677255062
 21
63.28840309475946
 31
0.0
  0
LINE
  5
666
330
5E7
100
AcDbEntity
  8
0
 62
     0
370
    -2
100
AcDbLine
 10
446.0244035236493
 20
63.28840309475946
 30
0.0
 11
442.9301677255063
 21
63.28840309475946
 31
0.0
  0
INSERT
  5
667
330
5E7
100
AcDbEntity
  8
0
 62
     0
370
    -2
100
AcDbBlockReference
  2
_Open30
 10
446.0244035236493
 20
63.28840309475946
 30
0.0
 41
2.5
 42
2.5
 43
2.5
 50
180.0
  0
INSERT
  5
668
330
5E7
100
AcDbEntity
  8
0
 62
     0
370
    -2
100
AcDbBlockReference
  2
_Open30
 10
442.9301677255063
 20
63.28840309475946
 30
0.0
 41
2.5
 42
2.5
 43
2.5
  0
MTEXT
  5
669
330
5E7
100
AcDbEntity
  8
0
 62
     4
100
AcDbMText
 10
433.0551677255063
 20
65.41340309475946
 30
0.0
 40
3.0
 41
0.0
 71
     5
 72
     1
  1
1.55
 73
     1
 44
1.0
  0
POINT
  5
66A
330
5E7
100
AcDbEntity
  8
Defpoints
 62
     0
100
AcDbPoint
 10
446.0244035236493
 20
64.8342951642228
 30
0.0
  0
POINT
  5
66B
330
5E7
100
AcDbEntity
  8
Defpoints
 62
     0
100
AcDbPoint
 10
442.9301677255063
 20
64.8342951642228
 30
0.0
  0
POINT
  5
66C
330
5E7
100
AcDbEntity
  8
Defpoints
 62
     0
100
AcDbPoint
 10
442.9301677255063
 20
63.28840309475946
 30
0.0
  0
ENDBLK
  5
5E9
330
5E7
100
AcDbEntity
  8
0
100
AcDbBlockEnd
  0
BLOCK
  5
5F6
330
5F5
100
AcDbEntity
  8
0
100
AcDbBlockBegin
  2
*D8
 70
     1
 10
0.0
 20
0.0
 30
0.0
  3
*D8
  1

  0
LINE
  5
66D
330
5F5
100
AcDbEntity
  8
0
 62
     0
370
    -2
100
AcDbLine
 10
447.7535351317349
 20
59.12820544837632
 30
0.0
 11
447.7535351317349
 21
56.85511778600903
 31
0.0
  0
LINE
  5
66E
330
5F5
100
AcDbEntity
  8
0
 62
     0
370
    -2
100
AcDbLine
 10
443.749230178543
 20
59.12820544837632
 30
0.0
 11
443.749230178543
 21
56.85511778600903
 31
0.0
  0
LINE
  5
66F
330
5F5
100
AcDbEntity
  8
0
 62
     0
370
    -2
100
AcDbLine
 10
450.2535351317346
 20
58.10511778600903
 30
0.0
 11
452.7535351317347
 21
58.10511778600903
 31
0.0
  0
LINE
  5
670
330
5F5
100
AcDbEntity
  8
0
 62
     0
370
    -2
100
AcDbLine
 10
441.2492301785428
 20
58.10511778600903
 30
0.0
 11
432.9158968452095
 21
58.10511778600903
 31
0.0
  0
LINE
  5
671
330
5F5
100
AcDbEntity
  8
0
 62
     0
370
    -2
100
AcDbLine
 10
447.7535351317349
 20
58.10511778600903
 30
0.0
 11
443.749230178543
 21
58.10511778600903
 31
0.0
  0
INSERT
  5
672
330
5F5
100
AcDbEntity
  8
0
 62
     0
370
    -2
100
AcDbBlockReference
  2
_Open30
 10
447.7535351317349
 20
58.10511778600903
 30
0.0
 41
2.5
 42
2.5
 43
2.5
 50
180.0
  0
INSERT
  5
673
330
5F5
100
AcDbEntity
  8
0
 62
     0
370
    -2
100
AcDbBlockReference
  2
_Open30
 10
443.749230178543
 20
58.10511778600903
 30
0.0
 41
2.5
 42
2.5
 43
2.5
  0
MTEXT
  5
674
330
5F5
100
AcDbEntity
  8
0
 62
     4
100
AcDbMText
 10
435.3742301785429
 20
59.73011778600903
 30
0.0
 40
2.0
 41
0.0
 71
     5
 72
     1
  1
0.8
  7
高2
 73
     1
 44
1.0
  0
POINT
  5
675
330
5F5
100
AcDbEntity
  8
Defpoints
 62
     0
100
AcDbPoint
 10
447.7535351317349
 20
59.37820544837632
 30
0.0
  0
POINT
  5
676
330
5F5
100
AcDbEntity
  8
Defpoints
 62
     0
100
AcDbPoint
 10
443.749230178543
 20
59.37820544837632
 30
0.0
  0
POINT
  5
677
330
5F5
100
AcDbEntity
  8
Defpoints
 62
     0
100
AcDbPoint
 10
443.749230178543
 20
58.10511778600903
 30
0.0
  0
ENDBLK
  5
5F7
330
5F5
100
AcDbEntity
  8
0
100
AcDbBlockEnd
  0
BLOCK
  5
604
330
603
100
AcDbEntity
  8
0
100
AcDbBlockBegin
  2
*D9
 70
     1
 10
0.0
 20
0.0
 30
0.0
  3
*D9
  1

  0
LINE
  5
678
330
603
100
AcDbEntity
  8
0
 62
     0
370
    -2
100
AcDbLine
 10
447.6625284297225
 20
53.8539854803447
 30
0.0
 11
447.6625284297225
 21
52.0355719728883
 31
0.0
  0
LINE
  5
679
330
603
100
AcDbEntity
  8
0
 62
     0
370
    -2
100
AcDbLine
 10
442.9301677255063
 20
53.8539854803447
 30
0.0
 11
442.9301677255063
 21
52.0355719728883
 31
0.0
  0
LINE
  5
67A
330
603
100
AcDbEntity
  8
0
 62
     0
370
    -2
100
AcDbLine
 10
450.1625284297225
 20
53.2855719728883
 30
0.0
 11
452.6625284297224
 21
53.2855719728883
 31
0.0
  0
LINE
  5
67B
330
603
100
AcDbEntity
  8
0
 62
     0
370
    -2
100
AcDbLine
 10
440.4301677255062
 20
53.2855719728883
 30
0.0
 11
425.6801677255062
 21
53.2855719728883
 31
0.0
  0
LINE
  5
67C
330
603
100
AcDbEntity
  8
0
 62
     0
370
    -2
100
AcDbLine
 10
447.6625284297225
 20
53.2855719728883
 30
0.0
 11
442.9301677255063
 21
53.2855719728883
 31
0.0
  0
INSERT
  5
67D
330
603
100
AcDbEntity
  8
0
 62
     0
370
    -2
100
AcDbBlockReference
  2
_Open30
 10
447.6625284297225
 20
53.2855719728883
 30
0.0
 41
2.5
 42
2.5
 43
2.5
 50
180.0
  0
INSERT
  5
67E
330
603
100
AcDbEntity
  8
0
 62
     0
370
    -2
100
AcDbBlockReference
  2
_Open30
 10
442.9301677255063
 20
53.2855719728883
 30
0.0
 41
2.5
 42
2.5
 43
2.5
  0
MTEXT
  5
67F
330
603
100
AcDbEntity
  8
0
 62
     4
100
AcDbMText
 10
431.8051677255063
 20
55.4105719728883
 30
0.0
 40
3.0
 41
0.0
 71
     5
 72
     1
  1
18.93
 73
     1
 44
1.0
  0
POINT
  5
680
330
603
100
AcDbEntity
  8
Defpoints
 62
     0
100
AcDbPoint
 10
447.6625284297225
 20
54.1039854803447
 30
0.0
  0
POINT
  5
681
330
603
100
AcDbEntity
  8
Defpoints
 62
     0
100
AcDbPoint
 10
442.9301677255063
 20
54.1039854803447
 30
0.0
  0
POINT
  5
682
330
603
100
AcDbEntity
  8
Defpoints
 62
     0
100
AcDbPoint
 10
442.9301677255063
 20
53.2855719728883
 30
0.0
  0
ENDBLK
  5
605
330
603
100
AcDbEntity
  8
0
100
AcDbBlockEnd
  0
BLOCK
  5
612
330
611
100
AcDbEntity
  8
0
100
AcDbBlockBegin
  2
*D10
 70
     1
 10
0.0
 20
0.0
 30
0.0
  3
*D10
  1

  0
LINE
  5
683
330
611
100
AcDbEntity
  8
0
 62
     0
370
    -2
100
AcDbLine
 10
444.858101578584
 20
48.79814527375494
 30
0.0
 11
444.858101578584
 21
46.48822419687938
 31
0.0
  0
LINE
  5
684
330
611
100
AcDbEntity
  8
0
 62
     0
370
    -2
100
AcDbLine
 10
440.2694263764361
 20
48.79814527375494
 30
0.0
 11
440.2694263764361
 21
46.48822419687938
 31
0.0
  0
LINE
  5
685
330
611
100
AcDbEntity
  8
0
 62
     0
370
    -2
100
AcDbLine
 10
447.3581015785842
 20
47.73822419687938
 30
0.0
 11
449.8581015785841
 21
47.73822419687938
 31
0.0
  0
LINE
  5
686
330
611
100
AcDbEntity
  8
0
 62
     0
370
    -2
100
AcDbLine
 10
437.7694263764363
 20
47.73822419687938
 30
0.0
 11
423.0194263764363
 21
47.73822419687938
 31
0.0
  0
LINE
  5
687
330
611
100
AcDbEntity
  8
0
 62
     0
370
    -2
100
AcDbLine
 10
444.858101578584
 20
47.73822419687938
 30
0.0
 11
440.2694263764361
 21
47.73822419687938
 31
0.0
  0
INSERT
  5
688
330
611
100
AcDbEntity
  8
0
 62
     0
370
    -2
100
AcDbBlockReference
  2
_Open30
 10
444.858101578584
 20
47.73822419687938
 30
0.0
 41
2.5
 42
2.5
 43
2.5
 50
180.0
  0
INSERT
  5
689
330
611
100
AcDbEntity
  8
0
 62
     0
370
    -2
100
AcDbBlockReference
  2
_Open30
 10
440.2694263764361
 20
47.73822419687938
 30
0.0
 41
2.5
 42
2.5
 43
2.5
  0
MTEXT
  5
68A
330
611
100
AcDbEntity
  8
0
 62
     4
100
AcDbMText
 10
429.1444263764361
 20
49.86322419687938
 30
0.0
 40
3.0
 41
0.0
 71
     5
 72
     1
  1
13.77
 73
     1
 44
1.0
  0
POINT
  5
68B
330
611
100
AcDbEntity
  8
Defpoints
 62
     0
100
AcDbPoint
 10
444.858101578584
 20
49.04814527375492
 30
0.0
  0
POINT
  5
68C
330
611
100
AcDbEntity
  8
Defpoints
 62
     0
100
AcDbPoint
 10
440.2694263764361
 20
49.04814527375492
 30
0.0
  0
POINT
  5
68D
330
611
100
AcDbEntity
  8
Defpoints
 62
     0
100
AcDbPoint
 10
440.2694263764361
 20
47.73822419687938
 30
0.0
  0
ENDBLK
  5
613
330
611
100
AcDbEntity
  8
0
100
AcDbBlockEnd
  0
BLOCK
  5
620
330
61F
100
AcDbEntity
  8
0
100
AcDbBlockBegin
  2
*D11
 70
     1
 10
0.0
 20
0.0
 30
0.0
  3
*D11
  1

  0
LINE
  5
68E
330
61F
100
AcDbEntity
  8
0
 62
     0
370
    -2
100
AcDbLine
 10
437.7618187454338
 20
79.7276365920293
 30
0.0
 11
437.7618187454338
 21
87.12417006996702
 31
0.0
  0
LINE
  5
68F
330
61F
100
AcDbEntity
  8
0
 62
     0
370
    -2
100
AcDbLine
 10
427.8233443759439
 20
79.7276365920293
 30
0.0
 11
427.8233443759439
 21
87.12417006996702
 31
0.0
  0
LINE
  5
690
330
61F
100
AcDbEntity
  8
0
 62
     0
370
    -2
100
AcDbLine
 10
435.2618187454336
 20
85.874170069967
 30
0.0
 11
430.3233443759436
 21
85.874170069967
 31
0.0
  0
INSERT
  5
691
330
61F
100
AcDbEntity
  8
0
 62
     0
370
    -2
100
AcDbBlockReference
  2
_Open30
 10
437.7618187454338
 20
85.874170069967
 30
0.0
 41
2.5
 42
2.5
 43
2.5
  0
INSERT
  5
692
330
61F
100
AcDbEntity
  8
0
 62
     0
370
    -2
100
AcDbBlockReference
  2
_Open30
 10
427.8233443759439
 20
85.874170069967
 30
0.0
 41
2.5
 42
2.5
 43
2.5
 50
180.0
  0
MTEXT
  5
693
330
61F
100
AcDbEntity
  8
0
 62
     4
100
AcDbMText
 10
432.7925815606888
 20
88.94917006996702
 30
0.0
 40
3.0
 41
0.0
 71
     5
 72
     1
  1
9.94\H0.7X;\S+0^ -0.02;
 73
     1
 44
1.0
  0
POINT
  5
694
330
61F
100
AcDbEntity
  8
Defpoints
 62
     0
100
AcDbPoint
 10
437.7618187454338
 20
79.47763659202928
 30
0.0
  0
POINT
  5
695
330
61F
100
AcDbEntity
  8
Defpoints
 62
     0
100
AcDbPoint
 10
427.8233443759439
 20
79.47763659202928
 30
0.0
  0
POINT
  5
696
330
61F
100
AcDbEntity
  8
Defpoints
 62
     0
100
AcDbPoint
 10
427.8233443759439
 20
85.874170069967
 30
0.0
  0
ENDBLK
  5
621
330
61F
100
AcDbEntity
  8
0
100
AcDbBlockEnd
  0
BLOCK
  5
69A
330
699
100
AcDbEntity
  8
0
100
AcDbBlockBegin
  2
*D12
 70
     1
 10
0.0
 20
0.0
 30
0.0
  3
*D12
  1

  0
LINE
  5
7E5
330
699
100
AcDbEntity
  8
0
 62
     0
370
    -2
100
AcDbLine
 10
26.493562
 20
-4.465964999999997
 30
0.0
 11
26.493562
 21
-22.545041
 31
0.0
  0
LINE
  5
7E6
330
699
100
AcDbEntity
  8
0
 62
     0
370
    -2
100
AcDbLine
 10
72.731746
 20
-4.465964999999997
 30
0.0
 11
72.731746
 21
-22.545041
 31
0.0
  0
LINE
  5
7E7
330
699
100
AcDbEntity
  8
0
 62
     0
370
    -2
100
AcDbLine
 10
28.993562
 20
-21.295041
 30
0.0
 11
70.231746
 21
-21.295041
 31
0.0
  0
INSERT
  5
7E8
330
699
100
AcDbEntity
  8
0
 62
     0
370
    -2
100
AcDbBlockReference
  2
_Open30
 10
26.493562
 20
-21.295041
 30
0.0
 41
2.5
 42
2.5
 43
2.5
 50
180.0
  0
INSERT
  5
7E9
330
699
100
AcDbEntity
  8
0
 62
     0
370
    -2
100
AcDbBlockReference
  2
_Open30
 10
72.731746
 20
-21.295041
 30
0.0
 41
2.5
 42
2.5
 43
2.5
  0
MTEXT
  5
7EA
330
699
100
AcDbEntity
  8
0
 62
     4
100
AcDbMText
 10
49.612654
 20
-19.170041
 30
0.0
 40
3.0
 41
0.0
 71
     5
 72
     1
  1
370
 73
     1
 44
1.0
  0
POINT
  5
7EB
330
699
100
AcDbEntity
  8
Defpoints
 62
     0
100
AcDbPoint
 10
26.493562
 20
-4.215964999999997
 30
0.0
  0
POINT
  5
7EC
330
699
100
AcDbEntity
  8
Defpoints
 62
     0
100
AcDbPoint
 10
72.731746
 20
-4.215964999999997
 30
0.0
  0
POINT
  5
7ED
330
699
100
AcDbEntity
  8
Defpoints
 62
     0
100
AcDbPoint
 10
72.731746
 20
-21.295041
 30
0.0
  0
ENDBLK
  5
69B
330
699
100
AcDbEntity
  8
0
100
AcDbBlockEnd
  0
BLOCK
  5
6A6
330
6A5
100
AcDbEntity
  8
0
100
AcDbBlockBegin
  2
*D13
 70
     1
 10
0.0
 20
0.0
 30
0.0
  3
*D13
  1

  0
LINE
  5
7EE
330
6A5
100
AcDbEntity
  8
0
 62
     0
370
    -2
100
AcDbLine
 10
66.731746
 20
11.87671
 30
0.0
 11
87.19744399999993
 21
11.87670999999999
 31
0.0
  0
LINE
  5
7EF
330
6A5
100
AcDbEntity
  8
0
 62
     0
370
    -2
100
AcDbLine
 10
66.731746
 20
37.61636
 30
0.0
 11
87.19744399999996
 21
37.61635999999999
 31
0.0
  0
LINE
  5
7F0
330
6A5
100
AcDbEntity
  8
0
 62
     0
370
    -2
100
AcDbLine
 10
85.94744399999993
 20
14.37670999999999
 30
0.0
 11
85.94744399999996
 21
35.11635999999999
 31
0.0
  0
INSERT
  5
7F1
330
6A5
100
AcDbEntity
  8
0
 62
     0
370
    -2
100
AcDbBlockReference
  2
_Open30
 10
85.94744399999993
 20
11.87670999999999
 30
0.0
 41
2.5
 42
2.5
 43
2.5
 50
270.0
  0
INSERT
  5
7F2
330
6A5
100
AcDbEntity
  8
0
 62
     0
370
    -2
100
AcDbBlockReference
  2
_Open30
 10
85.94744399999996
 20
37.61635999999999
 30
0.0
 41
2.5
 42
2.5
 43
2.5
 50
90.0
  0
MTEXT
  5
7F3
330
6A5
100
AcDbEntity
  8
0
 62
     4
100
AcDbMText
 10
83.82244399999995
 20
24.74653500000001
 30
0.0
 40
3.0
 41
0.0
 71
     5
 72
     1
  1
%%C210
 11
1.000000000000000E-16
 21
1.0
 31
0.0
 73
     1
 44
1.0
  0
POINT
  5
7F4
330
6A5
100
AcDbEntity
  8
Defpoints
 62
     0
100
AcDbPoint
 10
66.481746
 20
11.87671
 30
0.0
  0
POINT
  5
7F5
330
6A5
100
AcDbEntity
  8
Defpoints
 62
     0
100
AcDbPoint
 10
66.481746
 20
37.61636
 30
0.0
  0
POINT
  5
7F6
330
6A5
100
AcDbEntity
  8
Defpoints
 62
     0
100
AcDbPoint
 10
85.94744399999996
 20
37.61635999999999
 30
0.0
  0
ENDBLK
  5
6A7
330
6A5
100
AcDbEntity
  8
0
100
AcDbBlockEnd
  0
BLOCK
  5
6B2
330
6B1
100
AcDbEntity
  8
0
100
AcDbBlockBegin
  2
*D14
 70
     1
 10
0.0
 20
0.0
 30
0.0
  3
*D14
  1

  0
LINE
  5
7F7
330
6B1
100
AcDbEntity
  8
0
 62
     0
370
    -2
100
AcDbLine
 10
32.731746
 20
54.49653499999998
 30
0.0
 11
32.731746
 21
60.511924
 31
0.0
  0
LINE
  5
7F8
330
6B1
100
AcDbEntity
  8
0
 62
     0
370
    -2
100
AcDbLine
 10
66.481746
 20
54.49653499999998
 30
0.0
 11
66.481746
 21
60.511924
 31
0.0
  0
LINE
  5
7F9
330
6B1
100
AcDbEntity
  8
0
 62
     0
370
    -2
100
AcDbLine
 10
35.231746
 20
59.261924
 30
0.0
 11
63.981746
 21
59.261924
 31
0.0
  0
INSERT
  5
7FA
330
6B1
100
AcDbEntity
  8
0
 62
     0
370
    -2
100
AcDbBlockReference
  2
_Open30
 10
32.731746
 20
59.261924
 30
0.0
 41
2.5
 42
2.5
 43
2.5
 50
180.0
  0
INSERT
  5
7FB
330
6B1
100
AcDbEntity
  8
0
 62
     0
370
    -2
100
AcDbBlockReference
  2
_Open30
 10
66.481746
 20
59.261924
 30
0.0
 41
2.5
 42
2.5
 43
2.5
  0
MTEXT
  5
7FC
330
6B1
100
AcDbEntity
  8
0
 62
     4
100
AcDbMText
 10
49.606746
 20
61.386924
 30
0.0
 40
3.0
 41
0.0
 71
     5
 72
     1
  1
270
 73
     1
 44
1.0
  0
POINT
  5
7FD
330
6B1
100
AcDbEntity
  8
Defpoints
 62
     0
100
AcDbPoint
 10
32.731746
 20
54.24653499999998
 30
0.0
  0
POINT
  5
7FE
330
6B1
100
AcDbEntity
  8
Defpoints
 62
     0
100
AcDbPoint
 10
66.481746
 20
54.24653499999998
 30
0.0
  0
POINT
  5
7FF
330
6B1
100
AcDbEntity
  8
Defpoints
 62
     0
100
AcDbPoint
 10
66.481746
 20
59.261924
 30
0.0
  0
ENDBLK
  5
6B3
330
6B1
100
AcDbEntity
  8
0
100
AcDbBlockEnd
  0
BLOCK
  5
6BE
330
6BD
100
AcDbEntity
  8
0
100
AcDbBlockBegin
  2
*D15
 70
     1
 10
0.0
 20
0.0
 30
0.0
  3
*D15
  1

  0
LINE
  5
800
330
6BD
100
AcDbEntity
  8
0
 62
     0
370
    -2
100
AcDbLine
 10
-40.865625
 20
-12.76614
 30
0.0
 11
-17.55629900000001
 21
-12.76614000000001
 31
0.0
  0
LINE
  5
801
330
6BD
100
AcDbEntity
  8
0
 62
     0
370
    -2
100
AcDbLine
 10
-68.553125
 20
54.74636
 30
0.0
 11
-17.556299
 21
54.74635999999999
 31
0.0
  0
LINE
  5
802
330
6BD
100
AcDbEntity
  8
0
 62
     0
370
    -2
100
AcDbLine
 10
-18.80629900000001
 20
-10.26614000000001
 30
0.0
 11
-18.806299
 21
52.24635999999999
 31
0.0
  0
INSERT
  5
803
330
6BD
100
AcDbEntity
  8
0
 62
     0
370
    -2
100
AcDbBlockReference
  2
_Open30
 10
-18.80629900000001
 20
-12.76614000000001
 30
0.0
 41
2.5
 42
2.5
 43
2.5
 50
270.0
  0
INSERT
  5
804
330
6BD
100
AcDbEntity
  8
0
 62
     0
370
    -2
100
AcDbBlockReference
  2
_Open30
 10
-18.806299
 20
54.74635999999999
 30
0.0
 41
2.5
 42
2.5
 43
2.5
 50
90.0
  0
MTEXT
  5
805
330
6BD
100
AcDbEntity
  8
0
 62
     4
100
AcDbMText
 10
-20.93129900000001
 20
20.99010999999999
 30
0.0
 40
3.0
 41
0.0
 71
     5
 72
     1
  1
525
 11
1.000000000000000E-16
 21
1.0
 31
0.0
 73
     1
 44
1.0
  0
POINT
  5
806
330
6BD
100
AcDbEntity
  8
Defpoints
 62
     0
100
AcDbPoint
 10
-41.115625
 20
-12.76614
 30
0.0
  0
POINT
  5
807
330
6BD
100
AcDbEntity
  8
Defpoints
 62
     0
100
AcDbPoint
 10
-68.803125
 20
54.74636
 30
0.0
  0
POINT
  5
808
330
6BD
100
AcDbEntity
  8
Defpoints
 62
     0
100
AcDbPoint
 10
-18.806299
 20
54.74635999999999
 30
0.0
  0
ENDBLK
  5
6BF
330
6BD
100
AcDbEntity
  8
0
100
AcDbBlockEnd
  0
BLOCK
  5
6CA
330
6C9
100
AcDbEntity
  8
0
100
AcDbBlockBegin
  2
*D16
 70
     1
 10
0.0
 20
0.0
 30
0.0
  3
*D16
  1

  0
LINE
  5
809
330
6C9
100
AcDbEntity
  8
0
 62
     0
370
    -2
100
AcDbLine
 10
-68.553125
 20
-5.253639999999998
 30
0.0
 11
-27.09180300000002
 21
-5.253640000000009
 31
0.0
  0
LINE
  5
80A
330
6C9
100
AcDbEntity
  8
0
 62
     0
370
    -2
100
AcDbLine
 10
-68.553125
 20
54.74636
 30
0.0
 11
-27.091803
 21
54.74635999999999
 31
0.0
  0
LINE
  5
80B
330
6C9
100
AcDbEntity
  8
0
 62
     0
370
    -2
100
AcDbLine
 10
-28.34180300000002
 20
-2.753640000000009
 30
0.0
 11
-28.341803
 21
52.24635999999999
 31
0.0
  0
INSERT
  5
80C
330
6C9
100
AcDbEntity
  8
0
 62
     0
370
    -2
100
AcDbBlockReference
  2
_Open30
 10
-28.34180300000002
 20
-5.253640000000009
 30
0.0
 41
2.5
 42
2.5
 43
2.5
 50
270.0
  0
INSERT
  5
80D
330
6C9
100
AcDbEntity
  8
0
 62
     0
370
    -2
100
AcDbBlockReference
  2
_Open30
 10
-28.341803
 20
54.74635999999999
 30
0.0
 41
2.5
 42
2.5
 43
2.5
 50
90.0
  0
MTEXT
  5
80E
330
6C9
100
AcDbEntity
  8
0
 62
     4
100
AcDbMText
 10
-30.46680300000002
 20
24.74635999999998
 30
0.0
 40
3.0
 41
0.0
 71
     5
 72
     1
  1
%%C470
 11
1.000000000000000E-16
 21
1.0
 31
0.0
 73
     1
 44
1.0
  0
POINT
  5
80F
330
6C9
100
AcDbEntity
  8
Defpoints
 62
     0
100
AcDbPoint
 10
-68.803125
 20
-5.253639999999998
 30
0.0
  0
POINT
  5
810
330
6C9
100
AcDbEntity
  8
Defpoints
 62
     0
100
AcDbPoint
 10
-68.803125
 20
54.74636
 30
0.0
  0
POINT
  5
811
330
6C9
100
AcDbEntity
  8
Defpoints
 62
     0
100
AcDbPoint
 10
-28.341803
 20
54.74635999999999
 30
0.0
  0
ENDBLK
  5
6CB
330
6C9
100
AcDbEntity
  8
0
100
AcDbBlockEnd
  0
BLOCK
  5
6D6
330
6D5
100
AcDbEntity
  8
0
100
AcDbBlockBegin
  2
*D17
 70
     1
 10
0.0
 20
0.0
 30
0.0
  3
*D17
  1

  0
LINE
  5
812
330
6D5
100
AcDbEntity
  8
0
 62
     0
370
    -2
100
AcDbLine
 10
-97.87812500000001
 20
-11.61614
 30
0.0
 11
-97.87812500000001
 21
-21.095058
 31
0.0
  0
LINE
  5
813
330
6D5
100
AcDbEntity
  8
0
 62
     0
370
    -2
100
AcDbLine
 10
-39.728125
 20
-11.61614
 30
0.0
 11
-39.728125
 21
-21.095058
 31
0.0
  0
LINE
  5
814
330
6D5
100
AcDbEntity
  8
0
 62
     0
370
    -2
100
AcDbLine
 10
-95.37812499999998
 20
-19.845058
 30
0.0
 11
-42.22812499999999
 21
-19.845058
 31
0.0
  0
INSERT
  5
815
330
6D5
100
AcDbEntity
  8
0
 62
     0
370
    -2
100
AcDbBlockReference
  2
_Open30
 10
-97.87812500000001
 20
-19.845058
 30
0.0
 41
2.5
 42
2.5
 43
2.5
 50
180.0
  0
INSERT
  5
816
330
6D5
100
AcDbEntity
  8
0
 62
     0
370
    -2
100
AcDbBlockReference
  2
_Open30
 10
-39.728125
 20
-19.845058
 30
0.0
 41
2.5
 42
2.5
 43
2.5
  0
MTEXT
  5
817
330
6D5
100
AcDbEntity
  8
0
 62
     4
100
AcDbMText
 10
-68.803125
 20
-17.720058
 30
0.0
 40
3.0
 41
0.0
 71
     5
 72
     1
  1
465
 73
     1
 44
1.0
  0
POINT
  5
818
330
6D5
100
AcDbEntity
  8
Defpoints
 62
     0
100
AcDbPoint
 10
-97.87812500000001
 20
-11.36614
 30
0.0
  0
POINT
  5
819
330
6D5
100
AcDbEntity
  8
Defpoints
 62
     0
100
AcDbPoint
 10
-39.728125
 20
-11.36614
 30
0.0
  0
POINT
  5
81A
330
6D5
100
AcDbEntity
  8
Defpoints
 62
     0
100
AcDbPoint
 10
-39.728125
 20
-19.845058
 30
0.0
  0
ENDBLK
  5
6D7
330
6D5
100
AcDbEntity
  8
0
100
AcDbBlockEnd
  0
BLOCK
  5
827
330
81D
100
AcDbEntity
  8
0
100
AcDbBlockBegin
  2
*D18
 70
     1
 10
0.0
 20
0.0
 30
0.0
  3
*D18
  1

  0
LINE
  5
81E
330
81D
100
AcDbEntity
  8
0
  6
Continuous
 62
     0
370
    -2
100
AcDbLine
 10
66.481746
 20
53.99653499999998
 30
0.0
 11
66.481746
 21
52.15825154572098
 31
0.0
  0
LINE
  5
81F
330
81D
100
AcDbEntity
  8
0
  6
Continuous
 62
     0
370
    -2
100
AcDbLine
 10
32.731746
 20
53.99653499999998
 30
0.0
 11
32.731746
 21
52.15825154572098
 31
0.0
  0
LINE
  5
820
330
81D
100
AcDbEntity
  8
0
  6
Continuous
 62
     0
370
    -2
100
AcDbLine
 10
63.981746
 20
53.40825154572098
 30
0.0
 11
35.231746
 21
53.40825154572098
 31
0.0
  0
INSERT
  5
821
330
81D
100
AcDbEntity
  8
0
  6
Continuous
 62
     0
370
    -2
100
AcDbBlockReference
  2
_Open30
 10
66.481746
 20
53.40825154572098
 30
0.0
 41
2.5
 42
2.5
 43
2.5
  0
INSERT
  5
822
330
81D
100
AcDbEntity
  8
0
  6
Continuous
 62
     0
370
    -2
100
AcDbBlockReference
  2
_Open30
 10
32.731746
 20
53.40825154572098
 30
0.0
 41
2.5
 42
2.5
 43
2.5
 50
180.0
  0
MTEXT
  5
823
330
81D
100
AcDbEntity
  8
0
  6
Continuous
 62
     4
100
AcDbMText
 10
48.36656105667668
 20
55.53325154572099
 30
0.0
 40
3.0
 41
0.0
 71
     5
 72
     1
  1
33.75
 73
     1
 44
1.0
  0
POINT
  5
824
330
81D
100
AcDbEntity
  8
Defpoints
  6
Continuous
 62
     0
100
AcDbPoint
 10
66.481746
 20
54.24653499999998
 30
0.0
  0
POINT
  5
825
330
81D
100
AcDbEntity
  8
Defpoints
  6
Continuous
 62
     0
100
AcDbPoint
 10
32.731746
 20
54.24653499999998
 30
0.0
  0
POINT
  5
826
330
81D
100
AcDbEntity
  8
Defpoints
  6
Continuous
 62
     0
100
AcDbPoint
 10
32.731746
 20
53.40825154572098
 30
0.0
  0
ENDBLK
  5
828
330
81D
100
AcDbEntity
  8
0
100
AcDbBlockEnd
  0
BLOCK
  5
845
330
839
100
AcDbEntity
  8
0
100
AcDbBlockBegin
  2
*D19
 70
     1
 10
0.0
 20
0.0
 30
0.0
  3
*D19
  1

  0
LINE
  5
847
330
839
100
AcDbEntity
  8
0
  6
Continuous
 62
     0
370
    -2
100
AcDbLine
 10
66.481746
 20
54.24653500000001
 30
0.0
 11
66.481746
 21
60.45555102854428
 31
0.0
  0
LINE
  5
848
330
839
100
AcDbEntity
  8
0
  6
Continuous
 62
     0
370
    -2
100
AcDbLine
 10
67.981746
 20
54.24653500000001
 30
0.0
 11
67.981746
 21
60.45555102854428
 31
0.0
  0
LINE
  5
849
330
839
100
AcDbEntity
  8
0
  6
Continuous
 62
     0
370
    -2
100
AcDbLine
 10
63.981746
 20
59.20555102854428
 30
0.0
 11
61.481746
 21
59.20555102854428
 31
0.0
  0
LINE
  5
84A
330
839
100
AcDbEntity
  8
0
  6
Continuous
 62
     0
370
    -2
100
AcDbLine
 10
70.481746
 20
59.20555102854428
 30
0.0
 11
78.731746
 21
59.20555102854428
 31
0.0
  0
LINE
  5
84B
330
839
100
AcDbEntity
  8
0
  6
Continuous
 62
     0
370
    -2
100
AcDbLine
 10
66.481746
 20
59.20555102854428
 30
0.0
 11
67.981746
 21
59.20555102854428
 31
0.0
  0
INSERT
  5
84C
330
839
100
AcDbEntity
  8
0
  6
Continuous
 62
     0
370
    -2
100
AcDbBlockReference
  2
_Open30
 10
66.481746
 20
59.20555102854428
 30
0.0
 41
2.5
 42
2.5
 43
2.5
  0
INSERT
  5
84D
330
839
100
AcDbEntity
  8
0
  6
Continuous
 62
     0
370
    -2
100
AcDbBlockReference
  2
_Open30
 10
67.981746
 20
59.20555102854428
 30
0.0
 41
2.5
 42
2.5
 43
2.5
 50
180.0
  0
MTEXT
  5
84E
330
839
100
AcDbEntity
  8
0
  6
Continuous
 62
     4
100
AcDbMText
 10
76.106746
 20
61.33055102854427
 30
0.0
 40
3.0
 41
0.0
 71
     5
 72
     1
  1
12
 73
     1
 44
1.0
  0
POINT
  5
84F
330
839
100
AcDbEntity
  8
Defpoints
  6
Continuous
 62
     0
100
AcDbPoint
 10
66.481746
 20
53.99653500000002
 30
0.0
  0
POINT
  5
850
330
839
100
AcDbEntity
  8
Defpoints
  6
Continuous
 62
     0
100
AcDbPoint
 10
67.981746
 20
53.99653500000002
 30
0.0
  0
POINT
  5
851
330
839
100
AcDbEntity
  8
Defpoints
  6
Continuous
 62
     0
100
AcDbPoint
 10
67.981746
 20
59.20555102854428
 30
0.0
  0
ENDBLK
  5
846
330
839
100
AcDbEntity
  8
0
100
AcDbBlockEnd
  0
ENDSEC
  0
SECTION
  2
ENTITIES
  0
DIMENSION
  5
B3
330
36
100
AcDbEntity
  8
0
100
AcDbDimension
  2
*D16
 10
-28.341803
 20
54.74635999999999
 30
0.0
 11
-30.46680300000002
 21
24.74635999999998
 31
0.0
 70
    32
  1
%%C470
 71
     5
 42
60.0
  3
FREE
100
AcDbAlignedDimension
 13
-68.803125
 23
-5.253639999999998
 33
0.0
 14
-68.803125
 24
54.74636
 34
0.0
 50
90.0
100
AcDbRotatedDimension
  0
DIMENSION
  5
B4
330
36
100
AcDbEntity
  8
0
100
AcDbDimension
  2
*D15
 10
-18.806299
 20
54.74635999999999
 30
0.0
 11
-20.93129900000001
 21
20.99010999999999
 31
0.0
 70
    32
  1
525
 71
     5
 42
67.51249999999997
  3
FREE
100
AcDbAlignedDimension
 13
-41.115625
 23
-12.76614
 33
0.0
 14
-68.803125
 24
54.74636
 34
0.0
 50
90.0
100
AcDbRotatedDimension
  0
DIMENSION
  5
B5
330
36
100
AcDbEntity
  8
0
100
AcDbDimension
  2
*D17
 10
-39.728125
 20
-19.845058
 30
0.0
 11
-68.803125
 21
-17.720058
 31
0.0
 70
    32
  1
465
 71
     5
 42
58.15
  3
FREE
100
AcDbAlignedDimension
 13
-97.87812500000001
 23
-11.36614
 33
0.0
 14
-39.728125
 24
-11.36614
 34
0.0
100
AcDbRotatedDimension
  0
DIMENSION
  5
B6
330
36
100
AcDbEntity
  8
0
100
AcDbDimension
  2
*D14
 10
66.481746
 20
59.261924
 30
0.0
 11
49.606746
 21
61.386924
 31
0.0
 70
    32
  1
270
 71
     5
 42
33.75
  3
FREE
100
AcDbAlignedDimension
 13
32.731746
 23
54.24653499999998
 33
0.0
 14
66.481746
 24
54.24653499999998
 34
0.0
100
AcDbRotatedDimension
  0
DIMENSION
  5
B7
330
36
100
AcDbEntity
  8
0
100
AcDbDimension
  2
*D13
 10
85.94744399999996
 20
37.61635999999999
 30
0.0
 11
83.82244399999995
 21
24.74653500000001
 31
0.0
 70
    32
  1
%%C210
 71
     5
 42
25.73965
  3
FREE
100
AcDbAlignedDimension
 13
66.481746
 23
11.87671
 33
0.0
 14
66.481746
 24
37.61636
 34
0.0
 50
90.0
100
AcDbRotatedDimension
  0
DIMENSION
  5
B8
330
36
100
AcDbEntity
  8
0
100
AcDbDimension
  2
*D12
 10
72.731746
 20
-21.295041
 30
0.0
 11
49.612654
 21
-19.170041
 31
0.0
 70
    32
  1
370
 71
     5
 42
46.238184
  3
FREE
100
AcDbAlignedDimension
 13
26.493562
 23
-4.215964999999997
 33
0.0
 14
72.731746
 24
-4.215964999999997
 34
0.0
100
AcDbRotatedDimension
  0
LINE
  5
CF
330
36
100
AcDbEntity
  8
0
 62
     3
100
AcDbLine
 10
0.0
 20
98.472617
 30
0.0
 11
0.0
 21
97.224058
 31
0.0
  0
TEXT
  5
D0
330
36
100
AcDbEntity
  8
0
 62
     3
100
AcDbText
 10
47.284737
 20
-57.091086
 30
0.0
 40
4.5
  1
空
 41
0.8888889999999999
100
AcDbText
  0
TEXT
  5
D1
330
36
100
AcDbEntity
  8
0
 62
     3
100
AcDbText
 10
55.456386
 20
-57.091086
 30
0.0
 40
4.5
  1
リ
 41
0.8888889999999999
100
AcDbText
  0
TEXT
  5
D2
330
36
100
AcDbEntity
  8
0
 62
     3
100
AcDbText
 10
63.628036
 20
-57.091086
 30
0.0
 40
4.5
  1
ー
 41
0.8888889999999999
100
AcDbText
  0
TEXT
  5
D3
330
36
100
AcDbEntity
  8
0
 62
     3
100
AcDbText
 10
71.79968599999998
 20
-57.091086
 30
0.0
 40
4.5
  1
ル
 41
0.8888889999999999
100
AcDbText
  0
LINE
  5
E2
330
36
100
AcDbEntity
  8
0
 62
     7
100
AcDbLine
 10
-65.34149232673666
 20
12.31033609339947
 30
0.0
 11
-68.49649379384219
 21
20.97863138261814
 31
0.0
  0
ARC
  5
E3
330
36
100
AcDbEntity
  8
0
 62
     7
100
AcDbCircle
 10
-64.40179970595075
 20
12.65235623672514
 30
0.0
 40
1.0
100
AcDbArc
 50
200.0
 51
20.00000000000002
  0
LINE
  5
E4
330
36
100
AcDbEntity
  8
0
 62
     3
100
AcDbLine
 10
-65.1057063981805
 20
9.469666278743976
 30
0.0
 11
-68.97945971425008
 21
20.1127160431826
 31
0.0
  0
LINE
  5
E5
330
36
100
AcDbEntity
  8
0
 62
     3
100
AcDbLine
 10
-61.81678222542982
 20
10.66673678038382
 30
0.0
 11
-65.6905355414994
 21
21.30978654482245
 31
0.0
  0
LINE
  5
E6
330
36
100
AcDbEntity
  8
0
 62
     7
100
AcDbLine
 10
-63.46210708516484
 20
12.99437638005081
 30
0.0
 11
-66.61710855227038
 21
21.66267166926948
 31
0.0
  0
ARC
  5
E7
330
36
100
AcDbEntity
  8
0
 62
     3
100
AcDbCircle
 10
-68.80359484631039
 20
24.74618898992833
 30
0.0
 40
3.0
100
AcDbArc
 50
347.5382550327578
 51
232.4617449672424
  0
CIRCLE
  5
E8
330
36
100
AcDbEntity
  8
0
 62
     3
100
AcDbCircle
 10
-63.46124431180515
 20
10.0682015295639
 30
0.0
 40
1.75
  0
ARC
  5
EA
330
36
100
AcDbEntity
  8
0
 62
     7
100
AcDbCircle
 10
-70.73162624560302
 20
22.44777722447667
 30
0.0
 40
0.625
100
AcDbArc
 50
134.0291129999999
 51
325.9874270000001
  0
ARC
  5
EB
330
36
100
AcDbEntity
  8
0
 62
     7
100
AcDbCircle
 10
-69.82965527628738
 20
27.56526685228606
 30
0.0
 40
0.625
100
AcDbArc
 50
20.00000000000002
 51
200.0
  0
ARC
  5
EC
330
36
100
AcDbEntity
  8
0
 62
     7
100
AcDbCircle
 10
-65.84924650193327
 20
24.2248181235567
 30
0.0
 40
0.625
100
AcDbArc
 50
254.0125730000001
 51
85.970887
  0
CIRCLE
  5
ED
330
36
100
AcDbEntity
  8
0
 62
     7
100
AcDbCircle
 10
-63.46124431180515
 20
10.0682015295639
 30
0.0
 40
1.125
  0
LINE
  5
EE
330
36
100
AcDbEntity
  8
0
 62
     3
100
AcDbLine
 10
24.432992
 20
22.871547
 30
0.0
 11
24.68467
 21
26.621547
 31
0.0
  0
LINE
  5
EF
330
36
100
AcDbEntity
  8
0
 62
     3
100
AcDbLine
 10
22.268562
 20
27.621547
 30
0.0
 11
22.268562
 21
8.121547
 31
0.0
  0
LINE
  5
F0
330
36
100
AcDbEntity
  8
0
 62
     3
100
AcDbLine
 10
22.518562
 20
27.871547
 30
0.0
 11
24.768562
 21
27.871547
 31
0.0
  0
LINE
  5
F1
330
36
100
AcDbEntity
  8
0
 62
     3
100
AcDbLine
 10
24.68467
 20
26.621547
 30
0.0
 11
24.768562
 21
27.871547
 31
0.0
  0
LINE
  5
F2
330
36
100
AcDbEntity
  8
0
 62
     3
100
AcDbLine
 10
24.432992
 20
22.871547
 30
0.0
 11
23.518562
 21
9.246547
 31
0.0
  0
LINE
  5
F3
330
36
100
AcDbEntity
  8
0
 62
     3
100
AcDbLine
 10
23.518562
 20
8.121547
 30
0.0
 11
23.518562
 21
9.246547
 31
0.0
  0
ARC
  5
F4
330
36
100
AcDbEntity
  8
0
 62
     3
100
AcDbCircle
 10
23.268562
 20
8.121547
 30
0.0
 40
0.25
100
AcDbArc
 50
270.0
 51
0.0
  0
LINE
  5
F5
330
36
100
AcDbEntity
  8
0
 62
     3
100
AcDbLine
 10
23.268562
 20
7.871547
 30
0.0
 11
22.518562
 21
7.871547
 31
0.0
  0
ARC
  5
F6
330
36
100
AcDbEntity
  8
0
 62
     7
100
AcDbCircle
 10
-68.80342383623872
 20
24.74571914361794
 30
0.0
 40
2.1875
100
AcDbArc
 50
343.9088427622418
 51
236.0911572377581
  0
LINE
  5
F7
330
36
100
AcDbEntity
  8
0
 62
     3
100
AcDbLine
 10
-138.5
 20
90.0
 30
0.0
 11
-138.5
 21
-90.0
 31
0.0
  0
LINE
  5
F8
330
36
100
AcDbEntity
  8
0
 62
     3
100
AcDbLine
 10
138.5
 20
-90.0
 30
0.0
 11
138.5
 21
90.0
 31
0.0
  0
LINE
  5
F9
330
36
100
AcDbEntity
  8
0
 62
     3
100
AcDbLine
 10
-138.5
 20
90.0
 30
0.0
 11
138.5
 21
90.0
 31
0.0
  0
ARC
  5
FF
330
36
100
AcDbEntity
  8
0
 62
     7
100
AcDbCircle
 10
23.518562
 20
27.871547
 30
0.0
 40
0.75
100
AcDbArc
 50
0.0
 51
180.0
  0
CIRCLE
  5
100
330
36
100
AcDbEntity
  8
0
 62
     7
100
AcDbCircle
 10
23.518562
 20
24.746535
 30
0.0
 40
0.75
  0
LINE
  5
101
330
36
100
AcDbEntity
  8
0
 62
     3
100
AcDbLine
 10
138.5
 20
-90.0
 30
0.0
 11
-138.5
 21
-90.0
 31
0.0
  0
ARC
  5
108
330
36
100
AcDbEntity
  8
0
 62
     3
100
AcDbCircle
 10
22.518562
 20
27.621547
 30
0.0
 40
0.25
100
AcDbArc
 50
90.0
 51
180.0
  0
LINE
  5
109
330
36
100
AcDbEntity
  8
0
 62
     3
100
AcDbLine
 10
26.493562
 20
-5.740965
 30
0.0
 11
26.493562
 21
20.979683
 31
0.0
  0
LINE
  5
10A
330
36
100
AcDbEntity
  8
0
 62
     3
100
AcDbLine
 10
29.268562
 20
-5.765965
 30
0.0
 11
29.268562
 21
20.979683
 31
0.0
  0
ARC
  5
10B
330
36
100
AcDbEntity
  8
0
 62
     3
100
AcDbCircle
 10
22.518562
 20
8.121547
 30
0.0
 40
0.25
100
AcDbArc
 50
180.0
 51
270.0
  0
LINE
  5
10C
330
36
100
AcDbEntity
  8
0
 62
     3
100
AcDbLine
 10
69.956746
 20
-5.765965
 30
0.0
 11
69.956746
 21
20.979683
 31
0.0
  0
LINE
  5
10D
330
36
100
AcDbEntity
  8
0
 62
     3
100
AcDbLine
 10
72.731746
 20
-5.740965
 30
0.0
 11
72.731746
 21
20.979683
 31
0.0
  0
LINE
  5
10E
330
36
100
AcDbEntity
  8
0
 62
     3
100
AcDbLine
 10
64.759662
 20
-13.240965
 30
0.0
 11
65.231746
 21
-13.240965
 31
0.0
  0
LINE
  5
10F
330
36
100
AcDbEntity
  8
0
 62
     3
100
AcDbLine
 10
35.319162
 20
-10.465965
 30
0.0
 11
33.968562
 21
-10.465965
 31
0.0
  0
LINE
  5
120
330
36
100
AcDbEntity
  8
0
 62
     7
100
AcDbLine
 10
22.268562
 20
21.621547
 30
0.0
 11
24.349099
 21
21.621547
 31
0.0
  0
LINE
  5
123
330
36
100
AcDbEntity
  8
0
 62
     3
100
AcDbLine
 10
112.7006
 20
-73.27113299999996
 30
0.0
 11
112.7006
 21
-50.27113299999999
 31
0.0
  0
LINE
  5
125
330
36
100
AcDbEntity
  8
0
 62
     3
100
AcDbLine
 10
59.646991
 20
-80.27113299999998
 30
0.0
 11
59.646991
 21
-66.27113299999999
 31
0.0
  0
TEXT
  5
127
330
36
100
AcDbEntity
  8
0
 62
     3
100
AcDbText
 10
88.710918
 20
-54.066017
 30
0.0
 40
2.0
  1
A
 41
0.7
100
AcDbText
  0
TEXT
  5
128
330
36
100
AcDbEntity
  8
0
 62
     3
100
AcDbText
 10
91.246205
 20
-54.066017
 30
0.0
 40
2.0
  1
P
 41
0.7
100
AcDbText
  0
TEXT
  5
129
330
36
100
AcDbEntity
  8
0
 62
     3
100
AcDbText
 10
93.78149099999999
 20
-54.066017
 30
0.0
 40
2.0
  1
P
 41
0.7
100
AcDbText
  0
TEXT
  5
12A
330
36
100
AcDbEntity
  8
0
 62
     3
100
AcDbText
 10
96.316777
 20
-54.066017
 30
0.0
 40
2.0
  1
D
 41
0.7
100
AcDbText
  0
TEXT
  5
12B
330
36
100
AcDbEntity
  8
0
 62
     3
100
AcDbText
 10
101.68546
 20
-54.066017
 30
0.0
 40
2.0
  1
C
 41
0.7
100
AcDbText
  0
TEXT
  5
12C
330
36
100
AcDbEntity
  8
0
 62
     3
100
AcDbText
 10
104.220746
 20
-54.066017
 30
0.0
 40
2.0
  1
H
 41
0.7
100
AcDbText
  0
TEXT
  5
12D
330
36
100
AcDbEntity
  8
0
 62
     3
100
AcDbText
 10
106.756033
 20
-54.066017
 30
0.0
 40
2.0
  1
C
 41
0.7
100
AcDbText
  0
TEXT
  5
12E
330
36
100
AcDbEntity
  8
0
 62
     3
100
AcDbText
 10
109.291319
 20
-54.066017
 30
0.0
 40
2.0
  1
K
 41
0.7
100
AcDbText
  0
TEXT
  5
12F
330
36
100
AcDbEntity
  8
0
 62
     3
100
AcDbText
 10
114.965285
 20
-54.066017
 30
0.0
 40
2.0
  1
DESN
 41
1.216762999999998
100
AcDbText
  0
TEXT
  5
130
330
36
100
AcDbEntity
  8
0
 62
     3
100
AcDbText
 10
29.958927
 20
-83.412515
 30
0.0
 40
2.0
  1
NICHIDO IND.CO.LTD
 41
1.274876
100
AcDbText
  0
LINE
  5
131
330
36
100
AcDbEntity
  8
0
 62
     3
100
AcDbLine
 10
40.341956
 20
-50.27113299999999
 30
0.0
 11
40.341956
 21
-73.27113299999996
 31
0.0
  0
LINE
  5
132
330
36
100
AcDbEntity
  8
0
 62
     3
100
AcDbLine
 10
86.70059999999997
 20
-50.27113299999999
 30
0.0
 11
86.70059999999997
 21
-89.936856
 31
0.0
  0
LINE
  5
135
330
36
100
AcDbEntity
  8
0
 62
     3
100
AcDbLine
 10
99.7006
 20
-50.27113299999999
 30
0.0
 11
99.7006
 21
-80.27113299999998
 31
0.0
  0
TEXT
  5
136
330
36
100
AcDbEntity
  8
0
 62
     3
100
AcDbText
 10
87.81304499999995
 20
-79.406446
 30
0.0
 40
3.2
  1
作成日
 41
1.017225999999997
100
AcDbText
  0
LINE
  5
137
330
36
100
AcDbEntity
  8
0
 62
     3
100
AcDbLine
 10
125.7006
 20
-73.27113299999996
 30
0.0
 11
125.7006
 21
-50.27113299999999
 31
0.0
  0
TEXT
  5
138
330
36
100
AcDbEntity
  8
0
 62
     3
100
AcDbText
 10
129.024404
 20
-53.980199
 30
0.0
 40
1.8
  1
D
 41
0.666667
100
AcDbText
  0
TEXT
  5
139
330
36
100
AcDbEntity
  8
0
 62
     3
100
AcDbText
 10
131.841032
 20
-53.980199
 30
0.0
 40
1.8
  1
E
 41
0.666667
100
AcDbText
  0
TEXT
  5
13A
330
36
100
AcDbEntity
  8
0
 62
     3
100
AcDbText
 10
134.65766
 20
-53.980199
 30
0.0
 40
1.8
  1
F
 41
0.666667
100
AcDbText
  0
TEXT
  5
13B
330
36
100
AcDbEntity
  8
0
 62
     3
100
AcDbText
 10
129.024404
 20
-57.972752
 30
0.0
 40
3.2
  1
製図
 41
1.076369
100
AcDbText
  0
LINE
  5
13C
330
36
100
AcDbEntity
  8
0
 62
     3
100
AcDbLine
 10
27.096521
 20
-50.27113299999999
 30
0.0
 11
27.096521
 21
-89.936856
 31
0.0
  0
TEXT
  5
13D
330
36
100
AcDbEntity
  8
0
 62
     3
100
AcDbText
 10
28.473174
 20
-89.60439
 30
0.0
 40
5.0
  1
日動工業株式会社
 41
0.833333
100
AcDbText
  0
LINE
  5
13E
330
36
100
AcDbEntity
  8
0
 62
     3
100
AcDbLine
 10
69.97892500000002
 20
-66.271133
 30
0.0
 11
69.978925
 21
-89.936856
 31
0.0
  0
LINE
  5
13F
330
36
100
AcDbEntity
  8
0
 62
     3
100
AcDbLine
 10
69.978925
 20
-85.103994
 30
0.0
 11
86.70059999999997
 21
-85.103994
 31
0.0
  0
TEXT
  5
140
330
36
100
AcDbEntity
  8
0
 62
     3
100
AcDbText
 10
70.565527
 20
-84.28756400000002
 30
0.0
 40
3.2
  1
出図コード
 41
0.8356860000000002
100
AcDbText
  0
LINE
  5
142
330
36
100
AcDbEntity
  8
0
 62
     3
100
AcDbLine
 10
27.096521
 20
-80.27113299999998
 30
0.0
 11
138.399964
 21
-80.27113299999998
 31
0.0
  0
LINE
  5
144
330
36
100
AcDbEntity
  8
0
 62
     3
100
AcDbLine
 10
27.096521
 20
-59.271133
 30
0.0
 11
138.399964
 21
-59.271133
 31
0.0
  0
LINE
  5
14A
330
36
100
AcDbEntity
  8
0
 62
     3
100
AcDbLine
 10
27.096521
 20
-66.27113299999999
 30
0.0
 11
86.70059999999997
 21
-66.27113299999999
 31
0.0
  0
LINE
  5
150
330
36
100
AcDbEntity
  8
0
 62
     3
100
AcDbLine
 10
27.096521
 20
-73.27113299999996
 30
0.0
 11
138.399964
 21
-73.27113299999996
 31
0.0
  0
TEXT
  5
151
330
36
100
AcDbEntity
  8
0
 62
     3
100
AcDbText
 10
70.432979
 20
-89.334661
 30
0.0
 40
3.2
  1
ZK-A4X
 41
0.8112849999999999
100
AcDbText
  0
TEXT
  5
152
330
36
100
AcDbEntity
  8
0
 62
     3
100
AcDbText
 10
28.913918
 20
-54.10160699999998
 30
0.0
 40
2.0
  1
CONPONENTS
 41
0.5331600000000001
100
AcDbText
  0
TEXT
  5
153
330
36
100
AcDbEntity
  8
0
 62
     3
100
AcDbText
 10
28.564192
 20
-73.03378399999998
 30
0.0
 40
3.0
  1
材
 41
0.833333
100
AcDbText
  0
TEXT
  5
154
330
36
100
AcDbEntity
  8
0
 62
     3
100
AcDbText
 10
36.099834
 20
-73.03378399999998
 30
0.0
 40
3.0
  1
質
 41
0.833333
100
AcDbText
  0
TEXT
  5
155
330
36
100
AcDbEntity
  8
0
 62
     3
100
AcDbText
 10
28.652262
 20
-62.40925999999999
 30
0.0
 40
2.0
  1
MODEL
 41
1.031072999999999
100
AcDbText
  0
TEXT
  5
156
330
36
100
AcDbEntity
  8
0
 62
     3
100
AcDbText
 10
28.564192
 20
-69.351476
 30
0.0
 40
2.0
  1
MATERIAL
 41
0.659278
100
AcDbText
  0
TEXT
  5
157
330
36
100
AcDbEntity
  8
0
 62
     3
100
AcDbText
 10
59.87147199999999
 20
-73.03378399999998
 30
0.0
 40
3.0
  1
備
 41
0.833333
100
AcDbText
  0
TEXT
  5
158
330
36
100
AcDbEntity
  8
0
 62
     3
100
AcDbText
 10
66.604474
 20
-73.03378399999998
 30
0.0
 40
3.0
  1
考
 41
0.833333
100
AcDbText
  0
TEXT
  5
159
330
36
100
AcDbEntity
  8
0
 62
     3
100
AcDbText
 10
60.2171911294306
 20
-69.351476
 30
0.0
 40
2.0
  1
REMARKS
 41
0.675794
100
AcDbText
  0
TEXT
  5
15A
330
36
100
AcDbEntity
  8
0
 62
     3
100
AcDbText
 10
30.153921
 20
-76.27159699999999
 30
0.0
 40
2.0
  1
3AD
 41
1.42614
100
AcDbText
  0
TEXT
  5
15B
330
36
100
AcDbEntity
  8
0
 62
     3
100
AcDbText
 10
39.4649
 20
-76.105863
 30
0.0
 40
2.0
  1
ANGLE
 41
1.669883999999995
100
AcDbText
  0
TEXT
  5
15C
330
36
100
AcDbEntity
  8
0
 62
     3
100
AcDbText
 10
60.93977676445001
 20
-76.482704
 30
0.0
 40
2.0
  1
SCALE
 41
0.7719630000000001
100
AcDbText
  0
TEXT
  5
15D
330
36
100
AcDbEntity
  8
0
 62
     3
100
AcDbText
 10
29.84005
 20
-80.27113299999998
 30
0.0
 40
3.0
  1
第
 41
0.833333
100
AcDbText
  0
TEXT
  5
15E
330
36
100
AcDbEntity
  8
0
 62
     3
100
AcDbText
 10
37.6269
 20
-80.27113299999998
 30
0.0
 40
3.0
  1
三
 41
0.833333
100
AcDbText
  0
TEXT
  5
15F
330
36
100
AcDbEntity
  8
0
 62
     3
100
AcDbText
 10
45.41375
 20
-80.27113299999998
 30
0.0
 40
3.0
  1
角
 41
0.833333
100
AcDbText
  0
TEXT
  5
160
330
36
100
AcDbEntity
  8
0
 62
     3
100
AcDbText
 10
53.2006
 20
-80.27113299999998
 30
0.0
 40
3.0
  1
法
 41
0.833333
100
AcDbText
  0
TEXT
  5
161
330
36
100
AcDbEntity
  8
0
 62
     3
100
AcDbText
 10
60.261992
 20
-79.982704
 30
0.0
 40
3.0
  1
尺
 41
0.833333
100
AcDbText
  0
TEXT
  5
162
330
36
100
AcDbEntity
  8
0
 62
     3
100
AcDbText
 10
66.99499399999999
 20
-79.982704
 30
0.0
 40
3.0
  1
度
 41
0.833333
100
AcDbText
  0
TEXT
  5
163
330
36
100
AcDbEntity
  8
0
 62
     3
100
AcDbText
 10
89.57826500000002
 20
-57.81340400000001
 30
0.0
 40
3.0
  1
承認
 41
1.089472999999999
100
AcDbText
  0
TEXT
  5
164
330
36
100
AcDbEntity
  8
0
 62
     3
100
AcDbText
 10
102.821145
 20
-57.87113299999999
 30
0.0
 40
3.0
  1
検図
 41
0.931761
100
AcDbText
  0
TEXT
  5
165
330
36
100
AcDbEntity
  8
0
 62
     3
100
AcDbText
 10
115.821542
 20
-57.87113299999999
 30
0.0
 40
3.0
  1
設
 41
0.833333
100
AcDbText
  0
TEXT
  5
166
330
36
100
AcDbEntity
  8
0
 62
     3
100
AcDbText
 10
120.31141
 20
-57.87113299999999
 30
0.0
 40
3.0
  1
計
 41
0.833333
100
AcDbText
  0
TEXT
  5
167
330
36
100
AcDbEntity
  8
0
 62
     3
100
AcDbText
 10
28.84539
 20
-58.582377
 30
0.0
 40
3.0
  1
品
 41
0.833333
100
AcDbText
  0
TEXT
  5
168
330
36
100
AcDbEntity
  8
0
 62
     3
100
AcDbText
 10
36.381032
 20
-58.582377
 30
0.0
 40
3.0
  1
名
 41
0.833333
100
AcDbText
  0
TEXT
  5
169
330
36
100
AcDbEntity
  8
0
 62
     3
100
AcDbText
 10
28.652262
 20
-66.04151999999999
 30
0.0
 40
3.0
  1
型
 41
0.833333
100
AcDbText
  0
TEXT
  5
16A
330
36
100
AcDbEntity
  8
0
 62
     3
100
AcDbText
 10
36.200353
 20
-66.04151999999999
 30
0.0
 40
3.0
  1
式
 41
0.833333
100
AcDbText
  0
TEXT
  5
16B
330
36
100
AcDbEntity
  8
0
 62
     3
100
AcDbText
 10
-60.69606342451741
 20
-89.50000000000001
 30
0.0
 40
2.5
  1
個数
 41
0.8
  7
高2.5
100
AcDbText
  0
LINE
  5
16C
330
36
100
AcDbEntity
  8
0
 62
     3
100
AcDbLine
 10
-54.73802268423352
 20
-90.0
 30
0.0
 11
-54.73802268423353
 21
-62.0
 31
0.0
  0
TEXT
  5
16D
330
36
100
AcDbEntity
  8
0
 62
     3
100
AcDbText
 10
-137.0
 20
-89.50000000000001
 30
0.0
 40
2.5
  1
NO
 41
0.8
  7
高2.5
100
AcDbText
  0
TEXT
  5
16E
330
36
100
AcDbEntity
  8
0
 62
     3
100
AcDbText
 10
-130.9772379944078
 20
-89.50000000000001
 30
0.0
 40
2.5
  1
部　品　名
 41
0.8
  7
高2.5
100
AcDbText
  0
TEXT
  5
16F
330
36
100
AcDbEntity
  8
0
 62
     3
100
AcDbText
 10
-83.07695506887148
 20
-89.50000000000001
 30
0.0
 40
2.5
  1
備　考
 41
0.8
  7
高2.5
100
AcDbText
  0
TEXT
  5
170
330
36
100
AcDbEntity
  8
0
 62
     3
100
AcDbText
 10
-102.6815608628601
 20
-89.50000000000001
 30
0.0
 40
2.5
  1
仕　　様
 41
0.8
  7
高2.5
100
AcDbText
  0
TEXT
  5
171
330
36
100
AcDbEntity
  8
0
 62
     3
100
AcDbText
 10
-60.69606342451741
 20
-69.5
 30
0.0
 40
2.5
  1
1
 41
0.8
  7
高2.5
100
AcDbText
  0
TEXT
  5
172
330
36
100
AcDbEntity
  8
0
 62
     3
100
AcDbText
 10
-60.69606342451741
 20
-81.50000000000001
 30
0.0
 40
2.5
  1
2
 41
0.8
  7
高2.5
100
AcDbText
  0
TEXT
  5
173
330
36
100
AcDbEntity
  8
0
 62
     3
100
AcDbText
 10
-60.69606342451741
 20
-73.50000000000001
 30
0.0
 40
2.5
  1
2
 41
0.8
  7
高2.5
100
AcDbText
  0
LINE
  5
174
330
36
100
AcDbEntity
  8
0
 62
     7
100
AcDbLine
 10
-62.19606342451742
 20
-90.0
 30
0.0
 11
-62.19606342451744
 21
-62.0
 31
0.0
  0
LINE
  5
175
330
36
100
AcDbEntity
  8
0
 62
     7
100
AcDbLine
 10
-84.57695506887148
 20
-90.0
 30
0.0
 11
-84.57695506887148
 21
-62.0
 31
0.0
  0
TEXT
  5
176
330
36
100
AcDbEntity
  8
0
 62
     3
100
AcDbText
 10
-137.0
 20
-85.5
 30
0.0
 40
2.5
  1
1
 41
0.8
  7
高2.5
100
AcDbText
  0
TEXT
  5
177
330
36
100
AcDbEntity
  8
0
 62
     3
100
AcDbText
 10
-137.0
 20
-81.5
 30
0.0
 40
2.5
  1
2
 41
0.8
  7
高2.5
100
AcDbText
  0
TEXT
  5
178
330
36
100
AcDbEntity
  8
0
 62
     3
100
AcDbText
 10
-137.0
 20
-77.5
 30
0.0
 40
2.5
  1
3
 41
0.8
  7
高2.5
100
AcDbText
  0
TEXT
  5
179
330
36
100
AcDbEntity
  8
0
 62
     3
100
AcDbText
 10
-137.0
 20
-73.5
 30
0.0
 40
2.5
  1
4
 41
0.8
  7
高2.5
100
AcDbText
  0
TEXT
  5
17A
330
36
100
AcDbEntity
  8
0
 62
     3
100
AcDbText
 10
-137.0
 20
-69.5
 30
0.0
 40
2.5
  1
5
 41
0.8
  7
高2.5
100
AcDbText
  0
TEXT
  5
17B
330
36
100
AcDbEntity
  8
0
 62
     3
100
AcDbText
 10
-137.0
 20
-65.5
 30
0.0
 40
2.5
  1
6
 41
0.8
  7
高2.5
100
AcDbText
  0
TEXT
  5
17C
330
36
100
AcDbEntity
  8
0
 62
     3
100
AcDbText
 10
-115.9696408288487
 20
-81.5
 30
0.0
 40
2.5
  1
STKM
 41
0.8
  7
高2.5
100
AcDbText
  0
LINE
  5
17D
330
36
100
AcDbEntity
  8
0
 62
     7
100
AcDbLine
 10
-104.1815608628602
 20
-90.0
 30
0.0
 11
-104.1815608628602
 21
-62.0
 31
0.0
  0
LINE
  5
17E
330
36
100
AcDbEntity
  8
0
 62
     7
100
AcDbLine
 10
-117.4696408288488
 20
-90.0
 30
0.0
 11
-117.4696408288488
 21
-62.0
 31
0.0
  0
LINE
  5
17F
330
36
100
AcDbEntity
  8
0
 62
     7
100
AcDbLine
 10
-132.4772379944078
 20
-90.0
 30
0.0
 11
-132.4772379944079
 21
-62.0
 31
0.0
  0
LINE
  5
180
330
36
100
AcDbEntity
  8
0
 62
     3
100
AcDbLine
 10
86.70059999999997
 20
-50.27113299999999
 30
0.0
 11
86.70059999999997
 21
-44.271133
 31
0.0
  0
LINE
  5
189
330
36
100
AcDbEntity
  8
0
 62
     3
100
AcDbLine
 10
138.399964
 20
-50.27113299999999
 30
0.0
 11
27.096521
 21
-50.27113299999999
 31
0.0
  0
LINE
  5
18A
330
36
100
AcDbEntity
  8
0
 62
     3
100
AcDbLine
 10
138.399964
 20
-44.271133
 30
0.0
 11
86.70059999999997
 21
-44.271133
 31
0.0
  0
TEXT
  5
18B
330
36
100
AcDbEntity
  8
0
 62
     3
100
AcDbText
 10
87.850114
 20
-49.71504799999999
 30
0.0
 40
4.5
  1
コード
 41
0.833333
100
AcDbText
  0
LINE
  5
18C
330
36
100
AcDbEntity
  8
0
 62
     3
100
AcDbLine
 10
112.7006
 20
-50.27113299999999
 30
0.0
 11
112.7006
 21
-44.271133
 31
0.0
  0
TEXT
  5
18D
330
36
100
AcDbEntity
  8
0
 62
     3
100
AcDbText
 10
48.357416
 20
-65.332215
 30
0.0
 40
4.5
  1
NDD-S
 41
1.323904999999998
100
AcDbText
  0
TEXT
  5
18E
330
36
100
AcDbEntity
  8
0
 62
     3
100
AcDbText
 10
89.340661
 20
-89.38072
 30
0.0
 40
6.299999999999998
  1
NDD-S
 41
0.8061899999999997
100
AcDbText
  0
TEXT
  5
18F
330
36
100
AcDbEntity
  8
0
 62
     3
100
AcDbText
 10
102.761575
 20
-79.43053
 30
0.0
 40
3.2
  1
2009.8.27
 41
1.239233
100
AcDbText
  0
TEXT
  5
190
330
36
100
AcDbEntity
  8
0
 62
     3
100
AcDbText
 10
74.16208802858813
 20
-79.35835899999998
 30
0.0
 40
3.2
  1
1/8
100
AcDbText
  0
LINE
  5
191
330
36
100
AcDbEntity
  8
0
  6
CENTER
 62
     7
100
AcDbLine
 10
19.172294
 20
24.746535
 30
0.0
 11
79.22755999999998
 21
24.746535
 31
0.0
  0
LINE
  5
192
330
36
100
AcDbEntity
  8
0
 62
     3
100
AcDbLine
 10
67.98174599999999
 20
20.376535
 30
0.0
 11
69.956746
 21
20.376535
 31
0.0
  0
LINE
  5
193
330
36
100
AcDbEntity
  8
0
 62
     3
100
AcDbLine
 10
67.981746
 20
29.116535
 30
0.0
 11
69.68669799999999
 21
29.116535
 31
0.0
  0
LINE
  5
194
330
36
100
AcDbEntity
  8
0
 62
     3
100
AcDbLine
 10
31.231746
 20
29.116535
 30
0.0
 11
29.526794
 21
29.116535
 31
0.0
  0
LINE
  5
195
330
36
100
AcDbEntity
  8
0
 62
     3
100
AcDbLine
 10
31.231746
 20
20.376535
 30
0.0
 11
29.25674600000001
 21
20.376535
 31
0.0
  0
LINE
  5
196
330
36
100
AcDbEntity
  8
0
 62
     3
100
AcDbLine
 10
32.731746
 20
37.61636
 30
0.0
 11
66.481746
 21
37.61636
 31
0.0
  0
LINE
  5
197
330
36
100
AcDbEntity
  8
0
 62
     3
100
AcDbLine
 10
32.731746
 20
11.87671
 30
0.0
 11
66.481746
 21
11.87671
 31
0.0
  0
ARC
  5
198
330
36
100
AcDbEntity
  8
0
  6
DASHED
 62
     7
100
AcDbCircle
 10
-68.803125
 20
24.74636
 30
0.0
 40
12.87
100
AcDbArc
 50
22.327718
 51
157.672282
  0
ARC
  5
199
330
36
100
AcDbEntity
  8
0
  6
DASHED
 62
     7
100
AcDbCircle
 10
-68.803125
 20
24.74636
 30
0.0
 40
10.445076
100
AcDbArc
 50
22.327718
 51
157.672282
  0
LINE
  5
19A
330
36
100
AcDbEntity
  8
0
  6
DASHED
 62
     7
100
AcDbLine
 10
-59.14115699999999
 20
28.714483
 30
0.0
 11
-56.89804
 21
29.63572
 31
0.0
  0
LINE
  5
19B
330
36
100
AcDbEntity
  8
0
  6
DASHED
 62
     7
100
AcDbLine
 10
-78.46509300000002
 20
28.714483
 30
0.0
 11
-80.70821
 21
29.63572
 31
0.0
  0
ARC
  5
19C
330
36
100
AcDbEntity
  8
0
  6
DASHED
 62
     7
100
AcDbCircle
 10
-68.803125
 20
24.74636
 30
0.0
 40
12.87
100
AcDbArc
 50
202.327718
 51
282.1827421358268
  0
LINE
  5
19D
330
36
100
AcDbEntity
  8
0
  6
DASHED
 62
     7
100
AcDbLine
 10
-59.14115699999999
 20
20.778237
 30
0.0
 11
-56.89804
 21
19.856999
 31
0.0
  0
ARC
  5
19E
330
36
100
AcDbEntity
  8
0
  6
DASHED
 62
     7
100
AcDbCircle
 10
-68.803125
 20
24.74636
 30
0.0
 40
10.445076
100
AcDbArc
 50
202.327718
 51
280.3522199338562
  0
LINE
  5
19F
330
36
100
AcDbEntity
  8
0
  6
DASHED
 62
     7
100
AcDbLine
 10
-78.46509300000002
 20
20.778237
 30
0.0
 11
-80.70821
 21
19.856999
 31
0.0
  0
LINE
  5
1A0
330
36
100
AcDbEntity
  8
0
 62
     7
100
AcDbLine
 10
-67.928125
 20
36.871541
 30
0.0
 11
-67.928125
 21
35.861178
 31
0.0
  0
LINE
  5
1A1
330
36
100
AcDbEntity
  8
0
 62
     7
100
AcDbLine
 10
-68.803125
 20
37.376723
 30
0.0
 11
-67.928125
 21
36.871541
 31
0.0
  0
LINE
  5
1A2
330
36
100
AcDbEntity
  8
0
 62
     7
100
AcDbLine
 10
-69.678125
 20
36.871541
 30
0.0
 11
-68.803125
 21
37.376723
 31
0.0
  0
LINE
  5
1A3
330
36
100
AcDbEntity
  8
0
 62
     7
100
AcDbLine
 10
-69.678125
 20
35.861178
 30
0.0
 11
-69.678125
 21
36.871541
 31
0.0
  0
LINE
  5
1A4
330
36
100
AcDbEntity
  8
0
 62
     7
100
AcDbLine
 10
-68.803125
 20
35.355997
 30
0.0
 11
-69.678125
 21
35.861178
 31
0.0
  0
LINE
  5
1A5
330
36
100
AcDbEntity
  8
0
 62
     7
100
AcDbLine
 10
-67.928125
 20
35.861178
 30
0.0
 11
-68.803125
 21
35.355997
 31
0.0
  0
LINE
  5
1A6
330
36
100
AcDbEntity
  8
0
 62
     7
100
AcDbLine
 10
-79.74134000000002
 20
30.05117800000001
 30
0.0
 11
-79.74134000000002
 21
31.061541
 31
0.0
  0
LINE
  5
1A7
330
36
100
AcDbEntity
  8
0
 62
     7
100
AcDbLine
 10
-78.86634
 20
29.545997
 30
0.0
 11
-79.74134000000002
 21
30.05117800000001
 31
0.0
  0
LINE
  5
1A8
330
36
100
AcDbEntity
  8
0
 62
     7
100
AcDbLine
 10
-77.99134000000002
 20
30.05117800000001
 30
0.0
 11
-78.86634
 21
29.545997
 31
0.0
  0
LINE
  5
1A9
330
36
100
AcDbEntity
  8
0
 62
     7
100
AcDbLine
 10
-77.99134000000002
 20
31.061541
 30
0.0
 11
-77.99134000000002
 21
30.05117800000001
 31
0.0
  0
LINE
  5
1AA
330
36
100
AcDbEntity
  8
0
 62
     7
100
AcDbLine
 10
-78.86634
 20
31.566723
 30
0.0
 11
-77.99134000000002
 21
31.061541
 31
0.0
  0
LINE
  5
1AB
330
36
100
AcDbEntity
  8
0
 62
     7
100
AcDbLine
 10
-79.74134000000002
 20
31.061541
 30
0.0
 11
-78.86634
 21
31.566723
 31
0.0
  0
LINE
  5
1AC
330
36
100
AcDbEntity
  8
0
 62
     7
100
AcDbLine
 10
-57.86490999999998
 20
30.05117800000001
 30
0.0
 11
-57.86490999999998
 21
31.061541
 31
0.0
  0
LINE
  5
1AD
330
36
100
AcDbEntity
  8
0
 62
     7
100
AcDbLine
 10
-58.73991
 20
29.545997
 30
0.0
 11
-57.86490999999998
 21
30.05117800000001
 31
0.0
  0
LINE
  5
1AE
330
36
100
AcDbEntity
  8
0
 62
     7
100
AcDbLine
 10
-59.61490999999998
 20
30.05117800000001
 30
0.0
 11
-58.73991
 21
29.545997
 31
0.0
  0
LINE
  5
1AF
330
36
100
AcDbEntity
  8
0
 62
     7
100
AcDbLine
 10
-59.61490999999998
 20
31.061541
 30
0.0
 11
-59.61490999999998
 21
30.05117800000001
 31
0.0
  0
LINE
  5
1B0
330
36
100
AcDbEntity
  8
0
 62
     7
100
AcDbLine
 10
-58.73991
 20
31.566723
 30
0.0
 11
-59.61490999999998
 21
31.061541
 31
0.0
  0
LINE
  5
1B1
330
36
100
AcDbEntity
  8
0
 62
     7
100
AcDbLine
 10
-57.86490999999998
 20
31.061541
 30
0.0
 11
-58.73991
 21
31.566723
 31
0.0
  0
LINE
  5
1B2
330
36
100
AcDbEntity
  8
0
 62
     7
100
AcDbLine
 10
-57.86490999999998
 20
19.441541
 30
0.0
 11
-57.86490999999998
 21
18.431178
 31
0.0
  0
LINE
  5
1B3
330
36
100
AcDbEntity
  8
0
 62
     7
100
AcDbLine
 10
-58.73991
 20
19.946723
 30
0.0
 11
-57.86490999999998
 21
19.441541
 31
0.0
  0
LINE
  5
1B4
330
36
100
AcDbEntity
  8
0
 62
     7
100
AcDbLine
 10
-59.61490999999998
 20
19.441541
 30
0.0
 11
-58.73991
 21
19.946723
 31
0.0
  0
LINE
  5
1B5
330
36
100
AcDbEntity
  8
0
 62
     7
100
AcDbLine
 10
-59.61490999999998
 20
18.431178
 30
0.0
 11
-59.61490999999998
 21
19.441541
 31
0.0
  0
LINE
  5
1B6
330
36
100
AcDbEntity
  8
0
 62
     7
100
AcDbLine
 10
-58.73991
 20
17.925997
 30
0.0
 11
-59.61490999999998
 21
18.431178
 31
0.0
  0
LINE
  5
1B7
330
36
100
AcDbEntity
  8
0
 62
     7
100
AcDbLine
 10
-57.86490999999998
 20
18.431178
 30
0.0
 11
-58.73991
 21
17.925997
 31
0.0
  0
LINE
  5
1B8
330
36
100
AcDbEntity
  8
0
 62
     7
100
AcDbLine
 10
-79.74134000000002
 20
19.441541
 30
0.0
 11
-79.74134000000002
 21
18.431178
 31
0.0
  0
LINE
  5
1B9
330
36
100
AcDbEntity
  8
0
 62
     7
100
AcDbLine
 10
-78.86634
 20
19.946723
 30
0.0
 11
-79.74134000000002
 21
19.441541
 31
0.0
  0
LINE
  5
1BA
330
36
100
AcDbEntity
  8
0
 62
     7
100
AcDbLine
 10
-77.99134000000002
 20
19.441541
 30
0.0
 11
-78.86634
 21
19.946723
 31
0.0
  0
LINE
  5
1BB
330
36
100
AcDbEntity
  8
0
 62
     7
100
AcDbLine
 10
-77.99134000000002
 20
18.431178
 30
0.0
 11
-77.99134000000002
 21
19.441541
 31
0.0
  0
LINE
  5
1BC
330
36
100
AcDbEntity
  8
0
 62
     7
100
AcDbLine
 10
-78.86634
 20
17.925997
 30
0.0
 11
-77.99134000000002
 21
18.431178
 31
0.0
  0
LINE
  5
1BD
330
36
100
AcDbEntity
  8
0
 62
     7
100
AcDbLine
 10
-79.74134000000002
 20
18.431178
 30
0.0
 11
-78.86634
 21
17.925997
 31
0.0
  0
LINE
  5
1BE
330
36
100
AcDbEntity
  8
0
 62
     3
100
AcDbLine
 10
32.731746
 20
29.63572
 30
0.0
 11
66.481746
 21
29.63572
 31
0.0
  0
LINE
  5
1BF
330
36
100
AcDbEntity
  8
0
 62
     3
100
AcDbLine
 10
32.731746
 20
19.856999
 30
0.0
 11
66.481746
 21
19.856999
 31
0.0
  0
LINE
  5
1C0
330
36
100
AcDbEntity
  8
0
 62
     3
100
AcDbLine
 10
47.974082
 20
29.63572
 30
0.0
 11
47.974082
 21
19.856999
 31
0.0
  0
LINE
  5
1C1
330
36
100
AcDbEntity
  8
0
 62
     3
100
AcDbLine
 10
51.23941
 20
29.63572
 30
0.0
 11
51.23941
 21
19.856999
 31
0.0
  0
LINE
  5
1C2
330
36
100
AcDbEntity
  8
0
 62
     3
100
AcDbLine
 10
76.231746
 20
27.366535
 30
0.0
 11
76.231746
 21
22.126535
 31
0.0
  0
LINE
  5
1C3
330
36
100
AcDbEntity
  8
0
 62
     3
100
AcDbLine
 10
72.93669799999998
 20
27.366535
 30
0.0
 11
76.231746
 21
27.366535
 31
0.0
  0
LINE
  5
1C4
330
36
100
AcDbEntity
  8
0
 62
     3
100
AcDbLine
 10
72.93669799999998
 20
22.126535
 30
0.0
 11
76.231746
 21
22.126535
 31
0.0
  0
LINE
  5
1C5
330
36
100
AcDbEntity
  8
0
 62
     3
100
AcDbLine
 10
26.276794
 20
27.366535
 30
0.0
 11
24.734669
 21
27.366535
 31
0.0
  0
LINE
  5
1C6
330
36
100
AcDbEntity
  8
0
 62
     3
100
AcDbLine
 10
26.276794
 20
22.126535
 30
0.0
 11
24.382991
 21
22.126535
 31
0.0
  0
LINE
  5
1C7
330
36
100
AcDbEntity
  8
0
  6
DASHED
 62
     7
100
AcDbLine
 10
47.974082
 20
29.63572
 30
0.0
 11
47.974082
 21
37.067122
 31
0.0
  0
LINE
  5
1C8
330
36
100
AcDbEntity
  8
0
  6
DASHED
 62
     7
100
AcDbLine
 10
47.974082
 20
37.067122
 30
0.0
 11
51.23941
 21
37.067122
 31
0.0
  0
LINE
  5
1C9
330
36
100
AcDbEntity
  8
0
  6
DASHED
 62
     7
100
AcDbLine
 10
51.23941
 20
29.63572
 30
0.0
 11
51.23941
 21
37.006853
 31
0.0
  0
LINE
  5
1CA
330
36
100
AcDbEntity
  8
0
  6
DASHED
 62
     7
100
AcDbLine
 10
51.23941
 20
19.857349
 30
0.0
 11
51.23941
 21
12.486217
 31
0.0
  0
LINE
  5
1CB
330
36
100
AcDbEntity
  8
0
  6
DASHED
 62
     7
100
AcDbLine
 10
47.974082
 20
12.425947
 30
0.0
 11
51.23941
 21
12.425947
 31
0.0
  0
LINE
  5
1CC
330
36
100
AcDbEntity
  8
0
  6
DASHED
 62
     7
100
AcDbLine
 10
47.974082
 20
19.857349
 30
0.0
 11
47.974082
 21
12.425947
 31
0.0
  0
LINE
  5
1CD
330
36
100
AcDbEntity
  8
0
 62
     3
100
AcDbLine
 10
-74.60161499999998
 20
24.74636
 30
0.0
 11
-73.67812499999998
 21
24.74636
 31
0.0
  0
LINE
  5
1CE
330
36
100
AcDbEntity
  8
0
 62
     3
100
AcDbLine
 10
-63.553125
 20
29.74636
 30
0.0
 11
-74.05312499999998
 21
29.74636
 31
0.0
  0
LINE
  5
1CF
330
36
100
AcDbEntity
  8
0
 62
     3
100
AcDbLine
 10
-64.178125
 20
33.99636
 30
0.0
 11
-73.42812499999998
 21
33.99636
 31
0.0
  0
LINE
  5
1D0
330
36
100
AcDbEntity
  8
0
 62
     3
100
AcDbLine
 10
-64.178125
 20
35.87136
 30
0.0
 11
-73.42812499999998
 21
35.87136
 31
0.0
  0
LINE
  5
1D1
330
36
100
AcDbEntity
  8
0
 62
     3
100
AcDbLine
 10
-76.55312499999998
 20
32.74636
 30
0.0
 11
-76.55312499999998
 21
29.990397
 31
0.0
  0
LINE
  5
1D2
330
36
100
AcDbEntity
  8
0
 62
     3
100
AcDbLine
 10
-61.053125
 20
32.74636
 30
0.0
 11
-61.053125
 21
29.990397
 31
0.0
  0
LINE
  5
1D3
330
36
100
AcDbEntity
  8
0
 62
     3
100
AcDbLine
 10
-62.928125
 20
32.74636
 30
0.0
 11
-62.928125
 21
30.37136
 31
0.0
  0
LINE
  5
1D4
330
36
100
AcDbEntity
  8
0
 62
     3
100
AcDbLine
 10
-74.67812499999998
 20
32.74636
 30
0.0
 11
-74.67812499999998
 21
30.37136
 31
0.0
  0
ARC
  5
1D5
330
36
100
AcDbEntity
  8
0
 62
     3
100
AcDbCircle
 10
-74.05312499999998
 20
30.37136
 30
0.0
 40
0.625
100
AcDbArc
 50
180.0
 51
270.0
  0
ARC
  5
1D6
330
36
100
AcDbEntity
  8
0
 62
     3
100
AcDbCircle
 10
-63.553125
 20
30.37136
 30
0.0
 40
0.625
100
AcDbArc
 50
270.0
 51
0.0
  0
LINE
  5
1D7
330
36
100
AcDbEntity
  8
0
 62
     3
100
AcDbLine
 10
-73.05312499999998
 20
24.12136
 30
0.0
 11
-73.05312499999998
 21
20.99636
 31
0.0
  0
LINE
  5
1D8
330
36
100
AcDbEntity
  8
0
 62
     3
100
AcDbLine
 10
-64.553125
 20
24.12136
 30
0.0
 11
-64.553125
 21
20.99636
 31
0.0
  0
LINE
  5
1D9
330
36
100
AcDbEntity
  8
0
 62
     3
100
AcDbLine
 10
-75.141377
 20
24.436449
 30
0.0
 11
-77.14955
 21
20.99636
 31
0.0
  0
LINE
  5
1DA
330
36
100
AcDbEntity
  8
0
 62
     3
100
AcDbLine
 10
-62.464873
 20
24.436449
 30
0.0
 11
-60.4567
 21
20.99636
 31
0.0
  0
ARC
  5
1DB
330
36
100
AcDbEntity
  8
0
 62
     3
100
AcDbCircle
 10
-73.67812499999998
 20
24.12136
 30
0.0
 40
0.625
100
AcDbArc
 50
0.0
 51
90.0
  0
LINE
  5
1DC
330
36
100
AcDbEntity
  8
0
 62
     3
100
AcDbLine
 10
-63.928125
 20
24.74636
 30
0.0
 11
-63.004635
 21
24.74636
 31
0.0
  0
ARC
  5
1DD
330
36
100
AcDbEntity
  8
0
 62
     3
100
AcDbCircle
 10
-74.60161499999998
 20
24.12136
 30
0.0
 40
0.625
100
AcDbArc
 50
90.0
 51
149.725503
  0
ARC
  5
1DE
330
36
100
AcDbEntity
  8
0
 62
     3
100
AcDbCircle
 10
-63.004635
 20
24.12136
 30
0.0
 40
0.625
100
AcDbArc
 50
30.274497
 51
90.0
  0
ARC
  5
1DF
330
36
100
AcDbEntity
  8
0
 62
     3
100
AcDbCircle
 10
-63.928125
 20
24.12136
 30
0.0
 40
0.625
100
AcDbArc
 50
90.0
 51
180.0
  0
LINE
  5
1E0
330
36
100
AcDbEntity
  8
0
 62
     3
100
AcDbLine
 10
-74.980277
 20
29.75515
 30
0.0
 11
-76.243475
 21
29.75515
 31
0.0
  0
LINE
  5
1E1
330
36
100
AcDbEntity
  8
0
 62
     3
100
AcDbLine
 10
-62.62597299999999
 20
29.75515
 30
0.0
 11
-61.362775
 21
29.75515
 31
0.0
  0
ARC
  5
1E2
330
36
100
AcDbEntity
  8
0
 62
     3
100
AcDbCircle
 10
-73.42812499999998
 20
32.74636
 30
0.0
 40
3.125
100
AcDbArc
 50
90.0
 51
180.0
  0
ARC
  5
1E3
330
36
100
AcDbEntity
  8
0
 62
     3
100
AcDbCircle
 10
-64.178125
 20
32.74636
 30
0.0
 40
3.125
100
AcDbArc
 50
0.0
 51
90.0
  0
ARC
  5
1E4
330
36
100
AcDbEntity
  8
0
 62
     3
100
AcDbCircle
 10
-73.42812499999998
 20
32.74636
 30
0.0
 40
1.25
100
AcDbArc
 50
90.0
 51
180.0
  0
ARC
  5
1E5
330
36
100
AcDbEntity
  8
0
 62
     3
100
AcDbCircle
 10
-64.178125
 20
32.74636
 30
0.0
 40
1.25
100
AcDbArc
 50
0.0
 51
90.0
  0
LINE
  5
1E6
330
36
100
AcDbEntity
  8
0
 62
     3
100
AcDbLine
 10
72.18669799999998
 20
35.354683
 30
0.0
 11
72.18669799999998
 21
30.113473
 31
0.0
  0
LINE
  5
1E7
330
36
100
AcDbEntity
  8
0
 62
     3
100
AcDbLine
 10
70.43669799999998
 20
35.354683
 30
0.0
 11
70.43669799999998
 21
30.113473
 31
0.0
  0
LINE
  5
1E8
330
36
100
AcDbEntity
  8
0
 62
     3
100
AcDbLine
 10
72.93669799999998
 20
29.363473
 30
0.0
 11
72.93669799999998
 21
20.979683
 31
0.0
  0
LINE
  5
1E9
330
36
100
AcDbEntity
  8
0
 62
     3
100
AcDbLine
 10
69.68669799999999
 20
29.363473
 30
0.0
 11
69.68669799999999
 21
20.979683
 31
0.0
  0
LINE
  5
1EA
330
36
100
AcDbEntity
  8
0
 62
     3
100
AcDbLine
 10
70.93669799999998
 20
35.854683
 30
0.0
 11
71.68669799999998
 21
35.854683
 31
0.0
  0
LINE
  5
1EB
330
36
100
AcDbEntity
  8
0
 62
     3
100
AcDbLine
 10
69.68669799999999
 20
20.979683
 30
0.0
 11
72.93669799999998
 21
20.979683
 31
0.0
  0
ARC
  5
1EC
330
36
100
AcDbEntity
  8
0
 62
     3
100
AcDbCircle
 10
72.56169799999998
 20
29.363473
 30
0.0
 40
0.375
100
AcDbArc
 50
0.0
 51
90.0
  0
ARC
  5
1ED
330
36
100
AcDbEntity
  8
0
 62
     3
100
AcDbCircle
 10
70.06169799999999
 20
29.363473
 30
0.0
 40
0.375
100
AcDbArc
 50
90.0
 51
180.0
  0
ARC
  5
1EE
330
36
100
AcDbEntity
  8
0
 62
     3
100
AcDbCircle
 10
70.06169799999999
 20
30.113473
 30
0.0
 40
0.375
100
AcDbArc
 50
270.0
 51
0.0
  0
ARC
  5
1EF
330
36
100
AcDbEntity
  8
0
 62
     3
100
AcDbCircle
 10
72.56169799999998
 20
30.113473
 30
0.0
 40
0.375
100
AcDbArc
 50
180.0
 51
270.0
  0
ARC
  5
1F0
330
36
100
AcDbEntity
  8
0
 62
     3
100
AcDbCircle
 10
71.68669799999998
 20
35.354683
 30
0.0
 40
0.5
100
AcDbArc
 50
0.0
 51
90.0
  0
ARC
  5
1F1
330
36
100
AcDbEntity
  8
0
 62
     3
100
AcDbCircle
 10
70.93669799999998
 20
35.354683
 30
0.0
 40
0.5
100
AcDbArc
 50
90.0
 51
180.0
  0
LINE
  5
1F2
330
36
100
AcDbEntity
  8
0
 62
     3
100
AcDbLine
 10
27.026794
 20
35.354683
 30
0.0
 11
27.026794
 21
30.113473
 31
0.0
  0
LINE
  5
1F3
330
36
100
AcDbEntity
  8
0
 62
     3
100
AcDbLine
 10
28.776794
 20
35.354683
 30
0.0
 11
28.776794
 21
30.113473
 31
0.0
  0
LINE
  5
1F4
330
36
100
AcDbEntity
  8
0
 62
     3
100
AcDbLine
 10
28.276794
 20
35.854683
 30
0.0
 11
27.526794
 21
35.854683
 31
0.0
  0
ARC
  5
1F5
330
36
100
AcDbEntity
  8
0
 62
     3
100
AcDbCircle
 10
26.651794
 20
29.363473
 30
0.0
 40
0.375
100
AcDbArc
 50
90.0
 51
180.0
  0
ARC
  5
1F6
330
36
100
AcDbEntity
  8
0
 62
     3
100
AcDbCircle
 10
29.151794
 20
29.363473
 30
0.0
 40
0.375
100
AcDbArc
 50
0.0
 51
90.0
  0
ARC
  5
1F7
330
36
100
AcDbEntity
  8
0
 62
     3
100
AcDbCircle
 10
29.151794
 20
30.113473
 30
0.0
 40
0.375
100
AcDbArc
 50
180.0
 51
270.0
  0
ARC
  5
1F8
330
36
100
AcDbEntity
  8
0
 62
     3
100
AcDbCircle
 10
26.651794
 20
30.113473
 30
0.0
 40
0.375
100
AcDbArc
 50
270.0
 51
0.0
  0
ARC
  5
1F9
330
36
100
AcDbEntity
  8
0
 62
     3
100
AcDbCircle
 10
27.526794
 20
35.354683
 30
0.0
 40
0.5
100
AcDbArc
 50
90.0
 51
180.0
  0
ARC
  5
1FA
330
36
100
AcDbEntity
  8
0
 62
     3
100
AcDbCircle
 10
28.276794
 20
35.354683
 30
0.0
 40
0.5
100
AcDbArc
 50
0.0
 51
90.0
  0
LINE
  5
1FB
330
36
100
AcDbEntity
  8
0
 62
     3
100
AcDbLine
 10
29.526794
 20
29.363473
 30
0.0
 11
29.526794
 21
20.979683
 31
0.0
  0
LINE
  5
1FC
330
36
100
AcDbEntity
  8
0
 62
     3
100
AcDbLine
 10
26.276794
 20
29.363473
 30
0.0
 11
26.276794
 21
20.979683
 31
0.0
  0
LINE
  5
1FD
330
36
100
AcDbEntity
  8
0
 62
     3
100
AcDbLine
 10
29.526794
 20
20.979683
 30
0.0
 11
26.276794
 21
20.979683
 31
0.0
  0
LINE
  5
1FE
330
36
100
AcDbEntity
  8
0
 62
     3
100
AcDbLine
 10
-80.05627099999998
 20
22.54846
 30
0.0
 11
-97.726948
 21
-10.70925
 31
0.0
  0
LINE
  5
1FF
330
36
100
AcDbEntity
  8
0
 62
     3
100
AcDbLine
 10
-77.586331
 20
21.229587
 30
0.0
 11
-95.254302
 21
-12.023031
 31
0.0
  0
ARC
  5
200
330
36
100
AcDbEntity
  8
0
 62
     3
100
AcDbCircle
 10
-96.490625
 20
-11.36614
 30
0.0
 40
1.399999999999999
100
AcDbArc
 50
152.017142
 51
332.017142
  0
LINE
  5
201
330
36
100
AcDbEntity
  8
0
 62
     3
100
AcDbLine
 10
-60.019919
 20
21.229587
 30
0.0
 11
-42.351948
 21
-12.023031
 31
0.0
  0
LINE
  5
202
330
36
100
AcDbEntity
  8
0
 62
     3
100
AcDbLine
 10
-57.549979
 20
22.54846
 30
0.0
 11
-39.879302
 21
-10.70925
 31
0.0
  0
ARC
  5
203
330
36
100
AcDbEntity
  8
0
 62
     3
100
AcDbCircle
 10
-41.115625
 20
-11.36614
 30
0.0
 40
1.399999999999999
100
AcDbArc
 50
207.982858
 51
27.982858
  0
LINE
  5
204
330
36
100
AcDbEntity
  8
0
 62
     3
100
AcDbLine
 10
-77.14955
 20
20.99636
 30
0.0
 11
-80.303125
 21
22.680273
 31
0.0
  0
LINE
  5
205
330
36
100
AcDbEntity
  8
0
 62
     3
100
AcDbLine
 10
-80.303125
 20
22.680273
 30
0.0
 11
-76.55312499999998
 21
29.990397
 31
0.0
  0
LINE
  5
206
330
36
100
AcDbEntity
  8
0
 62
     3
100
AcDbLine
 10
-57.303125
 20
22.680273
 30
0.0
 11
-61.053125
 21
29.990397
 31
0.0
  0
LINE
  5
207
330
36
100
AcDbEntity
  8
0
 62
     3
100
AcDbLine
 10
-60.4567
 20
20.99636
 30
0.0
 11
-57.26674499999999
 21
22.699699
 31
0.0
  0
LINE
  5
208
330
36
100
AcDbEntity
  8
0
 62
     7
100
AcDbLine
 10
-59.457477
 20
24.24547
 30
0.0
 11
-60.332477
 21
23.740289
 31
0.0
  0
LINE
  5
209
330
36
100
AcDbEntity
  8
0
 62
     7
100
AcDbLine
 10
-60.332477
 20
23.740289
 30
0.0
 11
-61.207477
 21
24.24547
 31
0.0
  0
LINE
  5
20A
330
36
100
AcDbEntity
  8
0
 62
     7
100
AcDbLine
 10
-61.207477
 20
24.24547
 30
0.0
 11
-61.207477
 21
25.255833
 31
0.0
  0
LINE
  5
20B
330
36
100
AcDbEntity
  8
0
 62
     7
100
AcDbLine
 10
-61.207477
 20
25.255833
 30
0.0
 11
-60.332477
 21
25.761015
 31
0.0
  0
LINE
  5
20C
330
36
100
AcDbEntity
  8
0
 62
     7
100
AcDbLine
 10
-60.332477
 20
25.761015
 30
0.0
 11
-59.457477
 21
25.255833
 31
0.0
  0
LINE
  5
20D
330
36
100
AcDbEntity
  8
0
 62
     7
100
AcDbLine
 10
-59.457477
 20
25.255833
 30
0.0
 11
-59.457477
 21
24.24547
 31
0.0
  0
LINE
  5
20E
330
36
100
AcDbEntity
  8
0
 62
     7
100
AcDbLine
 10
-77.27377299999996
 20
25.761015
 30
0.0
 11
-78.14877299999998
 21
25.255833
 31
0.0
  0
LINE
  5
20F
330
36
100
AcDbEntity
  8
0
 62
     7
100
AcDbLine
 10
-78.14877299999998
 20
25.255833
 30
0.0
 11
-78.14877299999998
 21
24.24547
 31
0.0
  0
LINE
  5
210
330
36
100
AcDbEntity
  8
0
 62
     7
100
AcDbLine
 10
-78.14877299999998
 20
24.24547
 30
0.0
 11
-77.27377299999996
 21
23.740289
 31
0.0
  0
LINE
  5
211
330
36
100
AcDbEntity
  8
0
 62
     7
100
AcDbLine
 10
-77.27377299999996
 20
23.740289
 30
0.0
 11
-76.39877299999998
 21
24.24547
 31
0.0
  0
LINE
  5
212
330
36
100
AcDbEntity
  8
0
 62
     7
100
AcDbLine
 10
-76.39877299999998
 20
24.24547
 30
0.0
 11
-76.39877299999998
 21
25.255833
 31
0.0
  0
LINE
  5
213
330
36
100
AcDbEntity
  8
0
 62
     7
100
AcDbLine
 10
-76.39877299999998
 20
25.255833
 30
0.0
 11
-77.27377299999996
 21
25.761015
 31
0.0
  0
LINE
  5
215
330
36
100
AcDbEntity
  8
0
 62
     3
100
AcDbLine
 10
-65.57645760855513
 20
20.99636
 30
0.0
 11
-60.4567
 21
20.99636
 31
0.0
  0
ARC
  5
216
330
36
100
AcDbEntity
  8
0
 62
     7
100
AcDbCircle
 10
-68.803125
 20
50.140052
 30
0.0
 40
1.649116999999999
100
AcDbArc
 50
3.871742999999999
 51
176.128257
  0
LINE
  5
217
330
36
100
AcDbEntity
  8
0
 62
     7
100
AcDbLine
 10
-70.44847800000002
 20
50.251406
 30
0.0
 11
-71.158416
 21
39.761419
 31
0.0
  0
ARC
  5
218
330
36
100
AcDbEntity
  8
0
 62
     7
100
AcDbCircle
 10
-72.857341
 20
39.876398
 30
0.0
 40
1.702811
100
AcDbArc
 50
213.871743
 51
356.1282569999999
  0
LINE
  5
219
330
36
100
AcDbEntity
  8
0
 62
     7
100
AcDbLine
 10
-80.130981
 20
47.656987
 30
0.0
 11
-74.271163
 21
38.927361
 31
0.0
  0
ARC
  5
21A
330
36
100
AcDbEntity
  8
0
 62
     7
100
AcDbCircle
 10
-81.500221
 20
46.73787599999999
 30
0.0
 40
1.649116999999999
100
AcDbArc
 50
33.871743
 51
206.128257
  0
LINE
  5
21B
330
36
100
AcDbEntity
  8
0
 62
     7
100
AcDbLine
 10
-82.980815
 20
46.01163399999999
 30
0.0
 11
-78.350647
 21
36.57207
 31
0.0
  0
LINE
  5
21C
330
36
100
AcDbEntity
  8
0
 62
     7
100
AcDbLine
 10
-90.0689
 20
38.92355
 30
0.0
 11
-80.62933499999997
 21
34.293381
 31
0.0
  0
ARC
  5
21D
330
36
100
AcDbEntity
  8
0
 62
     7
100
AcDbCircle
 10
-79.879448
 20
35.822183
 30
0.0
 40
1.702811
100
AcDbArc
 50
243.871743
 51
26.128257
  0
LINE
  5
21E
330
36
100
AcDbEntity
  8
0
 62
     7
100
AcDbLine
 10
-91.71425199999999
 20
36.073715
 30
0.0
 11
-82.984626
 21
30.213898
 31
0.0
  0
ARC
  5
21F
330
36
100
AcDbEntity
  8
0
 62
     7
100
AcDbCircle
 10
-90.795141
 20
37.442956
 30
0.0
 40
1.649116999999999
100
AcDbArc
 50
63.871743
 51
236.128257
  0
LINE
  5
220
330
36
100
AcDbEntity
  8
0
 62
     7
100
AcDbLine
 10
-94.30867099999998
 20
26.391213
 30
0.0
 11
-83.818684
 21
27.101151
 31
0.0
  0
ARC
  5
221
330
36
100
AcDbEntity
  8
0
 62
     7
100
AcDbCircle
 10
-94.197318
 20
24.74586
 30
0.0
 40
1.649116999999999
100
AcDbArc
 50
93.87174299999998
 51
266.1282570000001
  0
ARC
  5
222
330
36
100
AcDbEntity
  8
0
 62
     7
100
AcDbCircle
 10
-83.93366400000004
 20
28.800075
 30
0.0
 40
1.702811
100
AcDbArc
 50
273.871743
 51
56.128257
  0
ARC
  5
223
330
36
100
AcDbEntity
  8
0
 62
     7
100
AcDbCircle
 10
-68.803125
 20
50.140052
 30
0.0
 40
1.649116999999999
100
AcDbArc
 50
3.871742999999999
 51
176.128257
  0
LINE
  5
224
330
36
100
AcDbEntity
  8
0
 62
     7
100
AcDbLine
 10
-67.157772
 20
50.251406
 30
0.0
 11
-66.447834
 21
39.761419
 31
0.0
  0
ARC
  5
225
330
36
100
AcDbEntity
  8
0
 62
     7
100
AcDbCircle
 10
-64.748909
 20
39.876398
 30
0.0
 40
1.702811
100
AcDbArc
 50
183.8717429999999
 51
326.128257
  0
LINE
  5
226
330
36
100
AcDbEntity
  8
0
 62
     7
100
AcDbLine
 10
-57.475269
 20
47.656987
 30
0.0
 11
-63.335087
 21
38.927361
 31
0.0
  0
ARC
  5
227
330
36
100
AcDbEntity
  8
0
 62
     7
100
AcDbCircle
 10
-56.106029
 20
46.73787599999999
 30
0.0
 40
1.649116999999999
100
AcDbArc
 50
333.871743
 51
146.128257
  0
LINE
  5
228
330
36
100
AcDbEntity
  8
0
 62
     7
100
AcDbLine
 10
-54.62543499999998
 20
46.01163399999999
 30
0.0
 11
-59.25560400000001
 21
36.57207
 31
0.0
  0
ARC
  5
229
330
36
100
AcDbEntity
  8
0
 62
     7
100
AcDbCircle
 10
-57.72680199999999
 20
35.822183
 30
0.0
 40
1.702811
100
AcDbArc
 50
153.871743
 51
296.128257
  0
LINE
  5
22A
330
36
100
AcDbEntity
  8
0
 62
     7
100
AcDbLine
 10
-47.537351
 20
38.92355
 30
0.0
 11
-56.97691500000001
 21
34.293381
 31
0.0
  0
ARC
  5
22B
330
36
100
AcDbEntity
  8
0
 62
     7
100
AcDbCircle
 10
-46.811109
 20
37.442956
 30
0.0
 40
1.649116999999999
100
AcDbArc
 50
303.8717430000001
 51
116.128257
  0
LINE
  5
22C
330
36
100
AcDbEntity
  8
0
 62
     7
100
AcDbLine
 10
-45.891998
 20
36.073715
 30
0.0
 11
-54.621624
 21
30.213898
 31
0.0
  0
ARC
  5
22D
330
36
100
AcDbEntity
  8
0
 62
     7
100
AcDbCircle
 10
-53.67258599999999
 20
28.800075
 30
0.0
 40
1.702811
100
AcDbArc
 50
123.871743
 51
266.1282570000001
  0
LINE
  5
22E
330
36
100
AcDbEntity
  8
0
 62
     7
100
AcDbLine
 10
-43.29757899999999
 20
26.391213
 30
0.0
 11
-53.787566
 21
27.101151
 31
0.0
  0
ARC
  5
22F
330
36
100
AcDbEntity
  8
0
 62
     7
100
AcDbCircle
 10
-43.408933
 20
24.74586
 30
0.0
 40
1.649116999999999
100
AcDbArc
 50
273.871743
 51
86.128257
  0
ARC
  5
230
330
36
100
AcDbEntity
  8
0
 62
     7
100
AcDbCircle
 10
-68.803125
 20
-0.648333
 30
0.0
 40
1.649116999999999
100
AcDbArc
 50
183.8717429999999
 51
356.1282569999999
  0
LINE
  5
231
330
36
100
AcDbEntity
  8
0
 62
     7
100
AcDbLine
 10
-67.157772
 20
-0.759686
 30
0.0
 11
-66.447834
 21
9.7303
 31
0.0
  0
LINE
  5
233
330
36
100
AcDbEntity
  8
0
 62
     7
100
AcDbLine
 10
-57.475269
 20
1.834731999999999
 30
0.0
 11
-62.19277088582995
 21
8.862599950436387
 31
0.0
  0
ARC
  5
234
330
36
100
AcDbEntity
  8
0
 62
     7
100
AcDbCircle
 10
-56.106029
 20
2.753843999999998
 30
0.0
 40
1.649116999999999
100
AcDbArc
 50
213.871743
 51
26.128257
  0
LINE
  5
235
330
36
100
AcDbEntity
  8
0
 62
     7
100
AcDbLine
 10
-54.62543499999998
 20
3.480084999999998
 30
0.0
 11
-59.25560400000001
 21
12.919649
 31
0.0
  0
ARC
  5
236
330
36
100
AcDbEntity
  8
0
 62
     7
100
AcDbCircle
 10
-57.72680199999999
 20
13.669537
 30
0.0
 40
1.702811
100
AcDbArc
 50
63.871743
 51
206.128257
  0
ARC
  5
237
330
36
100
AcDbEntity
  8
0
 62
     7
100
AcDbCircle
 10
-46.811109
 20
12.048764
 30
0.0
 40
1.649116999999999
100
AcDbArc
 50
243.871743
 51
56.128257
  0
LINE
  5
238
330
36
100
AcDbEntity
  8
0
 62
     7
100
AcDbLine
 10
-45.891998
 20
13.418004
 30
0.0
 11
-54.621624
 21
19.277822
 31
0.0
  0
ARC
  5
239
330
36
100
AcDbEntity
  8
0
 62
     7
100
AcDbCircle
 10
-53.67258599999999
 20
20.691644
 30
0.0
 40
1.702811
100
AcDbArc
 50
93.87174299999998
 51
236.128257
  0
LINE
  5
23A
330
36
100
AcDbEntity
  8
0
 62
     7
100
AcDbLine
 10
-43.29757899999999
 20
23.100507
 30
0.0
 11
-53.787566
 21
22.390569
 31
0.0
  0
ARC
  5
23B
330
36
100
AcDbEntity
  8
0
 62
     7
100
AcDbCircle
 10
-43.408933
 20
24.74586
 30
0.0
 40
1.649116999999999
100
AcDbArc
 50
273.871743
 51
86.128257
  0
ARC
  5
23C
330
36
100
AcDbEntity
  8
0
 62
     7
100
AcDbCircle
 10
-68.803125
 20
-0.648333
 30
0.0
 40
1.649116999999999
100
AcDbArc
 50
183.8717429999999
 51
356.1282569999999
  0
LINE
  5
23D
330
36
100
AcDbEntity
  8
0
 62
     7
100
AcDbLine
 10
-70.44847800000002
 20
-0.759686
 30
0.0
 11
-71.158416
 21
9.7303
 31
0.0
  0
ARC
  5
23E
330
36
100
AcDbEntity
  8
0
 62
     7
100
AcDbCircle
 10
-72.857341
 20
9.615321
 30
0.0
 40
1.702811
100
AcDbArc
 50
3.871742999999999
 51
146.128257
  0
LINE
  5
23F
330
36
100
AcDbEntity
  8
0
 62
     7
100
AcDbLine
 10
-80.130981
 20
1.834731999999999
 30
0.0
 11
-74.271163
 21
10.564358
 31
0.0
  0
ARC
  5
240
330
36
100
AcDbEntity
  8
0
 62
     7
100
AcDbCircle
 10
-81.500221
 20
2.753843999999998
 30
0.0
 40
1.649116999999999
100
AcDbArc
 50
153.871743
 51
326.128257
  0
LINE
  5
241
330
36
100
AcDbEntity
  8
0
 62
     7
100
AcDbLine
 10
-82.980815
 20
3.480084999999998
 30
0.0
 11
-78.350647
 21
12.919649
 31
0.0
  0
ARC
  5
242
330
36
100
AcDbEntity
  8
0
 62
     7
100
AcDbCircle
 10
-79.879448
 20
13.669537
 30
0.0
 40
1.702811
100
AcDbArc
 50
333.871743
 51
116.128257
  0
ARC
  5
243
330
36
100
AcDbEntity
  8
0
 62
     7
100
AcDbCircle
 10
-90.795141
 20
12.048764
 30
0.0
 40
1.649116999999999
100
AcDbArc
 50
123.871743
 51
296.128257
  0
LINE
  5
244
330
36
100
AcDbEntity
  8
0
 62
     7
100
AcDbLine
 10
-91.71425199999999
 20
13.418004
 30
0.0
 11
-82.984626
 21
19.277822
 31
0.0
  0
ARC
  5
245
330
36
100
AcDbEntity
  8
0
 62
     7
100
AcDbCircle
 10
-83.93366400000004
 20
20.691644
 30
0.0
 40
1.702811
100
AcDbArc
 50
303.8717430000001
 51
86.128257
  0
LINE
  5
246
330
36
100
AcDbEntity
  8
0
 62
     7
100
AcDbLine
 10
-94.30867099999998
 20
23.100507
 30
0.0
 11
-83.818684
 21
22.390569
 31
0.0
  0
ARC
  5
247
330
36
100
AcDbEntity
  8
0
 62
     7
100
AcDbCircle
 10
-94.197318
 20
24.74586
 30
0.0
 40
1.649116999999999
100
AcDbArc
 50
93.87174299999998
 51
266.1282570000001
  0
LINE
  5
248
330
36
100
AcDbEntity
  8
0
 62
     7
100
AcDbLine
 10
-47.537351
 20
10.568169
 30
0.0
 11
-52.470112
 21
12.987722
 31
0.0
  0
LINE
  5
249
330
36
100
AcDbEntity
  8
0
 62
     7
100
AcDbLine
 10
-56.758417
 20
15.091164
 30
0.0
 11
-56.97691500000001
 21
15.198338
 31
0.0
  0
LINE
  5
24A
330
36
100
AcDbEntity
  8
0
 62
     7
100
AcDbLine
 10
-90.0689
 20
10.568169
 30
0.0
 11
-85.13613799999997
 21
12.987722
 31
0.0
  0
LINE
  5
24B
330
36
100
AcDbEntity
  8
0
 62
     7
100
AcDbLine
 10
-80.84783299999998
 20
15.091164
 30
0.0
 11
-80.62933499999997
 21
15.198338
 31
0.0
  0
LINE
  5
24C
330
36
100
AcDbEntity
  8
0
 62
     7
100
AcDbLine
 10
30.718589
 20
12.363347
 30
0.0
 11
31.231746
 21
12.363347
 31
0.0
  0
LINE
  5
24D
330
36
100
AcDbEntity
  8
0
 62
     7
100
AcDbLine
 10
30.718589
 20
12.363347
 30
0.0
 11
30.718589
 21
13.89007199999999
 31
0.0
  0
LINE
  5
24E
330
36
100
AcDbEntity
  8
0
 62
     7
100
AcDbLine
 10
30.718589
 20
13.89007199999999
 30
0.0
 11
31.231746
 21
13.89007199999999
 31
0.0
  0
LINE
  5
24F
330
36
100
AcDbEntity
  8
0
 62
     7
100
AcDbLine
 10
30.718589
 20
37.12972199999999
 30
0.0
 11
30.718589
 21
35.602997
 31
0.0
  0
LINE
  5
250
330
36
100
AcDbEntity
  8
0
 62
     7
100
AcDbLine
 10
30.718589
 20
37.12972199999999
 30
0.0
 11
31.231746
 21
37.12972199999999
 31
0.0
  0
LINE
  5
251
330
36
100
AcDbEntity
  8
0
 62
     7
100
AcDbLine
 10
30.718589
 20
35.602997
 30
0.0
 11
31.231746
 21
35.602997
 31
0.0
  0
LINE
  5
252
330
36
100
AcDbEntity
  8
0
 62
     7
100
AcDbLine
 10
68.49490300000001
 20
35.602997
 30
0.0
 11
67.981746
 21
35.602997
 31
0.0
  0
LINE
  5
253
330
36
100
AcDbEntity
  8
0
 62
     7
100
AcDbLine
 10
68.49490300000001
 20
37.12972199999999
 30
0.0
 11
68.49490300000001
 21
35.602997
 31
0.0
  0
LINE
  5
254
330
36
100
AcDbEntity
  8
0
 62
     7
100
AcDbLine
 10
68.49490300000001
 20
37.12972199999999
 30
0.0
 11
67.981746
 21
37.12972199999999
 31
0.0
  0
LINE
  5
255
330
36
100
AcDbEntity
  8
0
 62
     7
100
AcDbLine
 10
68.49490300000001
 20
13.89007199999999
 30
0.0
 11
67.981746
 21
13.89007199999999
 31
0.0
  0
LINE
  5
256
330
36
100
AcDbEntity
  8
0
 62
     7
100
AcDbLine
 10
68.49490300000001
 20
12.363347
 30
0.0
 11
68.49490300000001
 21
13.89007199999999
 31
0.0
  0
LINE
  5
257
330
36
100
AcDbEntity
  8
0
 62
     7
100
AcDbLine
 10
68.49490300000001
 20
12.363347
 30
0.0
 11
67.981746
 21
12.363347
 31
0.0
  0
ARC
  5
258
330
36
100
AcDbEntity
  8
0
 62
     3
100
AcDbCircle
 10
-68.803125
 20
24.74636
 30
0.0
 40
29.0
100
AcDbArc
 50
315.86813
 51
224.13187
  0
ARC
  5
259
330
36
100
AcDbEntity
  8
0
 62
     3
100
AcDbCircle
 10
-68.803125
 20
24.74636
 30
0.0
 40
29.0
100
AcDbArc
 50
229.861954
 51
310.138046
  0
ARC
  5
25A
330
36
100
AcDbEntity
  8
0
 62
     3
100
AcDbCircle
 10
-68.803125
 20
24.74636
 30
0.0
 40
30.0
100
AcDbArc
 50
315.252859
 51
224.747141
  0
ARC
  5
25B
330
36
100
AcDbEntity
  8
0
 62
     3
100
AcDbCircle
 10
-68.803125
 20
24.74636
 30
0.0
 40
30.0
100
AcDbArc
 50
230.273003
 51
309.7269970000001
  0
ARC
  5
25C
330
36
100
AcDbEntity
  8
0
 62
     3
100
AcDbCircle
 10
65.231746
 20
-5.740965
 30
0.0
 40
7.5
100
AcDbArc
 50
270.0
 51
0.0
  0
ARC
  5
25D
330
36
100
AcDbEntity
  8
0
 62
     3
100
AcDbCircle
 10
33.993562
 20
-5.740965
 30
0.0
 40
7.5
100
AcDbArc
 50
180.0
 51
270.0
  0
ARC
  5
25E
330
36
100
AcDbEntity
  8
0
 62
     3
100
AcDbCircle
 10
65.25674599999999
 20
-5.765965
 30
0.0
 40
4.7
100
AcDbArc
 50
270.0
 51
0.0
  0
ARC
  5
25F
330
36
100
AcDbEntity
  8
0
 62
     3
100
AcDbCircle
 10
33.968562
 20
-5.765965
 30
0.0
 40
4.7
100
AcDbArc
 50
180.0
 51
270.0
  0
ARC
  5
260
330
36
100
AcDbEntity
  8
0
 62
     3
100
AcDbCircle
 10
64.759662
 20
16.759035
 30
0.0
 40
30.0
100
AcDbArc
 50
260.141128
 51
270.0
  0
LINE
  5
261
330
36
100
AcDbEntity
  8
0
 62
     3
100
AcDbLine
 10
34.465646
 20
-13.240965
 30
0.0
 11
33.993562
 21
-13.240965
 31
0.0
  0
ARC
  5
262
330
36
100
AcDbEntity
  8
0
 62
     3
100
AcDbCircle
 10
49.612654
 20
-70.39875399999998
 30
0.0
 40
58.464185
100
AcDbArc
 50
80.14112800000002
 51
99.85887199999998
  0
ARC
  5
263
330
36
100
AcDbEntity
  8
0
 62
     3
100
AcDbCircle
 10
34.465646
 20
16.759035
 30
0.0
 40
30.0
100
AcDbArc
 50
270.0
 51
279.858872
  0
ARC
  5
264
330
36
100
AcDbEntity
  8
0
 62
     3
100
AcDbCircle
 10
35.319162
 20
9.534035
 30
0.0
 40
20.0
100
AcDbArc
 50
270.0
 51
280.64315
  0
LINE
  5
265
330
36
100
AcDbEntity
  8
0
 62
     3
100
AcDbLine
 10
63.906147
 20
-10.465965
 30
0.0
 11
65.25674599999999
 21
-10.465965
 31
0.0
  0
ARC
  5
266
330
36
100
AcDbEntity
  8
0
 62
     3
100
AcDbCircle
 10
49.612654
 20
-66.52571999999999
 30
0.0
 40
57.391151
100
AcDbArc
 50
79.35685
 51
100.64315
  0
ARC
  5
267
330
36
100
AcDbEntity
  8
0
 62
     3
100
AcDbCircle
 10
63.906147
 20
9.534035
 30
0.0
 40
20.0
100
AcDbArc
 50
259.35685
 51
270.0
  0
CIRCLE
  5
26E
330
36
100
AcDbEntity
  8
0
 62
     7
100
AcDbCircle
 10
80.39455100000004
 20
52.4879
 30
0.0
 40
4.0
  0
TEXT
  5
26F
330
36
100
AcDbEntity
  8
0
 62
     4
100
AcDbText
 10
78.86006191792715
 20
50.30130157183601
 30
0.0
 40
4.5
  1
6
  7
高4.5
100
AcDbText
  0
LINE
  5
270
330
36
100
AcDbEntity
  8
0
 62
     3
100
AcDbLine
 10
69.956746
 20
-2.205034999999999
 30
0.0
 11
29.268562
 21
-2.205034999999999
 31
0.0
  0
LINE
  5
271
330
36
100
AcDbEntity
  8
0
 62
     3
100
AcDbLine
 10
69.956746
 20
-1.234982
 30
0.0
 11
29.268562
 21
-1.234982
 31
0.0
  0
LINE
  5
272
330
36
100
AcDbEntity
  8
0
 62
     3
100
AcDbLine
 10
66.481746
 20
53.99653500000002
 30
0.0
 11
66.481746
 21
-1.234982
 31
0.0
  0
LINE
  5
273
330
36
100
AcDbEntity
  8
0
 62
     3
100
AcDbLine
 10
66.481746
 20
-2.205034999999999
 30
0.0
 11
66.481746
 21
-4.503465000000005
 31
0.0
  0
LINE
  5
276
330
36
100
AcDbEntity
  8
0
 62
     3
100
AcDbLine
 10
32.731746
 20
53.99653500000002
 30
0.0
 11
32.731746
 21
-1.234982
 31
0.0
  0
TEXT
  5
27A
330
36
100
AcDbEntity
  8
0
 62
     3
100
AcDbText
 10
-60.69606342451741
 20
-65.5
 30
0.0
 40
2.5
  1
1
 41
0.8
  7
高2.5
100
AcDbText
  0
TEXT
  5
27B
330
36
100
AcDbEntity
  8
0
 62
     3
100
AcDbText
 10
-115.9696408288487
 20
-89.50000000000001
 30
0.0
 40
2.5
  1
材　質
 41
0.8
  7
高2.5
100
AcDbText
  0
TEXT
  5
27D
330
36
100
AcDbEntity
  8
0
 62
     3
100
AcDbText
 10
-60.69606342451741
 20
-85.5
 30
0.0
 40
2.5
  1
2
 41
0.8
  7
高2.5
100
AcDbText
  0
TEXT
  5
27E
330
36
100
AcDbEntity
  8
0
 62
     3
100
AcDbText
 10
-130.9772379944078
 20
-81.5
 30
0.0
 40
2.5
  1
フレーム
 41
0.8
  7
高2.5
100
AcDbText
  0
TEXT
  5
27F
330
36
100
AcDbEntity
  8
0
 62
     3
100
AcDbText
 10
-102.6815608628601
 20
-81.5
 30
0.0
 40
2.5
  1
%%C22.2x1.2t
 41
0.8
  7
高2.5
100
AcDbText
  0
TEXT
  5
280
330
36
100
AcDbEntity
  8
0
 62
     3
100
AcDbText
 10
-102.6815608628601
 20
-85.5
 30
0.0
 40
2.5
  1
塗装色：レッド
 41
0.8
  7
高2.5
100
AcDbText
  0
TEXT
  5
281
330
36
100
AcDbEntity
  8
0
 62
     3
100
AcDbText
 10
-115.9696408288487
 20
-85.5
 30
0.0
 40
2.5
  1
SPCC
 41
0.8
  7
高2.5
100
AcDbText
  0
TEXT
  5
282
330
36
100
AcDbEntity
  8
0
 62
     3
100
AcDbText
 10
-115.9696408288487
 20
-77.5
 30
0.0
 40
2.5
  1
SPCC
 41
0.8
  7
高2.5
100
AcDbText
  0
TEXT
  5
283
330
36
100
AcDbEntity
  8
0
 62
     3
100
AcDbText
 10
-130.9772379944078
 20
-77.5
 30
0.0
 40
2.5
  1
芯板
 41
0.8
  7
高2.5
100
AcDbText
  0
TEXT
  5
284
330
36
100
AcDbEntity
  8
0
 62
     3
100
AcDbText
 10
-102.6815608628601
 20
-77.5
 30
0.0
 40
2.5
  1
2分割形
 41
0.8
  7
高2.5
100
AcDbText
  0
TEXT
  5
285
330
36
100
AcDbEntity
  8
0
 62
     3
100
AcDbText
 10
-60.69606342451741
 20
-77.5
 30
0.0
 40
2.5
  1
2
 41
0.8
  7
高2.5
100
AcDbText
  0
TEXT
  5
286
330
36
100
AcDbEntity
  8
0
 62
     3
100
AcDbText
 10
-130.9772379944078
 20
-85.5
 30
0.0
 40
2.5
  1
側板
 41
0.8
  7
高2.5
100
AcDbText
  0
TEXT
  5
288
330
36
100
AcDbEntity
  8
0
 62
     3
100
AcDbText
 10
-83.07695506887148
 20
-81.50000000000001
 30
0.0
 40
2.5
  1
M8ボルト～4個
 41
0.8
  7
高2.5
100
AcDbText
  0
TEXT
  5
289
330
36
100
AcDbEntity
  8
0
 62
     3
100
AcDbText
 10
-83.07695506887148
 20
-77.5
 30
0.0
 40
2.5
  1
M8ボルト～12個
 41
0.8
  7
高2.5
100
AcDbText
  0
TEXT
  5
28A
330
36
100
AcDbEntity
  8
0
 62
     3
100
AcDbText
 10
-130.9772379944078
 20
-73.5
 30
0.0
 40
2.5
  1
ドラム軸受
 41
0.8
  7
高2.5
100
AcDbText
  0
TEXT
  5
28B
330
36
100
AcDbEntity
  8
0
 62
     3
100
AcDbText
 10
-115.9696408288487
 20
-73.5
 30
0.0
 40
2.5
  1
SPCC
 41
0.8
  7
高2.5
100
AcDbText
  0
TEXT
  5
28C
330
36
100
AcDbEntity
  8
0
 62
     3
100
AcDbText
 10
-102.6815608628601
 20
-73.5
 30
0.0
 40
2.5
  1
塗装：黒
 41
0.8
  7
高2.5
100
AcDbText
  0
TEXT
  5
28D
330
36
100
AcDbEntity
  8
0
 62
     3
100
AcDbText
 10
-130.9772379944078
 20
-69.5
 30
0.0
 40
2.5
  1
ハンドル
 41
0.8
  7
高2.5
100
AcDbText
  0
TEXT
  5
28E
330
36
100
AcDbEntity
  8
0
 62
     3
100
AcDbText
 10
-115.9696408288487
 20
-69.5
 30
0.0
 40
2.5
  1
SPC,PA
 41
0.8
  7
高2.5
100
AcDbText
  0
TEXT
  5
28F
330
36
100
AcDbEntity
  8
0
 62
     3
100
AcDbText
 10
-83.07695506887148
 20
-69.5
 30
0.0
 40
2.5
  1
M8ボルト～3個
 41
0.8
  7
高2.5
100
AcDbText
  0
TEXT
  5
290
330
36
100
AcDbEntity
  8
0
 62
     3
100
AcDbText
 10
-102.6815608628601
 20
-69.5
 30
0.0
 40
2.5
  1
メッキ処理
 41
0.8
  7
高2.5
100
AcDbText
  0
TEXT
  5
291
330
36
100
AcDbEntity
  8
0
 62
     3
100
AcDbText
 10
-130.9772379944078
 20
-65.5
 30
0.0
 40
2.5
  1
補強リング
 41
0.8
  7
高2.5
100
AcDbText
  0
TEXT
  5
292
330
36
100
AcDbEntity
  8
0
 62
     3
100
AcDbText
 10
-115.9696408288487
 20
-65.5
 30
0.0
 40
2.5
  1
SPCC
 41
0.8
  7
高2.5
100
AcDbText
  0
TEXT
  5
293
330
36
100
AcDbEntity
  8
0
 62
     3
100
AcDbText
 10
-102.6815608628601
 20
-65.5
 30
0.0
 40
2.5
  1
塗装：ブルー
 41
0.8
  7
高2.5
100
AcDbText
  0
TEXT
  5
294
330
36
100
AcDbEntity
  8
0
 62
     3
100
AcDbText
 10
-83.07695506887148
 20
-65.5
 30
0.0
 40
2.5
  1
M8ボルト～2個
 41
0.8
  7
高2.5
100
AcDbText
  0
CIRCLE
  5
29B
330
36
100
AcDbEntity
  8
0
 62
     7
100
AcDbCircle
 10
11.446903
 20
62.450488
 30
0.0
 40
4.0
  0
TEXT
  5
29C
330
36
100
AcDbEntity
  8
0
 62
     4
100
AcDbText
 10
9.885924215970364
 20
60.11422098994239
 30
0.0
 40
4.5
  1
3
  7
高4.5
100
AcDbText
  0
CIRCLE
  5
2A3
330
36
100
AcDbEntity
  8
0
 62
     7
100
AcDbCircle
 10
11.446903
 20
44.988396
 30
0.0
 40
4.0
  0
TEXT
  5
2A4
330
36
100
AcDbEntity
  8
0
 62
     4
100
AcDbText
 10
9.5820841897023
 20
42.55713608058239
 30
0.0
 40
4.5
  1
4
  7
高4.5
100
AcDbText
  0
CIRCLE
  5
2AB
330
36
100
AcDbEntity
  8
0
 62
     7
100
AcDbCircle
 10
11.446903
 20
25.065617
 30
0.0
 40
4.0
  0
TEXT
  5
2AC
330
36
100
AcDbEntity
  8
0
 62
     4
100
AcDbText
 10
9.813887131344472
 20
22.48122281352846
 30
0.0
 40
4.5
  1
5
  7
高4.5
100
AcDbText
  0
CIRCLE
  5
2B3
330
36
100
AcDbEntity
  8
0
 62
     7
100
AcDbCircle
 10
-108.1425
 20
54.804781
 30
0.0
 40
4.0
  0
TEXT
  5
2B4
330
36
100
AcDbEntity
  8
0
 62
     4
100
AcDbText
 10
-109.1334492819155
 20
52.34002857001235
 30
0.0
 40
4.5
  1
1
  7
高4.5
100
AcDbText
  0
CIRCLE
  5
2BB
330
36
100
AcDbEntity
  8
0
 62
     7
100
AcDbCircle
 10
-108.1425
 20
11.285768
 30
0.0
 40
4.0
  0
TEXT
  5
2BC
330
36
100
AcDbEntity
  8
0
 62
     4
100
AcDbText
 10
-109.6240870174383
 20
9.059553959123264
 30
0.0
 40
4.5
  1
2
  7
高4.5
100
AcDbText
  0
TEXT
  5
2BD
330
36
100
AcDbEntity
  8
0
 62
     3
100
AcDbText
 10
117.870499
 20
-49.71504799999999
 30
0.0
 40
4.5
  1
340
 41
1.058823999999997
100
AcDbText
  0
LINE
  5
34B
330
36
100
AcDbEntity
  8
0
  6
Continuous
100
AcDbLine
 10
18.06188312953764
 20
8.63194099466935
 30
0.0
 11
11.70188312953763
 21
8.631940994669407
 31
0.0
  0
LINE
  5
34C
330
36
100
AcDbEntity
  8
0
  6
Continuous
100
AcDbLine
 10
18.21005676262263
 20
8.751940994669354
 30
0.0
 11
11.51268798909132
 21
8.751940994669411
 31
0.0
  0
LINE
  5
34D
330
36
100
AcDbEntity
  8
0
  6
Continuous
100
AcDbLine
 10
18.06188312953764
 20
9.471940994669351
 30
0.0
 11
11.70188312953763
 21
9.471940994669382
 31
0.0
  0
LINE
  5
34E
330
36
100
AcDbEntity
  8
0
  6
Continuous
100
AcDbLine
 10
18.21005676262263
 20
9.351940994669377
 30
0.0
 11
11.51268798909132
 21
9.351940994669377
 31
0.0
  0
LINE
  5
34F
330
36
100
AcDbEntity
  8
0
  6
Continuous
 62
     3
100
AcDbLine
 10
18.06188312953764
 20
7.311940994669356
 30
0.0
 11
11.70188312953763
 21
7.311940994669384
 31
0.0
  0
ARC
  5
350
330
36
100
AcDbEntity
  8
0
  6
Continuous
 62
     3
100
AcDbCircle
 10
11.70188312953763
 20
7.671940994669396
 30
0.0
 40
0.36
100
AcDbArc
 50
180.0
 51
270.0
  0
LINE
  5
351
330
36
100
AcDbEntity
  8
0
  6
Continuous
 62
     3
100
AcDbLine
 10
18.06188312953764
 20
10.79194099466937
 30
0.0
 11
11.70188312953763
 21
10.79194099466937
 31
0.0
  0
LINE
  5
352
330
36
100
AcDbEntity
  8
0
  6
Continuous
 62
     3
100
AcDbLine
 10
21.38206003047651
 20
10.37194099466936
 30
0.0
 11
20.94188312953765
 21
10.37194099466936
 31
0.0
  0
LINE
  5
353
330
36
100
AcDbEntity
  8
0
  6
Continuous
 62
     3
100
AcDbLine
 10
22.26188312953764
 20
8.211940994669332
 30
0.0
 11
22.02188312953763
 21
8.211940994669332
 31
0.0
  0
LINE
  5
354
330
36
100
AcDbEntity
  8
0
  6
Continuous
 62
     3
100
AcDbLine
 10
22.26188312953764
 20
9.891940994669339
 30
0.0
 11
22.02188312953763
 21
9.891940994669339
 31
0.0
  0
LINE
  5
355
330
36
100
AcDbEntity
  8
0
  6
Continuous
 62
     3
100
AcDbLine
 10
22.02188312953763
 20
10.01194099466934
 30
0.0
 11
22.02188312953763
 21
8.09194099466933
 31
0.0
  0
LINE
  5
356
330
36
100
AcDbEntity
  8
0
  6
Continuous
 62
     3
100
AcDbLine
 10
20.94188312953765
 20
10.37194099466936
 30
0.0
 11
20.94188312953765
 21
7.731940994669343
 31
0.0
  0
LINE
  5
357
330
36
100
AcDbEntity
  8
0
  6
Continuous
 62
     3
100
AcDbLine
 10
18.66188312953761
 20
10.31194099466935
 30
0.0
 11
18.66188312953761
 21
7.791940994669348
 31
0.0
  0
LINE
  5
358
330
36
100
AcDbEntity
  8
0
  6
Continuous
 62
     3
100
AcDbLine
 10
22.02188312953763
 20
10.01194099466934
 30
0.0
 11
21.58461601851468
 21
10.30954991877925
 31
0.0
  0
ARC
  5
359
330
36
100
AcDbEntity
  8
0
  6
Continuous
 62
     3
100
AcDbCircle
 10
21.38206003047651
 20
10.01194099466934
 30
0.0
 40
0.36
100
AcDbArc
 50
55.76035552439892
 51
90.0
  0
LINE
  5
35A
330
36
100
AcDbEntity
  8
0
  6
Continuous
 62
     3
100
AcDbLine
 10
21.38206003047645
 20
7.731940994669343
 30
0.0
 11
20.94188312953765
 21
7.731940994669343
 31
0.0
  0
LINE
  5
35B
330
36
100
AcDbEntity
  8
0
  6
Continuous
 62
     3
100
AcDbLine
 10
22.02188312953763
 20
8.09194099466933
 30
0.0
 11
21.58461601851468
 21
7.794332070559419
 31
0.0
  0
ARC
  5
35C
330
36
100
AcDbEntity
  8
0
  6
Continuous
 62
     3
100
AcDbCircle
 10
21.38206003047645
 20
8.09194099466933
 30
0.0
 40
0.36
100
AcDbArc
 50
270.0
 51
304.2396444756011
  0
LINE
  5
35D
330
36
100
AcDbEntity
  8
0
  6
Continuous
 62
     3
100
AcDbLine
 10
18.66188312953761
 20
10.31194099466935
 30
0.0
 11
20.94188312953765
 21
10.25194099466935
 31
0.0
  0
LINE
  5
35E
330
36
100
AcDbEntity
  8
0
  6
Continuous
 62
     3
100
AcDbLine
 10
18.66188312953761
 20
7.791940994669348
 30
0.0
 11
20.94188312953765
 21
7.851940994669347
 31
0.0
  0
LINE
  5
35F
330
36
100
AcDbEntity
  8
0
  6
Continuous
100
AcDbLine
 10
18.06188312953764
 20
10.35414571479353
 30
0.0
 11
18.06188312953764
 21
9.471940994669351
 31
0.0
  0
LINE
  5
360
330
36
100
AcDbEntity
  8
0
  6
Continuous
100
AcDbLine
 10
18.06188312953764
 20
8.63194099466935
 30
0.0
 11
18.06188312953764
 21
7.311940994669356
 31
0.0
  0
LINE
  5
361
330
36
100
AcDbEntity
  8
0
  6
Continuous
 62
     3
100
AcDbLine
 10
11.34188312953767
 20
10.43194099466939
 30
0.0
 11
11.34188312953762
 21
7.671940994669396
 31
0.0
  0
ARC
  5
362
330
36
100
AcDbEntity
  8
0
  6
Continuous
 62
     3
100
AcDbCircle
 10
11.70188312953763
 20
10.43194099466939
 30
0.0
 40
0.36
100
AcDbArc
 50
90.0
 51
180.0
  0
LINE
  5
363
330
36
100
AcDbEntity
  8
0
  6
Continuous
 62
     3
100
AcDbLine
 10
18.06188312953764
 20
10.79194099466937
 30
0.0
 11
18.66188312953761
 21
10.31194099466935
 31
0.0
  0
LINE
  5
364
330
36
100
AcDbEntity
  8
0
  6
Continuous
 62
     3
100
AcDbLine
 10
18.06188312953764
 20
7.311940994669356
 30
0.0
 11
18.66188312953761
 21
7.791940994669348
 31
0.0
  0
LINE
  5
365
330
36
100
AcDbEntity
  8
0
  6
Continuous
100
AcDbLine
 10
11.51268798909132
 20
9.351940994669377
 30
0.0
 11
11.51268798909132
 21
8.751940994669383
 31
0.0
  0
LINE
  5
366
330
36
100
AcDbEntity
  8
0
  6
Continuous
100
AcDbLine
 10
18.21005676262263
 20
9.351940994669349
 30
0.0
 11
18.21005676262263
 21
8.751940994669354
 31
0.0
  0
LINE
  5
367
330
36
100
AcDbEntity
  8
0
  6
Continuous
100
AcDbLine
 10
18.06188312953764
 20
9.471940994669351
 30
0.0
 11
18.21005676262263
 21
9.351940994669377
 31
0.0
  0
LINE
  5
368
330
36
100
AcDbEntity
  8
0
  6
Continuous
100
AcDbLine
 10
18.06188312953764
 20
8.63194099466935
 30
0.0
 11
18.21005676262263
 21
8.751940994669354
 31
0.0
  0
LINE
  5
369
330
36
100
AcDbEntity
  8
0
  6
Continuous
100
AcDbLine
 10
11.51268798909132
 20
9.351940994669377
 30
0.0
 11
11.70188312953763
 21
9.471940994669382
 31
0.0
  0
LINE
  5
36A
330
36
100
AcDbEntity
  8
0
  6
Continuous
100
AcDbLine
 10
11.51268798909132
 20
8.751940994669411
 30
0.0
 11
11.70188312953763
 21
8.631940994669407
 31
0.0
  0
LINE
  5
36B
330
36
100
AcDbEntity
  8
0
  6
Continuous
100
AcDbLine
 10
18.06188312953764
 20
10.35414571479353
 30
0.0
 11
11.70188312953763
 21
10.35414571479347
 31
0.0
  0
LINE
  5
36C
330
36
100
AcDbEntity
  8
0
  6
Continuous
100
AcDbLine
 10
11.51268798909132
 20
10.47414571479348
 30
0.0
 11
11.51268798909132
 21
10.72308013944237
 31
0.0
  0
LINE
  5
36D
330
36
100
AcDbEntity
  8
0
  6
Continuous
100
AcDbLine
 10
18.21005676262263
 20
10.47414571479353
 30
0.0
 11
18.21005676262263
 21
10.67340208820136
 31
0.0
  0
LINE
  5
36E
330
36
100
AcDbEntity
  8
0
  6
Continuous
100
AcDbLine
 10
18.06188312953764
 20
10.35414571479353
 30
0.0
 11
18.21005676262263
 21
10.47414571479353
 31
0.0
  0
LINE
  5
36F
330
36
100
AcDbEntity
  8
0
  6
Continuous
100
AcDbLine
 10
11.51268798909132
 20
10.47414571479348
 30
0.0
 11
11.70188312953763
 21
10.35414571479347
 31
0.0
  0
LINE
  5
370
330
36
100
AcDbEntity
  8
0
  6
Continuous
100
AcDbLine
 10
11.51268798909132
 20
10.72308013944237
 30
0.0
 11
18.14795919857141
 21
10.72308013944234
 31
0.0
  0
LINE
  5
371
330
36
100
AcDbEntity
  8
0
  6
Continuous
100
AcDbLine
 10
18.06188312953759
 20
7.749736274545058
 30
0.0
 11
11.70188312953758
 21
7.749736274545284
 31
0.0
  0
LINE
  5
372
330
36
100
AcDbEntity
  8
0
  6
Continuous
100
AcDbLine
 10
11.51268798909126
 20
7.629736274545306
 30
0.0
 11
11.51268798909126
 21
7.380801849896414
 31
0.0
  0
LINE
  5
373
330
36
100
AcDbEntity
  8
0
  6
Continuous
100
AcDbLine
 10
18.21005676262257
 20
7.629736274545053
 30
0.0
 11
18.21005676262257
 21
7.430479901137204
 31
0.0
  0
LINE
  5
374
330
36
100
AcDbEntity
  8
0
  6
Continuous
100
AcDbLine
 10
18.06188312953759
 20
7.749736274545058
 30
0.0
 11
18.21005676262257
 21
7.629736274545053
 31
0.0
  0
LINE
  5
375
330
36
100
AcDbEntity
  8
0
  6
Continuous
100
AcDbLine
 10
11.51268798909126
 20
7.629736274545306
 30
0.0
 11
11.70188312953758
 21
7.749736274545284
 31
0.0
  0
LINE
  5
376
330
36
100
AcDbEntity
  8
0
  6
Continuous
100
AcDbLine
 10
11.51268798909126
 20
7.380801849896414
 30
0.0
 11
18.14795919857136
 21
7.380801849896242
 31
0.0
  0
LINE
  5
377
330
36
100
AcDbEntity
  8
0
  6
Continuous
100
AcDbLine
 10
11.70188312953763
 20
10.35414571479347
 30
0.0
 11
11.70188312953763
 21
9.471940994669382
 31
0.0
  0
LINE
  5
378
330
36
100
AcDbEntity
  8
0
  6
Continuous
100
AcDbLine
 10
11.70188312953763
 20
8.631940994669407
 30
0.0
 11
11.70188312953758
 21
7.749736274545284
 31
0.0
  0
LINE
  5
3DE
330
36
100
AcDbEntity
  8
0
  6
Continuous
100
AcDbLine
 10
22.26188312953764
 20
9.891940994669339
 30
0.0
 11
22.26188312953764
 21
8.211940994669332
 31
0.0
  0
DIMENSION
  5
3F1
330
36
100
AcDbEntity
  8
0
  6
Continuous
100
AcDbDimension
  2
*D1
 10
26.493562
 20
-21.3111619544988
 30
0.0
 11
18.69964167325054
 21
-21.3111619544988
 31
0.0
 70
   160
  1
(125)
 71
     5
 42
15.15167887046237
  3
1：1
100
AcDbAlignedDimension
 13
11.34188312953763
 23
7.671940994669396
 33
0.0
 14
26.493562
 24
-5.740965
 34
0.0
100
AcDbRotatedDimension
  0
ARC
  5
411
330
36
100
AcDbEntity
  8
0
 62
     3
100
AcDbCircle
 10
-60.99207243756985
 20
23.0198872614508
 30
0.0
 40
5.0
100
AcDbArc
 50
167.5382550327578
 51
200.0
  0
ARC
  5
415
330
36
100
AcDbEntity
  8
0
 62
     7
100
AcDbCircle
 10
-62.85833806912673
 20
23.03075224257215
 30
0.0
 40
4.0
100
AcDbArc
 50
163.9088427622418
 51
200.0
  0
ARC
  5
416
330
36
100
AcDbEntity
  8
0
 62
     3
100
AcDbCircle
 10
-73.67792281817961
 20
18.40261532655425
 30
0.0
 40
5.0
100
AcDbArc
 50
20.00000000000002
 51
52.46174496724247
  0
ARC
  5
417
330
36
100
AcDbEntity
  8
0
 62
     7
100
AcDbCircle
 10
-72.25526427698581
 20
19.61055080931546
 30
0.0
 40
4.0
100
AcDbArc
 50
20.00000000000002
 51
56.09115723775818
  0
LINE
  5
418
330
36
100
AcDbEntity
  8
0
  6
Continuous
 62
     3
100
AcDbLine
 10
-77.14955
 20
20.99636
 30
0.0
 11
-69.4032896679582
 21
20.99636
 31
0.0
  0
ARC
  5
419
330
36
100
AcDbEntity
  8
0
 62
     7
100
AcDbCircle
 10
-64.748909
 20
9.615321
 30
0.0
 40
1.702811
100
AcDbArc
 50
123.0707195655388
 51
176.128257
  0
ARC
  5
41A
330
36
100
AcDbEntity
  8
0
  6
DASHED
 62
     7
100
AcDbCircle
 10
-68.803125
 20
24.74636
 30
0.0
 40
12.87
100
AcDbArc
 50
297.8127642420129
 51
337.672282
  0
ARC
  5
41B
330
36
100
AcDbEntity
  8
0
  6
DASHED
 62
     7
100
AcDbCircle
 10
-68.803125
 20
24.74636
 30
0.0
 40
10.445076
100
AcDbArc
 50
299.6422159820412
 51
337.672282
  0
LINE
  5
41D
330
36
100
AcDbEntity
  8
0
 62
     7
100
AcDbLine
 10
-67.928125
 20
12.61989728723589
 30
0.0
 11
-67.928125
 21
13.63026028723588
 31
0.0
  0
LINE
  5
41E
330
36
100
AcDbEntity
  8
0
 62
     7
100
AcDbLine
 10
-68.803125
 20
12.11471528723589
 30
0.0
 11
-67.928125
 21
12.61989728723589
 31
0.0
  0
LINE
  5
41F
330
36
100
AcDbEntity
  8
0
 62
     7
100
AcDbLine
 10
-69.678125
 20
12.61989728723589
 30
0.0
 11
-68.803125
 21
12.11471528723589
 31
0.0
  0
LINE
  5
420
330
36
100
AcDbEntity
  8
0
 62
     7
100
AcDbLine
 10
-69.678125
 20
13.63026028723588
 30
0.0
 11
-69.678125
 21
12.61989728723589
 31
0.0
  0
LINE
  5
421
330
36
100
AcDbEntity
  8
0
 62
     7
100
AcDbLine
 10
-68.803125
 20
14.13544128723589
 30
0.0
 11
-69.678125
 21
13.63026028723588
 31
0.0
  0
LINE
  5
422
330
36
100
AcDbEntity
  8
0
 62
     7
100
AcDbLine
 10
-67.928125
 20
13.63026028723588
 30
0.0
 11
-68.803125
 21
14.13544128723589
 31
0.0
  0
TEXT
  5
58C
330
36
100
AcDbEntity
  8
0
 62
     3
100
AcDbText
 10
130.3485399523628
 20
80.5
 30
0.0
 40
3.2
  1
担当
  7
高3.2
100
AcDbText
  0
TEXT
  5
58D
330
36
100
AcDbEntity
  8
0
 62
     3
100
AcDbText
 10
84.0463718348502
 20
80.5
 30
0.0
 40
3.2
  1
変更・追記内容
  7
高3.2
100
AcDbText
  0
TEXT
  5
58E
330
36
100
AcDbEntity
  8
0
 62
     3
100
AcDbText
 10
57.11351500033913
 20
75.8294614900917
 30
0.0
 40
2.0
  1
1
  7
高2
100
AcDbText
  0
TEXT
  5
58F
330
36
100
AcDbEntity
  8
0
 62
     3
100
AcDbText
 10
56.80500352358183
 20
70.65964477781881
 30
0.0
 40
2.0
  1
2
  7
高2
100
AcDbText
  0
TEXT
  5
590
330
36
100
AcDbEntity
  8
0
 62
     3
100
AcDbText
 10
66.94165882416894
 20
80.5
 30
0.0
 40
3.2
  1
日　付
  7
高3.2
100
AcDbText
  0
TEXT
  5
591
330
36
100
AcDbEntity
  8
0
 62
     3
100
AcDbText
 10
63.99999999999988
 20
85.5
 30
0.0
 40
3.2
  1
図　　　　面　　　　略　　　　歴
  7
高3.2
100
AcDbText
  0
TEXT
  5
592
330
36
100
AcDbEntity
  8
0
 62
     3
100
AcDbText
 10
53.99999999999988
 20
80.5
 30
0.0
 40
3.2
  1
記号
  7
高3.2
100
AcDbText
  0
LINE
  5
593
330
36
100
AcDbEntity
  8
0
 62
     7
100
AcDbLine
 10
57.49999999999989
 20
73.79089600000009
 30
0.0
 11
55.59999999999989
 21
70.5
 31
0.0
  0
LINE
  5
594
330
36
100
AcDbEntity
  8
0
 62
     7
100
AcDbLine
 10
57.49999999999989
 20
73.79089600000009
 30
0.0
 11
59.39999999999987
 21
70.5
 31
0.0
  0
LINE
  5
595
330
36
100
AcDbEntity
  8
0
 62
     7
100
AcDbLine
 10
55.59999999999989
 20
70.5
 30
0.0
 11
59.39999999999987
 21
70.5
 31
0.0
  0
LINE
  5
596
330
36
100
AcDbEntity
  8
0
 62
     7
100
AcDbLine
 10
57.49999999999989
 20
78.79089700000007
 30
0.0
 11
55.59999999999989
 21
75.5
 31
0.0
  0
LINE
  5
597
330
36
100
AcDbEntity
  8
0
 62
     7
100
AcDbLine
 10
57.49999999999989
 20
78.79089700000007
 30
0.0
 11
59.39999999999987
 21
75.5
 31
0.0
  0
LINE
  5
598
330
36
100
AcDbEntity
  8
0
 62
     7
100
AcDbLine
 10
55.59999999999989
 20
75.5
 30
0.0
 11
59.39999999999987
 21
75.5
 31
0.0
  0
LINE
  5
599
330
36
100
AcDbEntity
  8
0
 62
     3
100
AcDbLine
 10
52.49999999999989
 20
85.0
 30
0.0
 11
138.4999999999999
 21
85.0
 31
0.0
  0
LINE
  5
59A
330
36
100
AcDbEntity
  8
0
 62
     7
100
AcDbLine
 10
52.49999999999989
 20
80.0
 30
0.0
 11
138.4999999999999
 21
80.0
 31
0.0
  0
LINE
  5
59B
330
36
100
AcDbEntity
  8
0
 62
     7
100
AcDbLine
 10
52.49999999999989
 20
75.0
 30
0.0
 11
138.4999999999999
 21
75.0
 31
0.0
  0
LINE
  5
59C
330
36
100
AcDbEntity
  8
0
 62
     3
100
AcDbLine
 10
52.49999999999989
 20
70.0
 30
0.0
 11
138.4999999999999
 21
70.0
 31
0.0
  0
LINE
  5
59D
330
36
100
AcDbEntity
  8
0
 62
     7
100
AcDbLine
 10
128.8485399523626
 20
70.0
 30
0.0
 11
128.8485399523628
 21
85.0
 31
0.0
  0
LINE
  5
59E
330
36
100
AcDbEntity
  8
0
 62
     7
100
AcDbLine
 10
82.5463718348502
 20
70.0
 30
0.0
 11
82.5463718348502
 21
85.0
 31
0.0
  0
LINE
  5
59F
330
36
100
AcDbEntity
  8
0
 62
     7
100
AcDbLine
 10
62.49999999999989
 20
70.0
 30
0.0
 11
62.49999999999989
 21
85.0
 31
0.0
  0
LINE
  5
5A0
330
36
100
AcDbEntity
  8
0
 62
     3
100
AcDbLine
 10
52.49999999999989
 20
70.0
 30
0.0
 11
52.49999999999989
 21
90.0
 31
0.0
  0
LEADER
  5
6E1
330
36
100
AcDbEntity
  8
0
  6
Continuous
100
AcDbLeader
  3
FREE
 76
     2
 10
-92.45216273309488
 20
-0.7816575982486671
 30
0.0
 10
-105.0129085224887
 20
8.794652349555657
 30
0.0
1001
ACAD
1000
DSTYLE
1002
{
1070
   147
1040
0.625
1070
    77
1070
     0
1002
}
  0
LEADER
  5
6E2
330
36
100
AcDbEntity
  8
0
  6
Continuous
100
AcDbLeader
  3
FREE
 76
     2
 10
-91.67364024149859
 20
44.16129066143628
 30
0.0
 10
-104.8431408838309
 20
52.5433147892084
 30
0.0
1001
ACAD
1000
DSTYLE
1002
{
1070
   147
1040
0.625
1070
    77
1070
     0
1002
}
  0
LEADER
  5
6E3
330
36
100
AcDbEntity
  8
0
  6
Continuous
100
AcDbLeader
  3
FREE
 76
     2
 10
38.15671537517585
 20
37.61636
 30
0.0
 10
14.30503210333744
 20
59.65207808923717
 30
0.0
1001
ACAD
1000
DSTYLE
1002
{
1070
   147
1040
0.625
1070
    77
1070
     0
1002
}
  0
LEADER
  5
6E4
330
36
100
AcDbEntity
  8
0
  6
Continuous
100
AcDbLeader
  3
FREE
 76
     2
 10
27.026794
 20
32.96878267631536
 30
0.0
 10
14.60814710573427
 20
42.53757252533677
 30
0.0
1001
ACAD
1000
DSTYLE
1002
{
1070
   147
1040
0.625
1070
    77
1070
     0
1002
}
  0
LEADER
  5
6E5
330
36
100
AcDbEntity
  8
0
  6
Continuous
100
AcDbLeader
  3
FREE
 76
     2
 10
22.268562
 20
16.62328241302352
 30
0.0
 10
14.52913454137469
 20
22.51613691077494
 30
0.0
1001
ACAD
1000
DSTYLE
1002
{
1070
   147
1040
0.625
1070
    77
1070
     0
1002
}
  0
LEADER
  5
6E6
330
36
100
AcDbEntity
  8
0
  6
Continuous
100
AcDbLeader
  3
FREE
 76
     2
 10
51.23941
 20
32.97597836099706
 30
0.0
 10
77.18653251911157
 20
50.09862868299181
 30
0.0
1001
ACAD
1000
DSTYLE
1002
{
1070
   147
1040
0.625
1070
    77
1070
     0
1002
}
  0
LINE
  5
6ED
330
36
100
AcDbEntity
  8
0
 62
     3
100
AcDbLine
 10
-54.73802268423352
 20
-86.0
 30
0.0
 11
-138.5
 21
-86.0
 31
0.0
  0
LINE
  5
6EE
330
36
100
AcDbEntity
  8
0
 62
     7
100
AcDbLine
 10
-54.73802268423352
 20
-82.00000000000001
 30
0.0
 11
-138.5
 21
-82.0
 31
0.0
  0
LINE
  5
6EF
330
36
100
AcDbEntity
  8
0
 62
     7
100
AcDbLine
 10
-54.73802268423352
 20
-78.0
 30
0.0
 11
-138.5
 21
-78.0
 31
0.0
  0
LINE
  5
6F0
330
36
100
AcDbEntity
  8
0
 62
     7
100
AcDbLine
 10
-54.73802268423352
 20
-74.00000000000001
 30
0.0
 11
-138.5
 21
-74.0
 31
0.0
  0
LINE
  5
6F1
330
36
100
AcDbEntity
  8
0
 62
     7
100
AcDbLine
 10
-54.73802268423352
 20
-70.0
 30
0.0
 11
-138.5
 21
-70.0
 31
0.0
  0
LINE
  5
6F2
330
36
100
AcDbEntity
  8
0
 62
     7
100
AcDbLine
 10
-54.73802268423352
 20
-66.0
 30
0.0
 11
-138.5
 21
-66.0
 31
0.0
  0
LINE
  5
6F3
330
36
100
AcDbEntity
  8
0
 62
     3
100
AcDbLine
 10
-54.73802268423352
 20
-62.0
 30
0.0
 11
-138.5
 21
-62.0
 31
0.0
  0
TEXT
  5
7C9
330
36
100
AcDbEntity
  8
0
 62
     3
100
AcDbText
 10
63.99999999999988
 20
75.5
 30
0.0
 40
3.2
  1
14.10.24
  7
高3.2
100
AcDbText
  0
TEXT
  5
7CA
330
36
100
AcDbEntity
  8
0
 62
     3
100
AcDbText
 10
84.0463718348502
 20
75.5
 30
0.0
 40
3.2
  1
側板径寸法変更
  7
高3.2
100
AcDbText
  0
TEXT
  5
7CB
330
36
100
AcDbEntity
  8
0
 62
     3
100
AcDbText
 10
130.3485399523627
 20
75.5
 30
0.0
 40
3.2
  1
牧田
  7
高3.2
100
AcDbText
  0
LINE
  5
82A
330
36
100
AcDbEntity
  8
0
 62
     3
100
AcDbLine
 10
67.981746
 20
53.99653500000002
 30
0.0
 11
67.981746
 21
-1.234982
 31
0.0
  0
LINE
  5
82B
330
36
100
AcDbEntity
  8
0
 62
     3
100
AcDbLine
 10
31.231746
 20
53.99653500000002
 30
0.0
 11
31.231746
 21
-1.234982
 31
0.0
  0
LINE
  5
82E
330
36
100
AcDbEntity
  8
0
 62
     3
100
AcDbLine
 10
67.981746
 20
-2.205034999999999
 30
0.0
 11
67.981746
 21
-4.503465000000005
 31
0.0
  0
ARC
  5
832
330
36
100
AcDbEntity
  8
0
  6
Continuous
 62
     3
100
AcDbCircle
 10
67.231746
 20
-4.503465000000005
 30
0.0
 40
0.7500000000000041
100
AcDbArc
 50
180.0
 51
0.0
  0
LINE
  5
833
330
36
100
AcDbEntity
  8
0
 62
     3
100
AcDbLine
 10
31.231746
 20
-2.205035000000001
 30
0.0
 11
31.231746
 21
-4.503465000000007
 31
0.0
  0
LINE
  5
834
330
36
100
AcDbEntity
  8
0
 62
     3
100
AcDbLine
 10
32.731746
 20
-2.205035000000001
 30
0.0
 11
32.731746
 21
-4.503465000000007
 31
0.0
  0
ARC
  5
835
330
36
100
AcDbEntity
  8
0
  6
Continuous
 62
     3
100
AcDbCircle
 10
31.981746
 20
-4.503465000000007
 30
0.0
 40
0.7500000000000041
100
AcDbArc
 50
180.0
 51
0.0
  0
ARC
  5
836
330
36
100
AcDbEntity
  8
0
  6
Continuous
 62
     3
100
AcDbCircle
 10
67.231746
 20
53.99653500000002
 30
0.0
 40
0.7500000000000041
100
AcDbArc
 50
0.0
 51
180.0
  0
ARC
  5
837
330
36
100
AcDbEntity
  8
0
  6
Continuous
 62
     3
100
AcDbCircle
 10
31.981746
 20
53.99653500000002
 30
0.0
 40
0.7500000000000041
100
AcDbArc
 50
0.0
 51
180.0
  0
DIMENSION
  5
838
330
36
100
AcDbEntity
  8
0
  6
Continuous
100
AcDbDimension
  2
*D19
 10
67.981746
 20
59.20555102854428
 30
0.0
 11
76.106746
 21
59.20555102854428
 31
0.0
 70
   160
  1
12
 71
     5
 42
1.5
  3
1：1
100
AcDbAlignedDimension
 13
66.481746
 23
53.99653500000002
 33
0.0
 14
67.981746
 24
53.99653500000002
 34
0.0
100
AcDbRotatedDimension
  0
TEXT
  5
891
330
36
100
AcDbEntity
  8
0
 62
     4
100
AcDbText
 10
90.27347180539294
 20
-39.89334658427177
 30
0.0
 40
4.5
  1
※耐荷重20kgf
  7
高4.5
100
AcDbText
  0
ENDSEC
  0
SECTION
  2
OBJECTS
  0
DICTIONARY
  5
C
330
0
100
AcDbDictionary
281
     1
  3
ACAD_COLOR
350
2F
  3
ACAD_DGNDEFINITIONS
350
85D
  3
ACAD_DWFDEFINITIONS
350
85C
  3
ACAD_GROUP
350
D
  3
ACAD_LAYOUT
350
2E
  3
ACAD_MATERIAL
350
10
  3
ACAD_MLEADERSTYLE
350
44D
  3
ACAD_MLINESTYLE
350
2B
  3
ACAD_PDFDEFINITIONS
350
85B
  3
ACAD_PLOTSETTINGS
350
2D
  3
ACAD_PLOTSTYLENAME
350
E
  3
ACAD_SCALELIST
350
43B
  3
ACAD_TABLESTYLE
350
30
  3
ACAD_VISUALSTYLE
350
14
  3
ACDBHEADERROUNDTRIPXREC
350
8D4
  3
AcDbVariableDictionary
350
407
  3
DWGPROPS
350
8D7
  0
DICTIONARY
  5
8D8
330
8
100
AcDbDictionary
280
     1
281
     1
  3
ACAD_XREC_ROUNDTRIP
360
8D9
  0
DICTIONARY
  5
2E8
330
2
100
AcDbDictionary
280
     1
281
     1
  3
ACAD_LAYERSTATES
360
2E9
  0
DICTIONARY
  5
452
330
25
100
AcDbDictionary
280
     1
281
     1
  3
ADSK_XREC_LAYER_RECONCILED
360
453
  0
DICTIONARY
  5
412
330
36
100
AcDbDictionary
280
     1
281
     1
  3
ACAD_SORTENTS
360
413
  0
DICTIONARY
  5
2F
102
{ACAD_REACTORS
330
C
102
}
330
C
100
AcDbDictionary
281
     1
  0
DICTIONARY
  5
85D
102
{ACAD_REACTORS
330
C
102
}
330
C
100
AcDbDictionary
281
     1
  0
DICTIONARY
  5
85C
102
{ACAD_REACTORS
330
C
102
}
330
C
100
AcDbDictionary
281
     1
  0
DICTIONARY
  5
D
102
{ACAD_REACTORS
330
C
102
}
330
C
100
AcDbDictionary
281
     1
  0
DICTIONARY
  5
2E
102
{ACAD_REACTORS
330
C
102
}
330
C
100
AcDbDictionary
281
     1
  3
Model
350
39
  3
レイアウト1
350
35
  0
DICTIONARY
  5
10
102
{ACAD_REACTORS
330
C
102
}
330
C
100
AcDbDictionary
281
     1
  3
ByBlock
350
12
  3
ByLayer
350
11
  3
Global
350
13
  0
DICTIONARY
  5
44D
102
{ACAD_REACTORS
330
C
102
}
330
C
100
AcDbDictionary
281
     1
  3
Standard
350
44E
  0
DICTIONARY
  5
2B
102
{ACAD_REACTORS
330
C
102
}
330
C
100
AcDbDictionary
281
     1
  3
Standard
350
2C
  0
DICTIONARY
  5
85B
102
{ACAD_REACTORS
330
C
102
}
330
C
100
AcDbDictionary
281
     1
  0
DICTIONARY
  5
2D
102
{ACAD_REACTORS
330
C
102
}
330
C
100
AcDbDictionary
281
     1
  0
ACDBDICTIONARYWDFLT
  5
E
102
{ACAD_REACTORS
330
C
102
}
330
C
100
AcDbDictionary
281
     1
  3
Normal
350
F
100
AcDbDictionaryWithDefault
340
F
  0
DICTIONARY
  5
43B
102
{ACAD_REACTORS
330
C
102
}
330
C
100
AcDbDictionary
281
     1
  3
A0
350
43C
  3
A1
350
43D
  3
A2
350
43E
  3
A3
350
43F
  3
A4
350
440
  3
A5
350
441
  3
A6
350
442
  3
A7
350
443
  3
A8
350
444
  3
A9
350
445
  3
B0
350
446
  3
B1
350
447
  3
B2
350
448
  3
B3
350
449
  3
B4
350
44A
  3
B5
350
44B
  3
B6
350
44C
  0
DICTIONARY
  5
30
102
{ACAD_REACTORS
330
C
102
}
330
C
100
AcDbDictionary
281
     1
  3
Standard
350
31
  0
DICTIONARY
  5
14
102
{ACAD_REACTORS
330
C
102
}
330
C
100
AcDbDictionary
281
     1
  3
2dWireframe
350
1A
  3
3D Hidden
350
1C
  3
3dWireframe
350
1B
  3
Basic
350
19
  3
Brighten
350
20
  3
ColorChange
350
24
  3
Conceptual
350
1D
  3
Dim
350
1F
  3
EdgeColorOff
350
43A
  3
Facepattern
350
23
  3
Flat
350
15
  3
FlatWithEdges
350
16
  3
Gouraud
350
17
  3
GouraudWithEdges
350
18
  3
Hidden
350
432
  3
JitterOff
350
438
  3
Linepattern
350
22
  3
OverhangOff
350
439
  3
Realistic
350
1E
  3
Shaded
350
437
  3
Shaded with edges
350
436
  3
Shades of Gray
350
433
  3
Sketchy
350
434
  3
Thicken
350
21
  3
Wireframe
350
431
  3
X-Ray
350
435
  0
DICTIONARY
  5
8D4
102
{ACAD_REACTORS
330
C
102
}
330
C
100
AcDbDictionary
281
     1
  3
COLORDICT
350
8D5
  3
MATERIALDICT
350
8D6
  0
DICTIONARY
  5
407
102
{ACAD_REACTORS
330
C
102
}
330
C
100
AcDbDictionary
281
     1
  3
CANNOSCALE
350
8DA
  3
CMLEADERSTYLE
350
456
  3
CTABLESTYLE
350
408
  3
DIMASSOC
350
45B
  3
HIDETEXT
350
893
  3
INDEXCTL
350
459
  3
MSLTSCALE
350
892
  3
SORTENTS
350
458
  3
XCLIPFRAME
350
731
  0
XRECORD
  5
8D7
102
{ACAD_REACTORS
330
C
102
}
330
C
100
AcDbXrecord
280
     1
  1
DWGPROPS COOKIE
  2

  3

  4

  6

  7

  8
nakashinde
  9

300
=
301
=
302
=
303
=
304
=
305
=
306
=
307
=
308
=
309
=
 40
0.0
 41
2456258.367566713
 42
2460074.386717442
  1

 90
        0
  0
XRECORD
  5
8D9
102
{ACAD_REACTORS
330
8D8
102
}
330
8D8
100
AcDbXrecord
280
     1
102
VTR_0.000_0.000_1.000_1.000_VISUALSTYLE
340
1A
102
VTR_0.000_0.000_1.000_1.000_GRIDDISPLAY
 70
     3
102
VTR_0.000_0.000_1.000_1.000_GRIDMAJOR
 70
     5
102
VTR_0.000_0.000_1.000_1.000_DEFAULTLIGHTING
280
     1
102
VTR_0.000_0.000_1.000_1.000_DEFAULTLIGHTINGTYPE
 70
     1
102
VTR_0.000_0.000_1.000_1.000_BRIGHTNESS
141
0.0
102
VTR_0.000_0.000_1.000_1.000_CONTRAST
142
0.0
  0
DICTIONARY
  5
2E9
102
{ACAD_REACTORS
330
2E8
102
}
330
2E8
100
AcDbDictionary
281
     1
  0
XRECORD
  5
453
102
{ACAD_REACTORS
330
452
102
}
330
452
100
AcDbXrecord
280
     1
290
     1
  0
SORTENTSTABLE
  5
413
102
{ACAD_REACTORS
330
412
102
}
330
412
100
AcDbSortentsTable
330
36
331
B3
  5
B3
331
B4
  5
B4
331
B5
  5
B5
331
B6
  5
B6
331
B7
  5
B7
331
B8
  5
B8
331
CF
  5
CF
331
D0
  5
D0
331
D1
  5
D1
331
D2
  5
D2
331
D3
  5
D3
331
E2
  5
E2
331
E3
  5
E3
331
E4
  5
E4
331
E5
  5
E5
331
E6
  5
E6
331
E7
  5
E7
331
E8
  5
EB
331
EA
  5
EC
331
EB
  5
ED
331
EC
  5
EE
331
ED
  5
EF
331
EE
  5
F0
331
EF
  5
F1
331
F0
  5
F2
331
F1
  5
F3
331
F2
  5
F4
331
F3
  5
F5
331
F4
  5
F6
331
F5
  5
F7
331
F6
  5
F8
331
F7
  5
FB
331
F8
  5
FC
331
F9
  5
FD
331
FF
  5
103
331
100
  5
104
331
101
  5
105
331
108
  5
123
331
109
  5
124
331
10A
  5
125
331
10B
  5
126
331
10C
  5
127
331
10D
  5
128
331
10E
  5
129
331
10F
  5
12A
331
120
  5
12B
331
123
  5
12E
331
125
  5
130
331
127
  5
132
331
128
  5
133
331
129
  5
134
331
12A
  5
135
331
12B
  5
136
331
12C
  5
137
331
12D
  5
138
331
12E
  5
139
331
12F
  5
13A
331
130
  5
13B
331
131
  5
13C
331
132
  5
13D
331
135
  5
140
331
136
  5
141
331
137
  5
142
331
138
  5
143
331
139
  5
144
331
13A
  5
145
331
13B
  5
146
331
13C
  5
147
331
13D
  5
148
331
13E
  5
149
331
13F
  5
14A
331
140
  5
14B
331
142
  5
14D
331
144
  5
14F
331
14A
  5
155
331
150
  5
15B
331
151
  5
15C
331
152
  5
15D
331
153
  5
15E
331
154
  5
15F
331
155
  5
160
331
156
  5
161
331
157
  5
162
331
158
  5
163
331
159
  5
164
331
15A
  5
165
331
15B
  5
166
331
15C
  5
167
331
15D
  5
168
331
15E
  5
169
331
15F
  5
16A
331
160
  5
16B
331
161
  5
16C
331
162
  5
16D
331
163
  5
16E
331
164
  5
16F
331
165
  5
170
331
166
  5
171
331
167
  5
172
331
168
  5
173
331
169
  5
174
331
16A
  5
175
331
16B
  5
176
331
16C
  5
177
331
16D
  5
178
331
16E
  5
179
331
16F
  5
17A
331
170
  5
17B
331
171
  5
17C
331
172
  5
17D
331
173
  5
17E
331
174
  5
17F
331
175
  5
180
331
176
  5
181
331
177
  5
182
331
178
  5
183
331
179
  5
184
331
17A
  5
18B
331
17B
  5
18C
331
17C
  5
18D
331
17D
  5
18E
331
17E
  5
18F
331
17F
  5
190
331
180
  5
191
331
189
  5
194
331
18A
  5
195
331
18B
  5
196
331
18C
  5
197
331
18D
  5
198
331
18E
  5
199
331
18F
  5
19A
331
190
  5
19B
331
191
  5
19C
331
192
  5
19D
331
193
  5
19E
331
194
  5
19F
331
195
  5
1A0
331
196
  5
1A1
331
197
  5
1A2
331
198
  5
1A3
331
199
  5
1A4
331
19A
  5
1A5
331
19B
  5
1A6
331
19C
  5
1A7
331
19D
  5
1A9
331
19E
  5
1AA
331
19F
  5
1AC
331
1A0
  5
1AD
331
1A1
  5
1AE
331
1A2
  5
1AF
331
1A3
  5
1B0
331
1A4
  5
1B1
331
1A5
  5
1B2
331
1A6
  5
1B3
331
1A7
  5
1B4
331
1A8
  5
1B5
331
1A9
  5
1B6
331
1AA
  5
1B7
331
1AB
  5
1B8
331
1AC
  5
1B9
331
1AD
  5
1BA
331
1AE
  5
1BB
331
1AF
  5
1BC
331
1B0
  5
1BD
331
1B1
  5
1BE
331
1B2
  5
1BF
331
1B3
  5
1C0
331
1B4
  5
1C1
331
1B5
  5
1C2
331
1B6
  5
1C3
331
1B7
  5
1C4
331
1B8
  5
1C5
331
1B9
  5
1C6
331
1BA
  5
1C7
331
1BB
  5
1C8
331
1BC
  5
1C9
331
1BD
  5
1CA
331
1BE
  5
1CB
331
1BF
  5
1CC
331
1C0
  5
1CD
331
1C1
  5
1CE
331
1C2
  5
1CF
331
1C3
  5
1D0
331
1C4
  5
1D1
331
1C5
  5
1D2
331
1C6
  5
1D3
331
1C7
  5
1D4
331
1C8
  5
1D5
331
1C9
  5
1D6
331
1CA
  5
1D7
331
1CB
  5
1D8
331
1CC
  5
1D9
331
1CD
  5
1DA
331
1CE
  5
1DB
331
1CF
  5
1DC
331
1D0
  5
1DD
331
1D1
  5
1DE
331
1D2
  5
1DF
331
1D3
  5
1E0
331
1D4
  5
1E1
331
1D5
  5
1E2
331
1D6
  5
1E3
331
1D7
  5
1E4
331
1D8
  5
1E5
331
1D9
  5
1E6
331
1DA
  5
1E7
331
1DB
  5
1E8
331
1DC
  5
1E9
331
1DD
  5
1EA
331
1DE
  5
1EB
331
1DF
  5
1EC
331
1E0
  5
1ED
331
1E1
  5
1EE
331
1E2
  5
1EF
331
1E3
  5
1F0
331
1E4
  5
1F1
331
1E5
  5
1F2
331
1E6
  5
1F3
331
1E7
  5
1F4
331
1E8
  5
1F5
331
1E9
  5
1F6
331
1EA
  5
1F7
331
1EB
  5
1F8
331
1EC
  5
1F9
331
1ED
  5
1FA
331
1EE
  5
1FB
331
1EF
  5
1FC
331
1F0
  5
1FD
331
1F1
  5
1FE
331
1F2
  5
1FF
331
1F3
  5
200
331
1F4
  5
201
331
1F5
  5
202
331
1F6
  5
203
331
1F7
  5
204
331
1F8
  5
205
331
1F9
  5
206
331
1FA
  5
207
331
1FB
  5
208
331
1FC
  5
209
331
1FD
  5
20A
331
1FE
  5
20B
331
1FF
  5
20C
331
200
  5
20D
331
201
  5
20E
331
202
  5
20F
331
203
  5
210
331
204
  5
211
331
205
  5
212
331
206
  5
213
331
207
  5
214
331
208
  5
215
331
209
  5
216
331
20A
  5
217
331
20B
  5
219
331
20C
  5
21A
331
20D
  5
21B
331
20E
  5
21C
331
20F
  5
21D
331
210
  5
21E
331
211
  5
21F
331
212
  5
220
331
213
  5
221
331
215
  5
222
331
216
  5
223
331
217
  5
224
331
218
  5
225
331
219
  5
226
331
21A
  5
227
331
21B
  5
228
331
21C
  5
229
331
21D
  5
22A
331
21E
  5
22B
331
21F
  5
22C
331
220
  5
22D
331
221
  5
22E
331
222
  5
22F
331
223
  5
230
331
224
  5
231
331
225
  5
232
331
226
  5
233
331
227
  5
234
331
228
  5
235
331
229
  5
236
331
22A
  5
237
331
22B
  5
239
331
22C
  5
23A
331
22D
  5
23B
331
22E
  5
23C
331
22F
  5
23D
331
230
  5
23E
331
231
  5
23F
331
233
  5
241
331
234
  5
242
331
235
  5
243
331
236
  5
244
331
237
  5
245
331
238
  5
246
331
239
  5
247
331
23A
  5
248
331
23B
  5
249
331
23C
  5
24A
331
23D
  5
24B
331
23E
  5
24C
331
23F
  5
24D
331
240
  5
24E
331
241
  5
24F
331
242
  5
250
331
243
  5
251
331
244
  5
252
331
245
  5
253
331
246
  5
254
331
247
  5
255
331
248
  5
256
331
249
  5
257
331
24A
  5
258
331
24B
  5
259
331
24C
  5
25A
331
24D
  5
25B
331
24E
  5
25C
331
24F
  5
25D
331
250
  5
25E
331
251
  5
25F
331
252
  5
260
331
253
  5
261
331
254
  5
262
331
255
  5
263
331
256
  5
264
331
257
  5
265
331
258
  5
266
331
259
  5
267
331
25A
  5
268
331
25B
  5
26D
331
25C
  5
26E
331
25D
  5
26F
331
25E
  5
270
331
25F
  5
271
331
260
  5
272
331
261
  5
275
331
262
  5
276
331
263
  5
277
331
264
  5
278
331
265
  5
279
331
266
  5
27A
331
267
  5
27B
331
26E
  5
27C
331
26F
  5
27D
331
270
  5
27E
331
271
  5
27F
331
272
  5
280
331
273
  5
282
331
276
  5
288
331
27A
  5
28F
331
27B
  5
290
331
27D
  5
291
331
27E
  5
292
331
27F
  5
293
331
280
  5
294
331
281
  5
29A
331
282
  5
29B
331
283
  5
29C
331
284
  5
29D
331
285
  5
2A2
331
286
  5
2A3
331
288
  5
2AA
331
289
  5
2AB
331
28A
  5
2B2
331
28B
  5
2B3
331
28C
  5
2BA
331
28D
  5
2BB
331
28E
  5
34B
331
28F
  5
34C
331
290
  5
34F
331
291
  5
350
331
292
  5
351
331
293
  5
352
331
294
  5
353
331
29B
  5
354
331
29C
  5
355
331
2A3
  5
356
331
2A4
  5
357
331
2AB
  5
358
331
2AC
  5
359
331
2B3
  5
35A
331
2B4
  5
35B
331
2BB
  5
35C
331
2BC
  5
35D
331
2BD
  5
35E
331
34B
  5
35F
331
34C
  5
360
331
34D
  5
361
331
34E
  5
362
331
34F
  5
363
331
350
  5
364
331
351
  5
365
331
352
  5
366
331
353
  5
367
331
354
  5
368
331
355
  5
369
331
356
  5
36A
331
357
  5
36B
331
358
  5
36C
331
359
  5
36D
331
35A
  5
36E
331
35B
  5
36F
331
35C
  5
370
331
35D
  5
371
331
35E
  5
372
331
35F
  5
373
331
360
  5
374
331
361
  5
375
331
362
  5
376
331
363
  5
377
331
364
  5
378
331
365
  5
379
331
366
  5
37A
331
367
  5
37B
331
368
  5
37C
331
369
  5
37D
331
36A
  5
37E
331
36B
  5
37F
331
36C
  5
419
331
36D
  5
41A
331
36E
  5
41B
331
36F
  5
41D
331
370
  5
41E
331
371
  5
41F
331
372
  5
420
331
373
  5
421
331
374
  5
422
331
375
  5
580
331
376
  5
581
331
377
  5
582
331
378
  5
583
331
3DE
  5
584
331
3F1
  5
585
331
411
  5
EA
331
415
  5
FA
331
416
  5
E8
331
417
  5
F9
331
418
  5
586
331
419
  5
240
331
41A
  5
1A8
331
41B
  5
1AB
331
41D
  5
593
331
41E
  5
594
331
41F
  5
595
331
420
  5
596
331
421
  5
597
331
422
  5
598
331
58C
  5
599
331
58D
  5
59A
331
58E
  5
59B
331
58F
  5
59C
331
590
  5
59D
331
591
  5
59E
331
592
  5
59F
331
593
  5
5A0
331
594
  5
6E1
331
595
  5
6E2
331
596
  5
6E3
331
597
  5
6E4
331
598
  5
6E5
331
599
  5
6E6
331
59A
  5
6ED
331
59B
  5
6EE
331
59C
  5
6EF
331
59D
  5
6F0
331
59E
  5
6F1
331
59F
  5
6F2
331
5A0
  5
6F3
331
6E1
  5
7C9
331
6E2
  5
7CA
331
6E3
  5
7CB
331
6E4
  5
829
331
6E5
  5
82A
331
6E6
  5
82B
331
6ED
  5
10C
331
6EE
  5
10D
331
6EF
  5
10E
331
6F0
  5
10F
331
6F1
  5
120
331
6F2
  5
121
331
6F3
  5
122
331
7C9
  5
82C
331
7CA
  5
82D
331
7CB
  5
82E
331
82A
  5
281
331
82B
  5
289
331
82E
  5
285
  0
LAYOUT
  5
39
102
{ACAD_REACTORS
330
2E
102
}
330
2E
100
AcDbPlotSettings
  1

  2
none_device
  4
Letter_(8.50_x_11.00_Inches)
  6

 40
6.349999904632568
 41
6.349999904632568
 42
6.350006103515625
 43
6.350006103515625
 44
215.8999938964844
 45
279.3999938964844
 46
0.0
 47
0.0
 48
0.0
 49
0.0
140
0.0
141
0.0
142
1.0
143
27.71106903431824
 70
 11952
 72
     0
 73
     1
 74
     0
  7

 75
     0
147
0.0360866626531647
148
3695.256620751681
149
2304.941666065747
100
AcDbLayout
  1
Model
 70
     1
 71
     0
 10
0.0
 20
0.0
 11
12.0
 21
9.0
 12
0.0
 22
0.0
 32
0.0
 14
-138.5
 24
-90.0
 34
0.0
 15
138.5
 25
98.472617
 35
0.0
146
0.0
 13
0.0
 23
0.0
 33
0.0
 16
1.0
 26
0.0
 36
0.0
 17
0.0
 27
1.0
 37
0.0
 76
     0
330
36
331
56
1001
ACAD_PSEXT
1000
なし
1000
なし
1000
適切ではありません
1000
新しいプロッタ環境設定名を選択しない限り、レイアウトは印刷されません。
1070
     0
  0
LAYOUT
  5
35
102
{ACAD_REACTORS
330
2E
102
}
330
2E
100
AcDbPlotSettings
  1

  2
PDF Complete
  4

  6

 40
0.0
 41
0.0
 42
0.0
 43
0.0
 44
0.0
 45
0.0
 46
0.0
 47
0.0
 48
0.0
 49
0.0
140
0.0
141
0.0
142
1.0
143
1.0
 70
   688
 72
     0
 73
     0
 74
     5
  7

 75
    16
147
1.0
148
0.0
149
0.0
100
AcDbLayout
  1
レイアウト1
 70
     1
 71
     1
 10
0.0
 20
0.0
 11
12.0
 21
9.0
 12
0.0
 22
0.0
 32
0.0
 14
1.000000000000000E+20
 24
1.000000000000000E+20
 34
1.000000000000000E+20
 15
-1.000000000000000E+20
 25
-1.000000000000000E+20
 35
-1.000000000000000E+20
146
0.0
 13
0.0
 23
0.0
 33
0.0
 16
1.0
 26
0.0
 36
0.0
 17
0.0
 27
1.0
 37
0.0
 76
     0
330
32
  0
MATERIAL
  5
12
102
{ACAD_REACTORS
330
10
102
}
102
{ACAD_XDICTIONARY
360
8DB
102
}
330
10
100
AcDbMaterial
  1
ByBlock
  0
MATERIAL
  5
11
102
{ACAD_REACTORS
330
10
102
}
102
{ACAD_XDICTIONARY
360
8DD
102
}
330
10
100
AcDbMaterial
  1
ByLayer
  0
MATERIAL
  5
13
102
{ACAD_REACTORS
330
10
102
}
102
{ACAD_XDICTIONARY
360
8DF
102
}
330
10
100
AcDbMaterial
  1
Global
  0
MLEADERSTYLE
  5
44E
102
{ACAD_REACTORS
330
44D
102
}
102
{ACAD_XDICTIONARY
360
8E1
102
}
330
44D
100
AcDbMLeaderStyle
170
     2
171
     1
172
     0
 90
        2
 40
0.0
 41
0.0
173
     1
 91
-1056964608
340
28
 92
       -2
290
     1
 42
0.09
291
     1
 43
0.36
  3
Standard
341
0
 44
0.18
300

342
26
174
     1
178
     6
175
     1
176
     0
 93
-1056964608
 45
0.18
292
     0
297
     0
 46
0.18
343
0
 94
-1056964608
 47
1.0
 49
1.0
140
1.0
293
     1
141
0.0
294
     1
177
     0
142
1.0
295
     0
296
     0
143
0.125
1001
ACAD_MLEADERVER
1070
     2
  0
MLINESTYLE
  5
2C
102
{ACAD_REACTORS
330
2B
102
}
330
2B
100
AcDbMlineStyle
  2
STANDARD
 70
     0
  3

 62
   256
 51
90.0
 52
90.0
 71
     2
 49
0.5
 62
   256
  6
BYLAYER
 49
-0.5
 62
   256
  6
BYLAYER
  0
ACDBPLACEHOLDER
  5
F
102
{ACAD_REACTORS
330
E
102
}
330
E
  0
SCALE
  5
43C
102
{ACAD_REACTORS
330
43B
102
}
330
43B
100
AcDbScale
 70
     0
300
1:1
140
1.0
141
1.0
290
     1
  0
SCALE
  5
43D
102
{ACAD_REACTORS
330
43B
102
}
330
43B
100
AcDbScale
 70
     0
300
1/128" = 1'-0"
140
0.0078125
141
12.0
290
     0
  0
SCALE
  5
43E
102
{ACAD_REACTORS
330
43B
102
}
330
43B
100
AcDbScale
 70
     0
300
1/64" = 1'-0"
140
0.015625
141
12.0
290
     0
  0
SCALE
  5
43F
102
{ACAD_REACTORS
330
43B
102
}
330
43B
100
AcDbScale
 70
     0
300
1/32" = 1'-0"
140
0.03125
141
12.0
290
     0
  0
SCALE
  5
440
102
{ACAD_REACTORS
330
43B
102
}
330
43B
100
AcDbScale
 70
     0
300
1/16" = 1'-0"
140
0.0625
141
12.0
290
     0
  0
SCALE
  5
441
102
{ACAD_REACTORS
330
43B
102
}
330
43B
100
AcDbScale
 70
     0
300
3/32" = 1'-0"
140
0.09375
141
12.0
290
     0
  0
SCALE
  5
442
102
{ACAD_REACTORS
330
43B
102
}
330
43B
100
AcDbScale
 70
     0
300
1/8" = 1'-0"
140
0.125
141
12.0
290
     0
  0
SCALE
  5
443
102
{ACAD_REACTORS
330
43B
102
}
330
43B
100
AcDbScale
 70
     0
300
3/16" = 1'-0"
140
0.1875
141
12.0
290
     0
  0
SCALE
  5
444
102
{ACAD_REACTORS
330
43B
102
}
330
43B
100
AcDbScale
 70
     0
300
1/4" = 1'-0"
140
0.25
141
12.0
290
     0
  0
SCALE
  5
445
102
{ACAD_REACTORS
330
43B
102
}
330
43B
100
AcDbScale
 70
     0
300
3/8" = 1'-0"
140
0.375
141
12.0
290
     0
  0
SCALE
  5
446
102
{ACAD_REACTORS
330
43B
102
}
330
43B
100
AcDbScale
 70
     0
300
1/2" = 1'-0"
140
0.5
141
12.0
290
     0
  0
SCALE
  5
447
102
{ACAD_REACTORS
330
43B
102
}
330
43B
100
AcDbScale
 70
     0
300
3/4" = 1'-0"
140
0.75
141
12.0
290
     0
  0
SCALE
  5
448
102
{ACAD_REACTORS
330
43B
102
}
330
43B
100
AcDbScale
 70
     0
300
1" = 1'-0"
140
1.0
141
12.0
290
     0
  0
SCALE
  5
449
102
{ACAD_REACTORS
330
43B
102
}
330
43B
100
AcDbScale
 70
     0
300
1-1/2" = 1'-0"
140
1.5
141
12.0
290
     0
  0
SCALE
  5
44A
102
{ACAD_REACTORS
330
43B
102
}
330
43B
100
AcDbScale
 70
     0
300
3" = 1'-0"
140
3.0
141
12.0
290
     0
  0
SCALE
  5
44B
102
{ACAD_REACTORS
330
43B
102
}
330
43B
100
AcDbScale
 70
     0
300
6" = 1'-0"
140
6.0
141
12.0
290
     0
  0
SCALE
  5
44C
102
{ACAD_REACTORS
330
43B
102
}
330
43B
100
AcDbScale
 70
     0
300
1'-0" = 1'-0"
140
12.0
141
12.0
290
     0
  0
TABLESTYLE
  5
31
102
{ACAD_REACTORS
330
30
102
}
330
30
100
AcDbTableStyle
  3
Standard
 70
     0
 71
     0
 40
0.06
 41
0.06
280
     0
281
     0
  7
STANDARD
140
0.18
170
     2
 62
     0
 63
   257
283
     0
274
    -2
284
     1
 64
     0
275
    -2
285
     1
 65
     0
276
    -2
286
     1
 66
     0
277
    -2
287
     1
 67
     0
278
    -2
288
     1
 68
     0
279
    -2
289
     1
 69
     0
  7
STANDARD
140
0.25
170
     5
 62
     0
 63
   257
283
     0
274
    -2
284
     1
 64
     0
275
    -2
285
     1
 65
     0
276
    -2
286
     1
 66
     0
277
    -2
287
     1
 67
     0
278
    -2
288
     1
 68
     0
279
    -2
289
     1
 69
     0
  7
STANDARD
140
0.18
170
     5
 62
     0
 63
   257
283
     0
274
    -2
284
     1
 64
     0
275
    -2
285
     1
 65
     0
276
    -2
286
     1
 66
     0
277
    -2
287
     1
 67
     0
278
    -2
288
     1
 68
     0
279
    -2
289
     1
 69
     0
  0
VISUALSTYLE
  5
1A
102
{ACAD_REACTORS
330
14
102
}
102
{ACAD_XDICTIONARY
360
8E3
102
}
330
14
100
AcDbVisualStyle
  2

 70
     4
 71
     0
 72
     2
 73
     0
 90
        0
 40
-0.6
 41
-30.0
 62
     5
 63
     7
 74
     1
 91
        4
 64
     7
 65
   257
 75
     1
175
     1
 42
1.0
 92
        0
 66
   257
 43
1.0
 76
     1
 77
     6
 78
     2
 67
     7
 79
     5
170
     0
171
     0
290
     0
174
     0
 93
        1
 44
0.0
173
     0
291
     0
 45
0.0
1001
ACAD
1000
AcDbSavedByObjectVersion
1070
     0
1000
AcDbSavedByObjectVersion
1070
     0
  0
VISUALSTYLE
  5
1C
102
{ACAD_REACTORS
330
14
102
}
102
{ACAD_XDICTIONARY
360
8E5
102
}
330
14
100
AcDbVisualStyle
  2

 70
     6
 71
     1
 72
     2
 73
     2
 90
        0
 40
-0.6
 41
-30.0
 62
     5
 63
     7
 74
     2
 91
        2
 64
     7
 65
   257
 75
     2
175
     1
 42
40.0
 92
        0
 66
   257
 43
1.0
 76
     1
 77
     6
 78
     2
 67
     7
 79
     3
170
     0
171
     0
290
     0
174
     0
 93
        1
 44
0.0
173
     0
291
     0
 45
0.0
1001
ACAD
1000
AcDbSavedByObjectVersion
1070
     0
1000
AcDbSavedByObjectVersion
1070
     0
  0
VISUALSTYLE
  5
1B
102
{ACAD_REACTORS
330
14
102
}
102
{ACAD_XDICTIONARY
360
8E7
102
}
330
14
100
AcDbVisualStyle
  2

 70
     5
 71
     0
 72
     2
 73
     0
 90
        0
 40
-0.6
 41
-30.0
 62
     5
 63
     7
 74
     1
 91
        4
 64
     7
 65
   257
 75
     1
175
     1
 42
1.0
 92
        0
 66
   257
 43
1.0
 76
     1
 77
     6
 78
     2
 67
     7
 79
     5
170
     0
171
     0
290
     0
174
     0
 93
        1
 44
0.0
173
     0
291
     0
 45
0.0
1001
ACAD
1000
AcDbSavedByObjectVersion
1070
     0
1000
AcDbSavedByObjectVersion
1070
     0
  0
VISUALSTYLE
  5
19
102
{ACAD_REACTORS
330
14
102
}
102
{ACAD_XDICTIONARY
360
8E9
102
}
330
14
100
AcDbVisualStyle
  2

 70
     7
 71
     1
 72
     0
 73
     1
 90
        0
 40
-0.6
 41
-30.0
 62
     5
 63
     7
 74
     0
 91
        4
 64
     7
 65
   257
 75
     1
175
     1
 42
1.0
 92
        8
 66
     7
 43
1.0
 76
     1
 77
     6
 78
     2
 67
     7
 79
     5
170
     0
171
     0
290
     0
174
     0
 93
        1
 44
0.0
173
     0
291
     1
 45
0.0
1001
ACAD
1000
AcDbSavedByObjectVersion
1070
     0
1000
AcDbSavedByObjectVersion
1070
     0
  0
VISUALSTYLE
  5
20
102
{ACAD_REACTORS
330
14
102
}
102
{ACAD_XDICTIONARY
360
8EB
102
}
330
14
100
AcDbVisualStyle
  2

 70
    12
 71
     2
 72
     2
 73
     0
 90
        0
 40
-0.6
 41
-30.0
 62
     5
 63
     7
 74
     1
 91
        4
 64
     7
 65
   257
 75
     1
175
     1
 42
1.0
 92
        8
 66
     7
 43
1.0
 76
     1
 77
     6
 78
     2
 67
     7
 79
     5
170
     0
171
     0
290
     0
174
     0
 93
        1
 44
50.0
173
     0
291
     1
 45
0.0
1001
ACAD
1000
AcDbSavedByObjectVersion
1070
     0
1000
AcDbSavedByObjectVersion
1070
     0
  0
VISUALSTYLE
  5
24
102
{ACAD_REACTORS
330
14
102
}
102
{ACAD_XDICTIONARY
360
8ED
102
}
330
14
100
AcDbVisualStyle
  2

 70
    16
 71
     2
 72
     2
 73
     3
 90
        0
 40
-0.6
 41
-30.0
 62
     5
 63
     8
 74
     1
 91
        4
 64
     7
 65
   257
 75
     1
175
     1
 42
1.0
 92
        8
 66
     8
 43
1.0
 76
     1
 77
     6
 78
     2
 67
     7
 79
     5
170
     0
171
     0
290
     0
174
     0
 93
        1
 44
0.0
173
     0
291
     1
 45
0.0
1001
ACAD
1000
AcDbSavedByObjectVersion
1070
     0
1000
AcDbSavedByObjectVersion
1070
     0
  0
VISUALSTYLE
  5
1D
102
{ACAD_REACTORS
330
14
102
}
102
{ACAD_XDICTIONARY
360
8EF
102
}
330
14
100
AcDbVisualStyle
  2

 70
     9
 71
     3
 72
     2
 73
     0
 90
        0
 40
-0.6
 41
-30.0
 62
     5
 63
     7
 74
     2
 91
        2
 64
     7
 65
   257
 75
     1
175
     1
 42
40.0
 92
        8
 66
     7
 43
1.0
 76
     1
 77
     6
 78
     2
 67
     7
 79
     3
170
     0
171
     0
290
     0
174
     0
 93
        1
 44
0.0
173
     0
291
     0
 45
0.0
1001
ACAD
1000
AcDbSavedByObjectVersion
1070
     0
1000
AcDbSavedByObjectVersion
1070
     0
  0
VISUALSTYLE
  5
1F
102
{ACAD_REACTORS
330
14
102
}
102
{ACAD_XDICTIONARY
360
8F1
102
}
330
14
100
AcDbVisualStyle
  2

 70
    11
 71
     2
 72
     2
 73
     0
 90
        0
 40
-0.6
 41
-30.0
 62
     5
 63
     7
 74
     1
 91
        4
 64
     7
 65
   257
 75
     1
175
     1
 42
1.0
 92
        8
 66
     7
 43
1.0
 76
     1
 77
     6
 78
     2
 67
     7
 79
     5
170
     0
171
     0
290
     0
174
     0
 93
        1
 44
-50.0
173
     0
291
     1
 45
0.0
1001
ACAD
1000
AcDbSavedByObjectVersion
1070
     0
1000
AcDbSavedByObjectVersion
1070
     0
  0
VISUALSTYLE
  5
43A
102
{ACAD_REACTORS
330
14
102
}
102
{ACAD_XDICTIONARY
360
8F3
102
}
330
14
100
AcDbVisualStyle
  2

 70
    22
 71
     2
 72
     2
 73
     0
 90
        0
 40
-0.6
 41
-30.0
 62
     5
 63
     7
 74
     1
 91
        4
 64
     7
 65
   257
 75
     1
175
     1
 42
1.0
 92
        8
 66
     7
 43
1.0
 76
     1
 77
     6
 78
     2
 67
     7
 79
     5
170
     0
171
     0
290
     0
174
     0
 93
        1
 44
0.0
173
     0
291
     1
 45
0.0
1001
ACAD
1000
AcDbSavedByObjectVersion
1070
     0
1000
AcDbSavedByObjectVersion
1070
     0
  0
VISUALSTYLE
  5
23
102
{ACAD_REACTORS
330
14
102
}
102
{ACAD_XDICTIONARY
360
8F5
102
}
330
14
100
AcDbVisualStyle
  2

 70
    15
 71
     2
 72
     2
 73
     0
 90
        0
 40
-0.6
 41
-30.0
 62
     5
 63
     7
 74
     1
 91
        4
 64
     7
 65
   257
 75
     1
175
     1
 42
1.0
 92
        8
 66
     7
 43
1.0
 76
     1
 77
     6
 78
     2
 67
     7
 79
     5
170
     0
171
     0
290
     0
174
     0
 93
        1
 44
0.0
173
     0
291
     1
 45
0.0
1001
ACAD
1000
AcDbSavedByObjectVersion
1070
     0
1000
AcDbSavedByObjectVersion
1070
     0
  0
VISUALSTYLE
  5
15
102
{ACAD_REACTORS
330
14
102
}
102
{ACAD_XDICTIONARY
360
8F7
102
}
330
14
100
AcDbVisualStyle
  2

 70
     0
 71
     2
 72
     1
 73
     1
 90
        2
 40
-0.6
 41
30.0
 62
     5
 63
     7
 74
     0
 91
        4
 64
     7
 65
   257
 75
     1
175
     1
 42
1.0
 92
        8
 66
     7
 43
1.0
 76
     1
 77
     6
 78
     2
 67
     7
 79
     5
170
     0
171
     0
290
     0
174
     0
 93
       13
 44
0.0
173
     0
291
     1
 45
0.0
1001
ACAD
1000
AcDbSavedByObjectVersion
1070
     0
1000
AcDbSavedByObjectVersion
1070
     0
  0
VISUALSTYLE
  5
16
102
{ACAD_REACTORS
330
14
102
}
102
{ACAD_XDICTIONARY
360
8F9
102
}
330
14
100
AcDbVisualStyle
  2

 70
     1
 71
     2
 72
     1
 73
     1
 90
        2
 40
-0.6
 41
30.0
 62
     5
 63
     7
 74
     1
 91
        4
 64
     7
 65
   257
 75
     1
175
     1
 42
1.0
 92
        0
 66
   257
 43
1.0
 76
     1
 77
     6
 78
     2
 67
     7
 79
     5
170
     0
171
     0
290
     0
174
     0
 93
       13
 44
0.0
173
     0
291
     1
 45
0.0
1001
ACAD
1000
AcDbSavedByObjectVersion
1070
     0
1000
AcDbSavedByObjectVersion
1070
     0
  0
VISUALSTYLE
  5
17
102
{ACAD_REACTORS
330
14
102
}
102
{ACAD_XDICTIONARY
360
8FB
102
}
330
14
100
AcDbVisualStyle
  2

 70
     2
 71
     2
 72
     2
 73
     1
 90
        2
 40
-0.6
 41
30.0
 62
     5
 63
     7
 74
     0
 91
        4
 64
     7
 65
   257
 75
     1
175
     1
 42
1.0
 92
        0
 66
     7
 43
1.0
 76
     1
 77
     6
 78
     2
 67
     7
 79
     5
170
     0
171
     0
290
     0
174
     0
 93
       13
 44
0.0
173
     0
291
     1
 45
0.0
1001
ACAD
1000
AcDbSavedByObjectVersion
1070
     0
1000
AcDbSavedByObjectVersion
1070
     0
  0
VISUALSTYLE
  5
18
102
{ACAD_REACTORS
330
14
102
}
102
{ACAD_XDICTIONARY
360
8FD
102
}
330
14
100
AcDbVisualStyle
  2

 70
     3
 71
     2
 72
     2
 73
     1
 90
        2
 40
-0.6
 41
30.0
 62
     5
 63
     7
 74
     1
 91
        4
 64
     7
 65
   257
 75
     1
175
     1
 42
1.0
 92
        0
 66
   257
 43
1.0
 76
     1
 77
     6
 78
     2
 67
     7
 79
     5
170
     0
171
     0
290
     0
174
     0
 93
       13
 44
0.0
173
     0
291
     1
 45
0.0
1001
ACAD
1000
AcDbSavedByObjectVersion
1070
     0
1000
AcDbSavedByObjectVersion
1070
     0
  0
VISUALSTYLE
  5
432
102
{ACAD_REACTORS
330
14
102
}
102
{ACAD_XDICTIONARY
360
8FF
102
}
330
14
100
AcDbVisualStyle
  2

 70
     6
 71
     1
 72
     2
 73
     2
 90
        0
 40
-0.6
 41
-30.0
 62
     5
 63
     7
 74
     2
 91
        2
 64
     7
 65
   257
 75
     2
175
     1
 42
40.0
 92
        0
 66
   257
 43
1.0
 76
     1
 77
     6
 78
     2
 67
     7
 79
     3
170
     0
171
     0
290
     0
174
     0
 93
        1
 44
0.0
173
     0
291
     0
 45
0.0
1001
ACAD
1000
AcDbSavedByObjectVersion
1070
     0
1000
AcDbSavedByObjectVersion
1070
     0
  0
VISUALSTYLE
  5
438
102
{ACAD_REACTORS
330
14
102
}
102
{ACAD_XDICTIONARY
360
901
102
}
330
14
100
AcDbVisualStyle
  2

 70
    20
 71
     2
 72
     2
 73
     0
 90
        0
 40
-0.6
 41
-30.0
 62
     5
 63
     7
 74
     1
 91
        4
 64
     7
 65
   257
 75
     1
175
     1
 42
1.0
 92
       10
 66
     7
 43
1.0
 76
     1
 77
     6
 78
     2
 67
     7
 79
     5
170
     0
171
     0
290
     0
174
     0
 93
        1
 44
0.0
173
     0
291
     1
 45
0.0
1001
ACAD
1000
AcDbSavedByObjectVersion
1070
     0
1000
AcDbSavedByObjectVersion
1070
     0
  0
VISUALSTYLE
  5
22
102
{ACAD_REACTORS
330
14
102
}
102
{ACAD_XDICTIONARY
360
903
102
}
330
14
100
AcDbVisualStyle
  2

 70
    14
 71
     2
 72
     2
 73
     0
 90
        0
 40
-0.6
 41
-30.0
 62
     5
 63
     7
 74
     1
 91
        4
 64
     7
 65
   257
 75
     7
175
     7
 42
1.0
 92
        8
 66
     7
 43
1.0
 76
     1
 77
     6
 78
     2
 67
     7
 79
     5
170
     0
171
     0
290
     0
174
     0
 93
        1
 44
0.0
173
     0
291
     1
 45
0.0
1001
ACAD
1000
AcDbSavedByObjectVersion
1070
     0
1000
AcDbSavedByObjectVersion
1070
     0
  0
VISUALSTYLE
  5
439
102
{ACAD_REACTORS
330
14
102
}
102
{ACAD_XDICTIONARY
360
905
102
}
330
14
100
AcDbVisualStyle
  2

 70
    21
 71
     2
 72
     2
 73
     0
 90
        0
 40
-0.6
 41
-30.0
 62
     5
 63
     7
 74
     1
 91
        4
 64
     7
 65
   257
 75
     1
175
     1
 42
1.0
 92
        9
 66
     7
 43
1.0
 76
     1
 77
     6
 78
     2
 67
     7
 79
     5
170
     0
171
     0
290
     0
174
     0
 93
        1
 44
0.0
173
     0
291
     1
 45
0.0
1001
ACAD
1000
AcDbSavedByObjectVersion
1070
     0
1000
AcDbSavedByObjectVersion
1070
     0
  0
VISUALSTYLE
  5
1E
102
{ACAD_REACTORS
330
14
102
}
102
{ACAD_XDICTIONARY
360
907
102
}
330
14
100
AcDbVisualStyle
  2

 70
     8
 71
     2
 72
     2
 73
     0
 90
        0
 40
-0.6
 41
-30.0
 62
     5
 63
     7
 74
     1
 91
        0
 64
     7
 65
   257
 75
     1
175
     1
 42
1.0
 92
        8
 66
     8
 43
1.0
 76
     1
 77
     6
 78
     2
 67
     7
 79
     5
170
     0
171
     0
290
     0
174
     0
 93
       13
 44
0.0
173
     0
291
     0
 45
0.0
1001
ACAD
1000
AcDbSavedByObjectVersion
1070
     0
1000
AcDbSavedByObjectVersion
1070
     0
  0
VISUALSTYLE
  5
437
102
{ACAD_REACTORS
330
14
102
}
102
{ACAD_XDICTIONARY
360
909
102
}
330
14
100
AcDbVisualStyle
  2

 70
    27
 71
     2
 72
     2
 73
     1
 90
        2
 40
-0.6
 41
30.0
 62
     5
 63
     7
 74
     0
 91
        4
 64
     7
 65
   257
 75
     1
175
     1
 42
1.0
 92
        8
 66
   257
 43
1.0
 76
     1
 77
     6
 78
     2
 67
     8
 79
     3
170
     0
171
     0
290
     0
174
     0
 93
        5
 44
0.0
173
     0
291
     0
 45
0.0
1001
ACAD
1000
AcDbSavedByObjectVersion
1070
     0
1000
AcDbSavedByObjectVersion
1070
     0
  0
VISUALSTYLE
  5
436
102
{ACAD_REACTORS
330
14
102
}
102
{ACAD_XDICTIONARY
360
90B
102
}
330
14
100
AcDbVisualStyle
  2

 70
    26
 71
     2
 72
     2
 73
     1
 90
        2
 40
-0.6
 41
30.0
 62
     5
 63
     7
 74
     1
 91
       10
 64
     7
 65
   257
 75
     2
175
     1
 42
1.0
 92
        8
 66
   257
 43
1.0
 76
     1
 77
     6
 78
     2
 67
     7
 79
     3
170
     0
171
     0
290
     0
174
     0
 93
        5
 44
0.0
173
     0
291
     0
 45
0.0
1001
ACAD
1000
AcDbSavedByObjectVersion
1070
     0
1000
AcDbSavedByObjectVersion
1070
     0
  0
VISUALSTYLE
  5
433
102
{ACAD_REACTORS
330
14
102
}
102
{ACAD_XDICTIONARY
360
90D
102
}
330
14
100
AcDbVisualStyle
  2

 70
    23
 71
     2
 72
     2
 73
     3
 90
        0
 40
-0.6
 41
-30.0
 62
     5
 63
     7
 74
     2
 91
        2
 64
     7
 65
     7
 75
     1
175
     1
 42
40.0
 92
        8
 66
     7
 43
1.0
 76
     1
 77
     6
 78
     2
 67
     7
 79
     3
170
     0
171
     0
290
     0
174
     0
 93
        1
 44
0.0
173
     0
291
     0
 45
0.0
1001
ACAD
1000
AcDbSavedByObjectVersion
1070
     0
1000
AcDbSavedByObjectVersion
1070
     0
  0
VISUALSTYLE
  5
434
102
{ACAD_REACTORS
330
14
102
}
102
{ACAD_XDICTIONARY
360
90F
102
}
330
14
100
AcDbVisualStyle
  2

 70
    24
 71
     1
 72
     2
 73
     2
 90
        0
 40
-0.6
 41
-30.0
 62
     5
 63
     7
 74
     2
 91
        2
 64
     7
 65
     7
 75
     1
175
     1
 42
40.0
 92
       11
 66
     7
 43
1.0
 76
     1
 77
     6
 78
     2
 67
     7
 79
     6
170
     0
171
     0
290
     0
174
     0
 93
        1
 44
0.0
173
     0
291
     0
 45
0.0
1001
ACAD
1000
AcDbSavedByObjectVersion
1070
     0
1000
AcDbSavedByObjectVersion
1070
     0
  0
VISUALSTYLE
  5
21
102
{ACAD_REACTORS
330
14
102
}
102
{ACAD_XDICTIONARY
360
911
102
}
330
14
100
AcDbVisualStyle
  2

 70
    13
 71
     2
 72
     2
 73
     0
 90
        0
 40
-0.6
 41
-30.0
 62
     5
 63
     7
 74
     1
 91
        4
 64
     7
 65
   257
 75
     1
175
     1
 42
1.0
 92
       12
 66
     7
 43
1.0
 76
     1
 77
     6
 78
     2
 67
     7
 79
     5
170
     0
171
     0
290
     0
174
     0
 93
        1
 44
0.0
173
     0
291
     1
 45
0.0
1001
ACAD
1000
AcDbSavedByObjectVersion
1070
     0
1000
AcDbSavedByObjectVersion
1070
     0
  0
VISUALSTYLE
  5
431
102
{ACAD_REACTORS
330
14
102
}
102
{ACAD_XDICTIONARY
360
913
102
}
330
14
100
AcDbVisualStyle
  2

 70
     5
 71
     0
 72
     2
 73
     0
 90
        0
 40
-0.6
 41
-30.0
 62
     5
 63
     7
 74
     1
 91
        4
 64
     7
 65
   257
 75
     1
175
     1
 42
1.0
 92
        0
 66
   257
 43
1.0
 76
     1
 77
     6
 78
     2
 67
     7
 79
     3
170
     0
171
     0
290
     0
174
     0
 93
        1
 44
0.0
173
     0
291
     0
 45
0.0
1001
ACAD
1000
AcDbSavedByObjectVersion
1070
     0
1000
AcDbSavedByObjectVersion
1070
     0
  0
VISUALSTYLE
  5
435
102
{ACAD_REACTORS
330
14
102
}
102
{ACAD_XDICTIONARY
360
915
102
}
330
14
100
AcDbVisualStyle
  2

 70
    25
 71
     2
 72
     2
 73
     1
 90
        1
 40
0.5
 41
-30.0
 62
     5
 63
     7
 74
     1
 91
        0
 64
     7
 65
   257
 75
     1
175
     1
 42
1.0
 92
        8
 66
     7
 43
1.0
 76
     1
 77
     6
 78
     2
 67
     7
 79
     3
170
     0
171
     0
290
     0
174
     0
 93
       13
 44
0.0
173
     0
291
     0
 45
0.0
1001
ACAD
1000
AcDbSavedByObjectVersion
1070
     0
1000
AcDbSavedByObjectVersion
1070
     0
  0
XRECORD
  5
8D5
102
{ACAD_REACTORS
330
8D4
102
}
330
8D4
100
AcDbXrecord
280
     1
340
2F
  0
XRECORD
  5
8D6
102
{ACAD_REACTORS
330
8D4
102
}
330
8D4
100
AcDbXrecord
280
     1
340
10
  0
DICTIONARYVAR
  5
8DA
102
{ACAD_REACTORS
330
407
102
}
330
407
100
DictionaryVariables
280
     0
  1
1:1
  0
DICTIONARYVAR
  5
456
102
{ACAD_REACTORS
330
407
102
}
330
407
100
DictionaryVariables
280
     0
  1
Standard
  0
DICTIONARYVAR
  5
408
102
{ACAD_REACTORS
330
407
102
}
330
407
100
DictionaryVariables
280
     0
  1
Standard
  0
DICTIONARYVAR
  5
45B
102
{ACAD_REACTORS
330
407
102
}
330
407
100
DictionaryVariables
280
     0
  1
1
  0
DICTIONARYVAR
  5
893
102
{ACAD_REACTORS
330
407
102
}
330
407
100
DictionaryVariables
280
     0
  1
0
  0
DICTIONARYVAR
  5
459
102
{ACAD_REACTORS
330
407
102
}
330
407
100
DictionaryVariables
280
     0
  1
0
  0
DICTIONARYVAR
  5
892
102
{ACAD_REACTORS
330
407
102
}
330
407
100
DictionaryVariables
280
     0
  1
0
  0
DICTIONARYVAR
  5
458
102
{ACAD_REACTORS
330
407
102
}
330
407
100
DictionaryVariables
280
     0
  1
127
  0
DICTIONARYVAR
  5
731
102
{ACAD_REACTORS
330
407
102
}
330
407
100
DictionaryVariables
280
     0
  1
0
  0
DICTIONARY
  5
8DB
330
12
100
AcDbDictionary
280
     1
281
     1
  3
ACAD_XREC_ROUNDTRIP
360
8DC
  0
DICTIONARY
  5
8DD
330
11
100
AcDbDictionary
280
     1
281
     1
  3
ACAD_XREC_ROUNDTRIP
360
8DE
  0
DICTIONARY
  5
8DF
330
13
100
AcDbDictionary
280
     1
281
     1
  3
ACAD_XREC_ROUNDTRIP
360
8E0
  0
DICTIONARY
  5
8E1
330
44E
100
AcDbDictionary
280
     1
281
     1
  3
ACAD_XREC_ROUNDTRIP
360
8E2
  0
DICTIONARY
  5
8E3
330
1A
100
AcDbDictionary
280
     1
281
     1
  3
ACAD_XREC_ROUNDTRIP
360
8E4
  0
DICTIONARY
  5
8E5
330
1C
100
AcDbDictionary
280
     1
281
     1
  3
ACAD_XREC_ROUNDTRIP
360
8E6
  0
DICTIONARY
  5
8E7
330
1B
100
AcDbDictionary
280
     1
281
     1
  3
ACAD_XREC_ROUNDTRIP
360
8E8
  0
DICTIONARY
  5
8E9
330
19
100
AcDbDictionary
280
     1
281
     1
  3
ACAD_XREC_ROUNDTRIP
360
8EA
  0
DICTIONARY
  5
8EB
330
20
100
AcDbDictionary
280
     1
281
     1
  3
ACAD_XREC_ROUNDTRIP
360
8EC
  0
DICTIONARY
  5
8ED
330
24
100
AcDbDictionary
280
     1
281
     1
  3
ACAD_XREC_ROUNDTRIP
360
8EE
  0
DICTIONARY
  5
8EF
330
1D
100
AcDbDictionary
280
     1
281
     1
  3
ACAD_XREC_ROUNDTRIP
360
8F0
  0
DICTIONARY
  5
8F1
330
1F
100
AcDbDictionary
280
     1
281
     1
  3
ACAD_XREC_ROUNDTRIP
360
8F2
  0
DICTIONARY
  5
8F3
330
43A
100
AcDbDictionary
280
     1
281
     1
  3
ACAD_XREC_ROUNDTRIP
360
8F4
  0
DICTIONARY
  5
8F5
330
23
100
AcDbDictionary
280
     1
281
     1
  3
ACAD_XREC_ROUNDTRIP
360
8F6
  0
DICTIONARY
  5
8F7
330
15
100
AcDbDictionary
280
     1
281
     1
  3
ACAD_XREC_ROUNDTRIP
360
8F8
  0
DICTIONARY
  5
8F9
330
16
100
AcDbDictionary
280
     1
281
     1
  3
ACAD_XREC_ROUNDTRIP
360
8FA
  0
DICTIONARY
  5
8FB
330
17
100
AcDbDictionary
280
     1
281
     1
  3
ACAD_XREC_ROUNDTRIP
360
8FC
  0
DICTIONARY
  5
8FD
330
18
100
AcDbDictionary
280
     1
281
     1
  3
ACAD_XREC_ROUNDTRIP
360
8FE
  0
DICTIONARY
  5
8FF
330
432
100
AcDbDictionary
280
     1
281
     1
  3
ACAD_XREC_ROUNDTRIP
360
900
  0
DICTIONARY
  5
901
330
438
100
AcDbDictionary
280
     1
281
     1
  3
ACAD_XREC_ROUNDTRIP
360
902
  0
DICTIONARY
  5
903
330
22
100
AcDbDictionary
280
     1
281
     1
  3
ACAD_XREC_ROUNDTRIP
360
904
  0
DICTIONARY
  5
905
330
439
100
AcDbDictionary
280
     1
281
     1
  3
ACAD_XREC_ROUNDTRIP
360
906
  0
DICTIONARY
  5
907
330
1E
100
AcDbDictionary
280
     1
281
     1
  3
ACAD_XREC_ROUNDTRIP
360
908
  0
DICTIONARY
  5
909
330
437
100
AcDbDictionary
280
     1
281
     1
  3
ACAD_XREC_ROUNDTRIP
360
90A
  0
DICTIONARY
  5
90B
330
436
100
AcDbDictionary
280
     1
281
     1
  3
ACAD_XREC_ROUNDTRIP
360
90C
  0
DICTIONARY
  5
90D
330
433
100
AcDbDictionary
280
     1
281
     1
  3
ACAD_XREC_ROUNDTRIP
360
90E
  0
DICTIONARY
  5
90F
330
434
100
AcDbDictionary
280
     1
281
     1
  3
ACAD_XREC_ROUNDTRIP
360
910
  0
DICTIONARY
  5
911
330
21
100
AcDbDictionary
280
     1
281
     1
  3
ACAD_XREC_ROUNDTRIP
360
912
  0
DICTIONARY
  5
913
330
431
100
AcDbDictionary
280
     1
281
     1
  3
ACAD_XREC_ROUNDTRIP
360
914
  0
DICTIONARY
  5
915
330
435
100
AcDbDictionary
280
     1
281
     1
  3
ACAD_XREC_ROUNDTRIP
360
916
  0
XRECORD
  5
8DC
102
{ACAD_REACTORS
330
8DB
102
}
330
8DB
100
AcDbXrecord
280
     1
102
MATERIAL
148
0.0
149
0.0
149
0.0
 93
        0
 94
      127
282
     0
 72
     1
 77
     1
171
     1
175
     1
179
     1
273
     0
  0
XRECORD
  5
8DE
102
{ACAD_REACTORS
330
8DD
102
}
330
8DD
100
AcDbXrecord
280
     1
102
MATERIAL
148
0.0
149
0.0
149
0.0
 93
        0
 94
      127
282
     0
 72
     1
 77
     1
171
     1
175
     1
179
     1
273
     0
  0
XRECORD
  5
8E0
102
{ACAD_REACTORS
330
8DF
102
}
330
8DF
100
AcDbXrecord
280
     1
102
MATERIAL
148
0.0
149
0.0
149
0.0
 93
        0
 94
      127
282
     0
 72
     1
 77
     1
171
     1
175
     1
179
     1
273
     0
  0
XRECORD
  5
8E2
102
{ACAD_REACTORS
330
8E1
102
}
330
8E1
100
AcDbXrecord
280
     1
102
ACAD_ROUNDTRIP_2010_MLEADER_STYLE
  0
XRECORD
  5
8E4
102
{ACAD_REACTORS
330
8E3
102
}
330
8E3
100
AcDbXrecord
280
     1
102
RTVSPropertyOp0
 70
     1
102
RTVSPropertyOp1
 70
     1
102
RTVSPropertyOp2
 70
     1
102
RTVSPropertyOp3
 70
     1
102
RTVSPropertyOp4
 70
     1
102
RTVSPropertyOp5
 70
     1
102
RTVSPropertyOp6
 70
     1
102
RTVSPropertyOp7
 70
     1
102
RTVSPropertyOp8
 70
     1
102
RTVSPropertyOp9
 70
     1
102
RTVSPropertyOp10
 70
     1
102
RTVSPropertyOp11
 70
     1
102
RTVSPropertyOp12
 70
     1
102
RTVSPropertyOp13
 70
     1
102
RTVSPropertyOp14
 70
     1
102
RTVSPropertyOp15
 70
     1
102
RTVSPropertyOp16
 70
     1
102
RTVSPropertyOp17
 70
     1
102
RTVSPropertyOp18
 70
     1
102
RTVSPropertyOp19
 70
     1
102
RTVSPropertyOp20
 70
     1
102
RTVSPropertyOp21
 70
     1
102
RTVSPropertyOp22
 70
     1
102
RTVSPropertyOp23
 70
     1
102
RTVSPropertyOp24
 70
     1
102
RTVSPropertyOp25
 70
     1
102
RTVSPropertyOp26
 70
     1
102
RTVSPropertyOp27
 70
     1
102
RTVSPropertyOp28
 70
     1
102
RTVSPropertyOp29
 70
     1
102
RTVSPropertyOp30
 70
     1
102
RTVSPropertyOp31
 70
     1
102
RTVSPropertyOp32
 70
     1
102
RTVSPropertyOp33
 70
     1
102
RTVSPropertyOp34
 70
     1
102
RTVSPropertyOp35
 70
     1
102
RTVSPropertyOp36
 70
     1
102
RTVSPropertyOp37
 70
     1
102
RTVSPropertyOp38
 70
     1
102
RTVSPropertyOp39
 70
     1
102
RTVSPropertyOp40
 70
     1
102
RTVSPropertyOp41
 70
     1
102
RTVSPropertyOp42
 70
     1
102
RTVSPropertyOp43
 70
     1
102
RTVSPropertyOp44
 70
     1
102
RTVSPropertyOp45
 70
     1
102
RTVSPropertyOp46
 70
     1
102
RTVSPropertyOp47
 70
     1
102
RTVSPropertyOp48
 70
     1
102
RTVSPropertyOp49
 70
     1
102
RTVSPropertyOp50
 70
     1
102
RTVSPropertyOp51
 70
     0
102
RTVSPropertyOp52
 70
     0
102
RTVSPropertyOp53
 70
     1
102
RTVSPropertyOp54
 70
     1
102
RTVSPropertyOp55
 70
     1
102
RTVSPropertyOp56
 70
     1
102
RTVSPropertyOp57
 70
     1
102
RTVSPost2010Prop28
280
     1
102
RTVSPost2010PropOp28
 70
     1
102
RTVSPost2010Prop29
280
     1
102
RTVSPost2010PropOp29
 70
     1
102
RTVSPost2010Prop30
280
     0
102
RTVSPost2010PropOp30
 70
     1
102
RTVSPost2010Prop31
280
     0
102
RTVSPost2010PropOp31
 70
     1
102
RTVSPost2010Prop32
280
     0
102
RTVSPost2010PropOp32
 70
     1
102
RTVSPost2010Prop33
280
     0
102
RTVSPost2010PropOp33
 70
     1
102
RTVSPost2010Prop34
280
     0
102
RTVSPost2010PropOp34
 70
     1
102
RTVSPost2010Prop35
280
     0
102
RTVSPost2010PropOp35
 70
     1
102
RTVSPost2010Prop36
280
     0
102
RTVSPost2010PropOp36
 70
     1
102
RTVSPost2010Prop37
 90
       50
102
RTVSPost2010PropOp37
 70
     1
102
RTVSPost2010Prop38
140
0.0
102
RTVSPost2010PropOp38
 70
     1
102
RTVSPost2010Prop39
140
1.0
102
RTVSPost2010PropOp39
 70
     1
102
RTVSPost2010Prop40
 90
        0
102
RTVSPost2010PropOp40
 70
     1
102
RTVSPost2010Prop41ColorIndex
 90
       18
102
RTVSPost2010Prop41ColorRGB
 90
        0
102
RTVSPost2010PropOp41
 70
     1
102
RTVSPost2010Prop42
 90
       50
102
RTVSPost2010PropOp42
 70
     1
102
RTVSPost2010Prop43
 90
        3
102
RTVSPost2010PropOp43
 70
     1
102
RTVSPost2010Prop44ColorIndex
 90
        5
102
RTVSPost2010Prop44ColorRGB
 90
      255
102
RTVSPost2010PropOp44
 70
     1
102
RTVSPost2010Prop45
280
     0
102
RTVSPost2010PropOp45
 70
     1
102
RTVSPost2010Prop46
 90
       50
102
RTVSPost2010PropOp46
 70
     1
102
RTVSPost2010Prop47
 90
       50
102
RTVSPost2010PropOp47
 70
     1
102
RTVSPost2010Prop48
 90
       50
102
RTVSPost2010PropOp48
 70
     1
102
RTVSPost2010Prop49
280
     0
102
RTVSPost2010PropOp49
 70
     1
102
RTVSPost2010Prop50
 90
       50
102
RTVSPost2010PropOp50
 70
     1
102
RTVSPost2010Prop51ColorIndex
 90
      256
102
RTVSPost2010Prop51ColorRGB
 90
-16777216
102
RTVSPost2010PropOp51
 70
     0
102
RTVSPost2010Prop52
140
1.0
102
RTVSPost2010PropOp52
 70
     0
102
RTVSPost2010Prop53
 90
        2
102
RTVSPost2010PropOp53
 70
     1
102
RTVSPost2010Prop54
  1
strokes_ogs.tif
102
RTVSPost2010PropOp54
 70
     1
102
RTVSPost2010Prop55
280
     0
102
RTVSPost2010PropOp55
 70
     1
102
RTVSPost2010Prop56
140
1.0
102
RTVSPost2010PropOp56
 70
     1
102
RTVSPost2010Prop57
140
1.0
102
RTVSPost2010PropOp57
 70
     1
  0
XRECORD
  5
8E6
102
{ACAD_REACTORS
330
8E5
102
}
330
8E5
100
AcDbXrecord
280
     1
102
RTVSPropertyOp0
 70
     1
102
RTVSPropertyOp1
 70
     1
102
RTVSPropertyOp2
 70
     1
102
RTVSPropertyOp3
 70
     1
102
RTVSPropertyOp4
 70
     1
102
RTVSPropertyOp5
 70
     1
102
RTVSPropertyOp6
 70
     1
102
RTVSPropertyOp7
 70
     1
102
RTVSPropertyOp8
 70
     1
102
RTVSPropertyOp9
 70
     1
102
RTVSPropertyOp10
 70
     1
102
RTVSPropertyOp11
 70
     1
102
RTVSPropertyOp12
 70
     1
102
RTVSPropertyOp13
 70
     1
102
RTVSPropertyOp14
 70
     1
102
RTVSPropertyOp15
 70
     1
102
RTVSPropertyOp16
 70
     1
102
RTVSPropertyOp17
 70
     1
102
RTVSPropertyOp18
 70
     1
102
RTVSPropertyOp19
 70
     1
102
RTVSPropertyOp20
 70
     1
102
RTVSPropertyOp21
 70
     1
102
RTVSPropertyOp22
 70
     1
102
RTVSPropertyOp23
 70
     1
102
RTVSPropertyOp24
 70
     1
102
RTVSPropertyOp25
 70
     1
102
RTVSPropertyOp26
 70
     1
102
RTVSPropertyOp27
 70
     1
102
RTVSPropertyOp28
 70
     1
102
RTVSPropertyOp29
 70
     1
102
RTVSPropertyOp30
 70
     1
102
RTVSPropertyOp31
 70
     1
102
RTVSPropertyOp32
 70
     1
102
RTVSPropertyOp33
 70
     1
102
RTVSPropertyOp34
 70
     1
102
RTVSPropertyOp35
 70
     1
102
RTVSPropertyOp36
 70
     1
102
RTVSPropertyOp37
 70
     1
102
RTVSPropertyOp38
 70
     1
102
RTVSPropertyOp39
 70
     1
102
RTVSPropertyOp40
 70
     1
102
RTVSPropertyOp41
 70
     1
102
RTVSPropertyOp42
 70
     1
102
RTVSPropertyOp43
 70
     1
102
RTVSPropertyOp44
 70
     1
102
RTVSPropertyOp45
 70
     1
102
RTVSPropertyOp46
 70
     1
102
RTVSPropertyOp47
 70
     1
102
RTVSPropertyOp48
 70
     1
102
RTVSPropertyOp49
 70
     1
102
RTVSPropertyOp50
 70
     1
102
RTVSPropertyOp51
 70
     0
102
RTVSPropertyOp52
 70
     0
102
RTVSPropertyOp53
 70
     1
102
RTVSPropertyOp54
 70
     1
102
RTVSPropertyOp55
 70
     1
102
RTVSPropertyOp56
 70
     1
102
RTVSPropertyOp57
 70
     1
102
RTVSPost2010Prop28
280
     0
102
RTVSPost2010PropOp28
 70
     1
102
RTVSPost2010Prop29
280
     1
102
RTVSPost2010PropOp29
 70
     1
102
RTVSPost2010Prop30
280
     1
102
RTVSPost2010PropOp30
 70
     1
102
RTVSPost2010Prop31
280
     0
102
RTVSPost2010PropOp31
 70
     1
102
RTVSPost2010Prop32
280
     0
102
RTVSPost2010PropOp32
 70
     1
102
RTVSPost2010Prop33
280
     0
102
RTVSPost2010PropOp33
 70
     1
102
RTVSPost2010Prop34
280
     0
102
RTVSPost2010PropOp34
 70
     1
102
RTVSPost2010Prop35
280
     0
102
RTVSPost2010PropOp35
 70
     1
102
RTVSPost2010Prop36
280
     0
102
RTVSPost2010PropOp36
 70
     1
102
RTVSPost2010Prop37
 90
       50
102
RTVSPost2010PropOp37
 70
     1
102
RTVSPost2010Prop38
140
0.0
102
RTVSPost2010PropOp38
 70
     1
102
RTVSPost2010Prop39
140
1.0
102
RTVSPost2010PropOp39
 70
     1
102
RTVSPost2010Prop40
 90
        0
102
RTVSPost2010PropOp40
 70
     1
102
RTVSPost2010Prop41ColorIndex
 90
       18
102
RTVSPost2010Prop41ColorRGB
 90
        0
102
RTVSPost2010PropOp41
 70
     1
102
RTVSPost2010Prop42
 90
       50
102
RTVSPost2010PropOp42
 70
     1
102
RTVSPost2010Prop43
 90
        3
102
RTVSPost2010PropOp43
 70
     1
102
RTVSPost2010Prop44ColorIndex
 90
        5
102
RTVSPost2010Prop44ColorRGB
 90
      255
102
RTVSPost2010PropOp44
 70
     1
102
RTVSPost2010Prop45
280
     0
102
RTVSPost2010PropOp45
 70
     1
102
RTVSPost2010Prop46
 90
       50
102
RTVSPost2010PropOp46
 70
     1
102
RTVSPost2010Prop47
 90
       50
102
RTVSPost2010PropOp47
 70
     1
102
RTVSPost2010Prop48
 90
       50
102
RTVSPost2010PropOp48
 70
     1
102
RTVSPost2010Prop49
280
     0
102
RTVSPost2010PropOp49
 70
     1
102
RTVSPost2010Prop50
 90
       50
102
RTVSPost2010PropOp50
 70
     1
102
RTVSPost2010Prop51ColorIndex
 90
      256
102
RTVSPost2010Prop51ColorRGB
 90
-16777216
102
RTVSPost2010PropOp51
 70
     0
102
RTVSPost2010Prop52
140
1.0
102
RTVSPost2010PropOp52
 70
     0
102
RTVSPost2010Prop53
 90
        2
102
RTVSPost2010PropOp53
 70
     1
102
RTVSPost2010Prop54
  1
strokes_ogs.tif
102
RTVSPost2010PropOp54
 70
     1
102
RTVSPost2010Prop55
280
     0
102
RTVSPost2010PropOp55
 70
     1
102
RTVSPost2010Prop56
140
1.0
102
RTVSPost2010PropOp56
 70
     1
102
RTVSPost2010Prop57
140
1.0
102
RTVSPost2010PropOp57
 70
     1
  0
XRECORD
  5
8E8
102
{ACAD_REACTORS
330
8E7
102
}
330
8E7
100
AcDbXrecord
280
     1
102
RTVSPropertyOp0
 70
     1
102
RTVSPropertyOp1
 70
     1
102
RTVSPropertyOp2
 70
     1
102
RTVSPropertyOp3
 70
     1
102
RTVSPropertyOp4
 70
     1
102
RTVSPropertyOp5
 70
     1
102
RTVSPropertyOp6
 70
     1
102
RTVSPropertyOp7
 70
     1
102
RTVSPropertyOp8
 70
     1
102
RTVSPropertyOp9
 70
     1
102
RTVSPropertyOp10
 70
     1
102
RTVSPropertyOp11
 70
     1
102
RTVSPropertyOp12
 70
     1
102
RTVSPropertyOp13
 70
     1
102
RTVSPropertyOp14
 70
     1
102
RTVSPropertyOp15
 70
     1
102
RTVSPropertyOp16
 70
     1
102
RTVSPropertyOp17
 70
     1
102
RTVSPropertyOp18
 70
     1
102
RTVSPropertyOp19
 70
     1
102
RTVSPropertyOp20
 70
     1
102
RTVSPropertyOp21
 70
     1
102
RTVSPropertyOp22
 70
     1
102
RTVSPropertyOp23
 70
     1
102
RTVSPropertyOp24
 70
     1
102
RTVSPropertyOp25
 70
     1
102
RTVSPropertyOp26
 70
     1
102
RTVSPropertyOp27
 70
     1
102
RTVSPropertyOp28
 70
     1
102
RTVSPropertyOp29
 70
     1
102
RTVSPropertyOp30
 70
     1
102
RTVSPropertyOp31
 70
     1
102
RTVSPropertyOp32
 70
     1
102
RTVSPropertyOp33
 70
     1
102
RTVSPropertyOp34
 70
     1
102
RTVSPropertyOp35
 70
     1
102
RTVSPropertyOp36
 70
     1
102
RTVSPropertyOp37
 70
     1
102
RTVSPropertyOp38
 70
     1
102
RTVSPropertyOp39
 70
     1
102
RTVSPropertyOp40
 70
     1
102
RTVSPropertyOp41
 70
     1
102
RTVSPropertyOp42
 70
     1
102
RTVSPropertyOp43
 70
     1
102
RTVSPropertyOp44
 70
     1
102
RTVSPropertyOp45
 70
     1
102
RTVSPropertyOp46
 70
     1
102
RTVSPropertyOp47
 70
     1
102
RTVSPropertyOp48
 70
     1
102
RTVSPropertyOp49
 70
     1
102
RTVSPropertyOp50
 70
     1
102
RTVSPropertyOp51
 70
     0
102
RTVSPropertyOp52
 70
     0
102
RTVSPropertyOp53
 70
     1
102
RTVSPropertyOp54
 70
     1
102
RTVSPropertyOp55
 70
     1
102
RTVSPropertyOp56
 70
     1
102
RTVSPropertyOp57
 70
     1
102
RTVSPost2010Prop28
280
     0
102
RTVSPost2010PropOp28
 70
     1
102
RTVSPost2010Prop29
280
     1
102
RTVSPost2010PropOp29
 70
     1
102
RTVSPost2010Prop30
280
     1
102
RTVSPost2010PropOp30
 70
     1
102
RTVSPost2010Prop31
280
     0
102
RTVSPost2010PropOp31
 70
     1
102
RTVSPost2010Prop32
280
     0
102
RTVSPost2010PropOp32
 70
     1
102
RTVSPost2010Prop33
280
     0
102
RTVSPost2010PropOp33
 70
     1
102
RTVSPost2010Prop34
280
     0
102
RTVSPost2010PropOp34
 70
     1
102
RTVSPost2010Prop35
280
     0
102
RTVSPost2010PropOp35
 70
     1
102
RTVSPost2010Prop36
280
     0
102
RTVSPost2010PropOp36
 70
     1
102
RTVSPost2010Prop37
 90
       50
102
RTVSPost2010PropOp37
 70
     1
102
RTVSPost2010Prop38
140
0.0
102
RTVSPost2010PropOp38
 70
     1
102
RTVSPost2010Prop39
140
1.0
102
RTVSPost2010PropOp39
 70
     1
102
RTVSPost2010Prop40
 90
        0
102
RTVSPost2010PropOp40
 70
     1
102
RTVSPost2010Prop41ColorIndex
 90
       18
102
RTVSPost2010Prop41ColorRGB
 90
        0
102
RTVSPost2010PropOp41
 70
     1
102
RTVSPost2010Prop42
 90
       50
102
RTVSPost2010PropOp42
 70
     1
102
RTVSPost2010Prop43
 90
        3
102
RTVSPost2010PropOp43
 70
     1
102
RTVSPost2010Prop44ColorIndex
 90
        5
102
RTVSPost2010Prop44ColorRGB
 90
      255
102
RTVSPost2010PropOp44
 70
     1
102
RTVSPost2010Prop45
280
     0
102
RTVSPost2010PropOp45
 70
     1
102
RTVSPost2010Prop46
 90
       50
102
RTVSPost2010PropOp46
 70
     1
102
RTVSPost2010Prop47
 90
       50
102
RTVSPost2010PropOp47
 70
     1
102
RTVSPost2010Prop48
 90
       50
102
RTVSPost2010PropOp48
 70
     1
102
RTVSPost2010Prop49
280
     0
102
RTVSPost2010PropOp49
 70
     1
102
RTVSPost2010Prop50
 90
       50
102
RTVSPost2010PropOp50
 70
     1
102
RTVSPost2010Prop51ColorIndex
 90
      256
102
RTVSPost2010Prop51ColorRGB
 90
-16777216
102
RTVSPost2010PropOp51
 70
     0
102
RTVSPost2010Prop52
140
1.0
102
RTVSPost2010PropOp52
 70
     0
102
RTVSPost2010Prop53
 90
        2
102
RTVSPost2010PropOp53
 70
     1
102
RTVSPost2010Prop54
  1
strokes_ogs.tif
102
RTVSPost2010PropOp54
 70
     1
102
RTVSPost2010Prop55
280
     0
102
RTVSPost2010PropOp55
 70
     1
102
RTVSPost2010Prop56
140
1.0
102
RTVSPost2010PropOp56
 70
     1
102
RTVSPost2010Prop57
140
1.0
102
RTVSPost2010PropOp57
 70
     1
  0
XRECORD
  5
8EA
102
{ACAD_REACTORS
330
8E9
102
}
330
8E9
100
AcDbXrecord
280
     1
102
RTVSPropertyOp0
 70
     1
102
RTVSPropertyOp1
 70
     1
102
RTVSPropertyOp2
 70
     1
102
RTVSPropertyOp3
 70
     1
102
RTVSPropertyOp4
 70
     1
102
RTVSPropertyOp5
 70
     1
102
RTVSPropertyOp6
 70
     1
102
RTVSPropertyOp7
 70
     1
102
RTVSPropertyOp8
 70
     1
102
RTVSPropertyOp9
 70
     1
102
RTVSPropertyOp10
 70
     1
102
RTVSPropertyOp11
 70
     1
102
RTVSPropertyOp12
 70
     1
102
RTVSPropertyOp13
 70
     1
102
RTVSPropertyOp14
 70
     1
102
RTVSPropertyOp15
 70
     1
102
RTVSPropertyOp16
 70
     1
102
RTVSPropertyOp17
 70
     1
102
RTVSPropertyOp18
 70
     1
102
RTVSPropertyOp19
 70
     1
102
RTVSPropertyOp20
 70
     1
102
RTVSPropertyOp21
 70
     1
102
RTVSPropertyOp22
 70
     1
102
RTVSPropertyOp23
 70
     1
102
RTVSPropertyOp24
 70
     1
102
RTVSPropertyOp25
 70
     1
102
RTVSPropertyOp26
 70
     1
102
RTVSPropertyOp27
 70
     1
102
RTVSPropertyOp28
 70
     1
102
RTVSPropertyOp29
 70
     1
102
RTVSPropertyOp30
 70
     1
102
RTVSPropertyOp31
 70
     1
102
RTVSPropertyOp32
 70
     1
102
RTVSPropertyOp33
 70
     1
102
RTVSPropertyOp34
 70
     1
102
RTVSPropertyOp35
 70
     1
102
RTVSPropertyOp36
 70
     1
102
RTVSPropertyOp37
 70
     1
102
RTVSPropertyOp38
 70
     1
102
RTVSPropertyOp39
 70
     1
102
RTVSPropertyOp40
 70
     1
102
RTVSPropertyOp41
 70
     1
102
RTVSPropertyOp42
 70
     1
102
RTVSPropertyOp43
 70
     1
102
RTVSPropertyOp44
 70
     1
102
RTVSPropertyOp45
 70
     1
102
RTVSPropertyOp46
 70
     1
102
RTVSPropertyOp47
 70
     1
102
RTVSPropertyOp48
 70
     1
102
RTVSPropertyOp49
 70
     1
102
RTVSPropertyOp50
 70
     1
102
RTVSPropertyOp51
 70
     0
102
RTVSPropertyOp52
 70
     0
102
RTVSPropertyOp53
 70
     1
102
RTVSPropertyOp54
 70
     1
102
RTVSPropertyOp55
 70
     1
102
RTVSPropertyOp56
 70
     1
102
RTVSPropertyOp57
 70
     1
102
RTVSPost2010Prop28
280
     0
102
RTVSPost2010PropOp28
 70
     1
102
RTVSPost2010Prop29
280
     1
102
RTVSPost2010PropOp29
 70
     1
102
RTVSPost2010Prop30
280
     1
102
RTVSPost2010PropOp30
 70
     1
102
RTVSPost2010Prop31
280
     0
102
RTVSPost2010PropOp31
 70
     1
102
RTVSPost2010Prop32
280
     0
102
RTVSPost2010PropOp32
 70
     1
102
RTVSPost2010Prop33
280
     0
102
RTVSPost2010PropOp33
 70
     1
102
RTVSPost2010Prop34
280
     0
102
RTVSPost2010PropOp34
 70
     1
102
RTVSPost2010Prop35
280
     0
102
RTVSPost2010PropOp35
 70
     1
102
RTVSPost2010Prop36
280
     0
102
RTVSPost2010PropOp36
 70
     1
102
RTVSPost2010Prop37
 90
       50
102
RTVSPost2010PropOp37
 70
     1
102
RTVSPost2010Prop38
140
0.0
102
RTVSPost2010PropOp38
 70
     1
102
RTVSPost2010Prop39
140
1.0
102
RTVSPost2010PropOp39
 70
     1
102
RTVSPost2010Prop40
 90
        0
102
RTVSPost2010PropOp40
 70
     1
102
RTVSPost2010Prop41ColorIndex
 90
       18
102
RTVSPost2010Prop41ColorRGB
 90
        0
102
RTVSPost2010PropOp41
 70
     1
102
RTVSPost2010Prop42
 90
       50
102
RTVSPost2010PropOp42
 70
     1
102
RTVSPost2010Prop43
 90
        3
102
RTVSPost2010PropOp43
 70
     1
102
RTVSPost2010Prop44ColorIndex
 90
        5
102
RTVSPost2010Prop44ColorRGB
 90
      255
102
RTVSPost2010PropOp44
 70
     1
102
RTVSPost2010Prop45
280
     0
102
RTVSPost2010PropOp45
 70
     1
102
RTVSPost2010Prop46
 90
       50
102
RTVSPost2010PropOp46
 70
     1
102
RTVSPost2010Prop47
 90
       50
102
RTVSPost2010PropOp47
 70
     1
102
RTVSPost2010Prop48
 90
       50
102
RTVSPost2010PropOp48
 70
     1
102
RTVSPost2010Prop49
280
     0
102
RTVSPost2010PropOp49
 70
     1
102
RTVSPost2010Prop50
 90
       50
102
RTVSPost2010PropOp50
 70
     1
102
RTVSPost2010Prop51ColorIndex
 90
      256
102
RTVSPost2010Prop51ColorRGB
 90
-16777216
102
RTVSPost2010PropOp51
 70
     0
102
RTVSPost2010Prop52
140
1.0
102
RTVSPost2010PropOp52
 70
     0
102
RTVSPost2010Prop53
 90
        2
102
RTVSPost2010PropOp53
 70
     1
102
RTVSPost2010Prop54
  1
strokes_ogs.tif
102
RTVSPost2010PropOp54
 70
     1
102
RTVSPost2010Prop55
280
     0
102
RTVSPost2010PropOp55
 70
     1
102
RTVSPost2010Prop56
140
1.0
102
RTVSPost2010PropOp56
 70
     1
102
RTVSPost2010Prop57
140
1.0
102
RTVSPost2010PropOp57
 70
     1
  0
XRECORD
  5
8EC
102
{ACAD_REACTORS
330
8EB
102
}
330
8EB
100
AcDbXrecord
280
     1
102
RTVSPropertyOp0
 70
     1
102
RTVSPropertyOp1
 70
     1
102
RTVSPropertyOp2
 70
     1
102
RTVSPropertyOp3
 70
     1
102
RTVSPropertyOp4
 70
     1
102
RTVSPropertyOp5
 70
     1
102
RTVSPropertyOp6
 70
     1
102
RTVSPropertyOp7
 70
     1
102
RTVSPropertyOp8
 70
     1
102
RTVSPropertyOp9
 70
     1
102
RTVSPropertyOp10
 70
     1
102
RTVSPropertyOp11
 70
     1
102
RTVSPropertyOp12
 70
     1
102
RTVSPropertyOp13
 70
     1
102
RTVSPropertyOp14
 70
     1
102
RTVSPropertyOp15
 70
     1
102
RTVSPropertyOp16
 70
     1
102
RTVSPropertyOp17
 70
     1
102
RTVSPropertyOp18
 70
     1
102
RTVSPropertyOp19
 70
     1
102
RTVSPropertyOp20
 70
     1
102
RTVSPropertyOp21
 70
     1
102
RTVSPropertyOp22
 70
     1
102
RTVSPropertyOp23
 70
     1
102
RTVSPropertyOp24
 70
     1
102
RTVSPropertyOp25
 70
     1
102
RTVSPropertyOp26
 70
     1
102
RTVSPropertyOp27
 70
     1
102
RTVSPropertyOp28
 70
     1
102
RTVSPropertyOp29
 70
     1
102
RTVSPropertyOp30
 70
     1
102
RTVSPropertyOp31
 70
     1
102
RTVSPropertyOp32
 70
     1
102
RTVSPropertyOp33
 70
     1
102
RTVSPropertyOp34
 70
     1
102
RTVSPropertyOp35
 70
     1
102
RTVSPropertyOp36
 70
     1
102
RTVSPropertyOp37
 70
     1
102
RTVSPropertyOp38
 70
     1
102
RTVSPropertyOp39
 70
     1
102
RTVSPropertyOp40
 70
     1
102
RTVSPropertyOp41
 70
     1
102
RTVSPropertyOp42
 70
     1
102
RTVSPropertyOp43
 70
     1
102
RTVSPropertyOp44
 70
     1
102
RTVSPropertyOp45
 70
     1
102
RTVSPropertyOp46
 70
     1
102
RTVSPropertyOp47
 70
     1
102
RTVSPropertyOp48
 70
     1
102
RTVSPropertyOp49
 70
     1
102
RTVSPropertyOp50
 70
     1
102
RTVSPropertyOp51
 70
     0
102
RTVSPropertyOp52
 70
     0
102
RTVSPropertyOp53
 70
     1
102
RTVSPropertyOp54
 70
     1
102
RTVSPropertyOp55
 70
     1
102
RTVSPropertyOp56
 70
     1
102
RTVSPropertyOp57
 70
     1
102
RTVSPost2010Prop28
280
     0
102
RTVSPost2010PropOp28
 70
     1
102
RTVSPost2010Prop29
280
     1
102
RTVSPost2010PropOp29
 70
     1
102
RTVSPost2010Prop30
280
     1
102
RTVSPost2010PropOp30
 70
     1
102
RTVSPost2010Prop31
280
     0
102
RTVSPost2010PropOp31
 70
     1
102
RTVSPost2010Prop32
280
     0
102
RTVSPost2010PropOp32
 70
     1
102
RTVSPost2010Prop33
280
     0
102
RTVSPost2010PropOp33
 70
     1
102
RTVSPost2010Prop34
280
     0
102
RTVSPost2010PropOp34
 70
     1
102
RTVSPost2010Prop35
280
     0
102
RTVSPost2010PropOp35
 70
     1
102
RTVSPost2010Prop36
280
     0
102
RTVSPost2010PropOp36
 70
     1
102
RTVSPost2010Prop37
 90
       50
102
RTVSPost2010PropOp37
 70
     1
102
RTVSPost2010Prop38
140
0.0
102
RTVSPost2010PropOp38
 70
     1
102
RTVSPost2010Prop39
140
1.0
102
RTVSPost2010PropOp39
 70
     1
102
RTVSPost2010Prop40
 90
        0
102
RTVSPost2010PropOp40
 70
     1
102
RTVSPost2010Prop41ColorIndex
 90
       18
102
RTVSPost2010Prop41ColorRGB
 90
        0
102
RTVSPost2010PropOp41
 70
     1
102
RTVSPost2010Prop42
 90
       50
102
RTVSPost2010PropOp42
 70
     1
102
RTVSPost2010Prop43
 90
        3
102
RTVSPost2010PropOp43
 70
     1
102
RTVSPost2010Prop44ColorIndex
 90
        5
102
RTVSPost2010Prop44ColorRGB
 90
      255
102
RTVSPost2010PropOp44
 70
     1
102
RTVSPost2010Prop45
280
     0
102
RTVSPost2010PropOp45
 70
     1
102
RTVSPost2010Prop46
 90
       50
102
RTVSPost2010PropOp46
 70
     1
102
RTVSPost2010Prop47
 90
       50
102
RTVSPost2010PropOp47
 70
     1
102
RTVSPost2010Prop48
 90
       50
102
RTVSPost2010PropOp48
 70
     1
102
RTVSPost2010Prop49
280
     0
102
RTVSPost2010PropOp49
 70
     1
102
RTVSPost2010Prop50
 90
       50
102
RTVSPost2010PropOp50
 70
     1
102
RTVSPost2010Prop51ColorIndex
 90
      256
102
RTVSPost2010Prop51ColorRGB
 90
-16777216
102
RTVSPost2010PropOp51
 70
     0
102
RTVSPost2010Prop52
140
1.0
102
RTVSPost2010PropOp52
 70
     0
102
RTVSPost2010Prop53
 90
        2
102
RTVSPost2010PropOp53
 70
     1
102
RTVSPost2010Prop54
  1
strokes_ogs.tif
102
RTVSPost2010PropOp54
 70
     1
102
RTVSPost2010Prop55
280
     0
102
RTVSPost2010PropOp55
 70
     1
102
RTVSPost2010Prop56
140
1.0
102
RTVSPost2010PropOp56
 70
     1
102
RTVSPost2010Prop57
140
1.0
102
RTVSPost2010PropOp57
 70
     1
  0
XRECORD
  5
8EE
102
{ACAD_REACTORS
330
8ED
102
}
330
8ED
100
AcDbXrecord
280
     1
102
RTVSPropertyOp0
 70
     1
102
RTVSPropertyOp1
 70
     1
102
RTVSPropertyOp2
 70
     1
102
RTVSPropertyOp3
 70
     1
102
RTVSPropertyOp4
 70
     1
102
RTVSPropertyOp5
 70
     1
102
RTVSPropertyOp6
 70
     1
102
RTVSPropertyOp7
 70
     1
102
RTVSPropertyOp8
 70
     1
102
RTVSPropertyOp9
 70
     1
102
RTVSPropertyOp10
 70
     1
102
RTVSPropertyOp11
 70
     1
102
RTVSPropertyOp12
 70
     1
102
RTVSPropertyOp13
 70
     1
102
RTVSPropertyOp14
 70
     1
102
RTVSPropertyOp15
 70
     1
102
RTVSPropertyOp16
 70
     1
102
RTVSPropertyOp17
 70
     1
102
RTVSPropertyOp18
 70
     1
102
RTVSPropertyOp19
 70
     1
102
RTVSPropertyOp20
 70
     1
102
RTVSPropertyOp21
 70
     1
102
RTVSPropertyOp22
 70
     1
102
RTVSPropertyOp23
 70
     1
102
RTVSPropertyOp24
 70
     1
102
RTVSPropertyOp25
 70
     1
102
RTVSPropertyOp26
 70
     1
102
RTVSPropertyOp27
 70
     1
102
RTVSPropertyOp28
 70
     1
102
RTVSPropertyOp29
 70
     1
102
RTVSPropertyOp30
 70
     1
102
RTVSPropertyOp31
 70
     1
102
RTVSPropertyOp32
 70
     1
102
RTVSPropertyOp33
 70
     1
102
RTVSPropertyOp34
 70
     1
102
RTVSPropertyOp35
 70
     1
102
RTVSPropertyOp36
 70
     1
102
RTVSPropertyOp37
 70
     1
102
RTVSPropertyOp38
 70
     1
102
RTVSPropertyOp39
 70
     1
102
RTVSPropertyOp40
 70
     1
102
RTVSPropertyOp41
 70
     1
102
RTVSPropertyOp42
 70
     1
102
RTVSPropertyOp43
 70
     1
102
RTVSPropertyOp44
 70
     1
102
RTVSPropertyOp45
 70
     1
102
RTVSPropertyOp46
 70
     1
102
RTVSPropertyOp47
 70
     1
102
RTVSPropertyOp48
 70
     1
102
RTVSPropertyOp49
 70
     1
102
RTVSPropertyOp50
 70
     1
102
RTVSPropertyOp51
 70
     0
102
RTVSPropertyOp52
 70
     0
102
RTVSPropertyOp53
 70
     1
102
RTVSPropertyOp54
 70
     1
102
RTVSPropertyOp55
 70
     1
102
RTVSPropertyOp56
 70
     1
102
RTVSPropertyOp57
 70
     1
102
RTVSPost2010Prop28
280
     0
102
RTVSPost2010PropOp28
 70
     1
102
RTVSPost2010Prop29
280
     1
102
RTVSPost2010PropOp29
 70
     1
102
RTVSPost2010Prop30
280
     1
102
RTVSPost2010PropOp30
 70
     1
102
RTVSPost2010Prop31
280
     0
102
RTVSPost2010PropOp31
 70
     1
102
RTVSPost2010Prop32
280
     0
102
RTVSPost2010PropOp32
 70
     1
102
RTVSPost2010Prop33
280
     0
102
RTVSPost2010PropOp33
 70
     1
102
RTVSPost2010Prop34
280
     0
102
RTVSPost2010PropOp34
 70
     1
102
RTVSPost2010Prop35
280
     0
102
RTVSPost2010PropOp35
 70
     1
102
RTVSPost2010Prop36
280
     0
102
RTVSPost2010PropOp36
 70
     1
102
RTVSPost2010Prop37
 90
       50
102
RTVSPost2010PropOp37
 70
     1
102
RTVSPost2010Prop38
140
0.0
102
RTVSPost2010PropOp38
 70
     1
102
RTVSPost2010Prop39
140
1.0
102
RTVSPost2010PropOp39
 70
     1
102
RTVSPost2010Prop40
 90
        0
102
RTVSPost2010PropOp40
 70
     1
102
RTVSPost2010Prop41ColorIndex
 90
       18
102
RTVSPost2010Prop41ColorRGB
 90
        0
102
RTVSPost2010PropOp41
 70
     1
102
RTVSPost2010Prop42
 90
       50
102
RTVSPost2010PropOp42
 70
     1
102
RTVSPost2010Prop43
 90
        3
102
RTVSPost2010PropOp43
 70
     1
102
RTVSPost2010Prop44ColorIndex
 90
        5
102
RTVSPost2010Prop44ColorRGB
 90
      255
102
RTVSPost2010PropOp44
 70
     1
102
RTVSPost2010Prop45
280
     0
102
RTVSPost2010PropOp45
 70
     1
102
RTVSPost2010Prop46
 90
       50
102
RTVSPost2010PropOp46
 70
     1
102
RTVSPost2010Prop47
 90
       50
102
RTVSPost2010PropOp47
 70
     1
102
RTVSPost2010Prop48
 90
       50
102
RTVSPost2010PropOp48
 70
     1
102
RTVSPost2010Prop49
280
     0
102
RTVSPost2010PropOp49
 70
     1
102
RTVSPost2010Prop50
 90
       50
102
RTVSPost2010PropOp50
 70
     1
102
RTVSPost2010Prop51ColorIndex
 90
      256
102
RTVSPost2010Prop51ColorRGB
 90
-16777216
102
RTVSPost2010PropOp51
 70
     0
102
RTVSPost2010Prop52
140
1.0
102
RTVSPost2010PropOp52
 70
     0
102
RTVSPost2010Prop53
 90
        2
102
RTVSPost2010PropOp53
 70
     1
102
RTVSPost2010Prop54
  1
strokes_ogs.tif
102
RTVSPost2010PropOp54
 70
     1
102
RTVSPost2010Prop55
280
     0
102
RTVSPost2010PropOp55
 70
     1
102
RTVSPost2010Prop56
140
1.0
102
RTVSPost2010PropOp56
 70
     1
102
RTVSPost2010Prop57
140
1.0
102
RTVSPost2010PropOp57
 70
     1
  0
XRECORD
  5
8F0
102
{ACAD_REACTORS
330
8EF
102
}
330
8EF
100
AcDbXrecord
280
     1
102
RTVSPropertyOp0
 70
     1
102
RTVSPropertyOp1
 70
     1
102
RTVSPropertyOp2
 70
     1
102
RTVSPropertyOp3
 70
     1
102
RTVSPropertyOp4
 70
     1
102
RTVSPropertyOp5
 70
     1
102
RTVSPropertyOp6
 70
     1
102
RTVSPropertyOp7
 70
     1
102
RTVSPropertyOp8
 70
     1
102
RTVSPropertyOp9
 70
     1
102
RTVSPropertyOp10
 70
     1
102
RTVSPropertyOp11
 70
     1
102
RTVSPropertyOp12
 70
     1
102
RTVSPropertyOp13
 70
     1
102
RTVSPropertyOp14
 70
     1
102
RTVSPropertyOp15
 70
     1
102
RTVSPropertyOp16
 70
     1
102
RTVSPropertyOp17
 70
     1
102
RTVSPropertyOp18
 70
     1
102
RTVSPropertyOp19
 70
     1
102
RTVSPropertyOp20
 70
     1
102
RTVSPropertyOp21
 70
     1
102
RTVSPropertyOp22
 70
     1
102
RTVSPropertyOp23
 70
     1
102
RTVSPropertyOp24
 70
     1
102
RTVSPropertyOp25
 70
     1
102
RTVSPropertyOp26
 70
     1
102
RTVSPropertyOp27
 70
     1
102
RTVSPropertyOp28
 70
     1
102
RTVSPropertyOp29
 70
     1
102
RTVSPropertyOp30
 70
     1
102
RTVSPropertyOp31
 70
     1
102
RTVSPropertyOp32
 70
     1
102
RTVSPropertyOp33
 70
     1
102
RTVSPropertyOp34
 70
     1
102
RTVSPropertyOp35
 70
     1
102
RTVSPropertyOp36
 70
     1
102
RTVSPropertyOp37
 70
     1
102
RTVSPropertyOp38
 70
     1
102
RTVSPropertyOp39
 70
     1
102
RTVSPropertyOp40
 70
     1
102
RTVSPropertyOp41
 70
     1
102
RTVSPropertyOp42
 70
     1
102
RTVSPropertyOp43
 70
     1
102
RTVSPropertyOp44
 70
     1
102
RTVSPropertyOp45
 70
     1
102
RTVSPropertyOp46
 70
     1
102
RTVSPropertyOp47
 70
     1
102
RTVSPropertyOp48
 70
     1
102
RTVSPropertyOp49
 70
     1
102
RTVSPropertyOp50
 70
     1
102
RTVSPropertyOp51
 70
     0
102
RTVSPropertyOp52
 70
     0
102
RTVSPropertyOp53
 70
     1
102
RTVSPropertyOp54
 70
     1
102
RTVSPropertyOp55
 70
     1
102
RTVSPropertyOp56
 70
     1
102
RTVSPropertyOp57
 70
     1
102
RTVSPost2010Prop28
280
     0
102
RTVSPost2010PropOp28
 70
     1
102
RTVSPost2010Prop29
280
     1
102
RTVSPost2010PropOp29
 70
     1
102
RTVSPost2010Prop30
280
     1
102
RTVSPost2010PropOp30
 70
     1
102
RTVSPost2010Prop31
280
     0
102
RTVSPost2010PropOp31
 70
     1
102
RTVSPost2010Prop32
280
     0
102
RTVSPost2010PropOp32
 70
     1
102
RTVSPost2010Prop33
280
     0
102
RTVSPost2010PropOp33
 70
     1
102
RTVSPost2010Prop34
280
     0
102
RTVSPost2010PropOp34
 70
     1
102
RTVSPost2010Prop35
280
     0
102
RTVSPost2010PropOp35
 70
     1
102
RTVSPost2010Prop36
280
     0
102
RTVSPost2010PropOp36
 70
     1
102
RTVSPost2010Prop37
 90
       50
102
RTVSPost2010PropOp37
 70
     1
102
RTVSPost2010Prop38
140
0.0
102
RTVSPost2010PropOp38
 70
     1
102
RTVSPost2010Prop39
140
1.0
102
RTVSPost2010PropOp39
 70
     1
102
RTVSPost2010Prop40
 90
        0
102
RTVSPost2010PropOp40
 70
     1
102
RTVSPost2010Prop41ColorIndex
 90
       18
102
RTVSPost2010Prop41ColorRGB
 90
        0
102
RTVSPost2010PropOp41
 70
     1
102
RTVSPost2010Prop42
 90
       50
102
RTVSPost2010PropOp42
 70
     1
102
RTVSPost2010Prop43
 90
        3
102
RTVSPost2010PropOp43
 70
     1
102
RTVSPost2010Prop44ColorIndex
 90
        5
102
RTVSPost2010Prop44ColorRGB
 90
      255
102
RTVSPost2010PropOp44
 70
     1
102
RTVSPost2010Prop45
280
     0
102
RTVSPost2010PropOp45
 70
     1
102
RTVSPost2010Prop46
 90
       50
102
RTVSPost2010PropOp46
 70
     1
102
RTVSPost2010Prop47
 90
       50
102
RTVSPost2010PropOp47
 70
     1
102
RTVSPost2010Prop48
 90
       50
102
RTVSPost2010PropOp48
 70
     1
102
RTVSPost2010Prop49
280
     0
102
RTVSPost2010PropOp49
 70
     1
102
RTVSPost2010Prop50
 90
       50
102
RTVSPost2010PropOp50
 70
     1
102
RTVSPost2010Prop51ColorIndex
 90
      256
102
RTVSPost2010Prop51ColorRGB
 90
-16777216
102
RTVSPost2010PropOp51
 70
     0
102
RTVSPost2010Prop52
140
1.0
102
RTVSPost2010PropOp52
 70
     0
102
RTVSPost2010Prop53
 90
        2
102
RTVSPost2010PropOp53
 70
     1
102
RTVSPost2010Prop54
  1
strokes_ogs.tif
102
RTVSPost2010PropOp54
 70
     1
102
RTVSPost2010Prop55
280
     0
102
RTVSPost2010PropOp55
 70
     1
102
RTVSPost2010Prop56
140
1.0
102
RTVSPost2010PropOp56
 70
     1
102
RTVSPost2010Prop57
140
1.0
102
RTVSPost2010PropOp57
 70
     1
  0
XRECORD
  5
8F2
102
{ACAD_REACTORS
330
8F1
102
}
330
8F1
100
AcDbXrecord
280
     1
102
RTVSPropertyOp0
 70
     1
102
RTVSPropertyOp1
 70
     1
102
RTVSPropertyOp2
 70
     1
102
RTVSPropertyOp3
 70
     1
102
RTVSPropertyOp4
 70
     1
102
RTVSPropertyOp5
 70
     1
102
RTVSPropertyOp6
 70
     1
102
RTVSPropertyOp7
 70
     1
102
RTVSPropertyOp8
 70
     1
102
RTVSPropertyOp9
 70
     1
102
RTVSPropertyOp10
 70
     1
102
RTVSPropertyOp11
 70
     1
102
RTVSPropertyOp12
 70
     1
102
RTVSPropertyOp13
 70
     1
102
RTVSPropertyOp14
 70
     1
102
RTVSPropertyOp15
 70
     1
102
RTVSPropertyOp16
 70
     1
102
RTVSPropertyOp17
 70
     1
102
RTVSPropertyOp18
 70
     1
102
RTVSPropertyOp19
 70
     1
102
RTVSPropertyOp20
 70
     1
102
RTVSPropertyOp21
 70
     1
102
RTVSPropertyOp22
 70
     1
102
RTVSPropertyOp23
 70
     1
102
RTVSPropertyOp24
 70
     1
102
RTVSPropertyOp25
 70
     1
102
RTVSPropertyOp26
 70
     1
102
RTVSPropertyOp27
 70
     1
102
RTVSPropertyOp28
 70
     1
102
RTVSPropertyOp29
 70
     1
102
RTVSPropertyOp30
 70
     1
102
RTVSPropertyOp31
 70
     1
102
RTVSPropertyOp32
 70
     1
102
RTVSPropertyOp33
 70
     1
102
RTVSPropertyOp34
 70
     1
102
RTVSPropertyOp35
 70
     1
102
RTVSPropertyOp36
 70
     1
102
RTVSPropertyOp37
 70
     1
102
RTVSPropertyOp38
 70
     1
102
RTVSPropertyOp39
 70
     1
102
RTVSPropertyOp40
 70
     1
102
RTVSPropertyOp41
 70
     1
102
RTVSPropertyOp42
 70
     1
102
RTVSPropertyOp43
 70
     1
102
RTVSPropertyOp44
 70
     1
102
RTVSPropertyOp45
 70
     1
102
RTVSPropertyOp46
 70
     1
102
RTVSPropertyOp47
 70
     1
102
RTVSPropertyOp48
 70
     1
102
RTVSPropertyOp49
 70
     1
102
RTVSPropertyOp50
 70
     1
102
RTVSPropertyOp51
 70
     0
102
RTVSPropertyOp52
 70
     0
102
RTVSPropertyOp53
 70
     1
102
RTVSPropertyOp54
 70
     1
102
RTVSPropertyOp55
 70
     1
102
RTVSPropertyOp56
 70
     1
102
RTVSPropertyOp57
 70
     1
102
RTVSPost2010Prop28
280
     0
102
RTVSPost2010PropOp28
 70
     1
102
RTVSPost2010Prop29
280
     1
102
RTVSPost2010PropOp29
 70
     1
102
RTVSPost2010Prop30
280
     1
102
RTVSPost2010PropOp30
 70
     1
102
RTVSPost2010Prop31
280
     0
102
RTVSPost2010PropOp31
 70
     1
102
RTVSPost2010Prop32
280
     0
102
RTVSPost2010PropOp32
 70
     1
102
RTVSPost2010Prop33
280
     0
102
RTVSPost2010PropOp33
 70
     1
102
RTVSPost2010Prop34
280
     0
102
RTVSPost2010PropOp34
 70
     1
102
RTVSPost2010Prop35
280
     0
102
RTVSPost2010PropOp35
 70
     1
102
RTVSPost2010Prop36
280
     0
102
RTVSPost2010PropOp36
 70
     1
102
RTVSPost2010Prop37
 90
       50
102
RTVSPost2010PropOp37
 70
     1
102
RTVSPost2010Prop38
140
0.0
102
RTVSPost2010PropOp38
 70
     1
102
RTVSPost2010Prop39
140
1.0
102
RTVSPost2010PropOp39
 70
     1
102
RTVSPost2010Prop40
 90
        0
102
RTVSPost2010PropOp40
 70
     1
102
RTVSPost2010Prop41ColorIndex
 90
       18
102
RTVSPost2010Prop41ColorRGB
 90
        0
102
RTVSPost2010PropOp41
 70
     1
102
RTVSPost2010Prop42
 90
       50
102
RTVSPost2010PropOp42
 70
     1
102
RTVSPost2010Prop43
 90
        3
102
RTVSPost2010PropOp43
 70
     1
102
RTVSPost2010Prop44ColorIndex
 90
        5
102
RTVSPost2010Prop44ColorRGB
 90
      255
102
RTVSPost2010PropOp44
 70
     1
102
RTVSPost2010Prop45
280
     0
102
RTVSPost2010PropOp45
 70
     1
102
RTVSPost2010Prop46
 90
       50
102
RTVSPost2010PropOp46
 70
     1
102
RTVSPost2010Prop47
 90
       50
102
RTVSPost2010PropOp47
 70
     1
102
RTVSPost2010Prop48
 90
       50
102
RTVSPost2010PropOp48
 70
     1
102
RTVSPost2010Prop49
280
     0
102
RTVSPost2010PropOp49
 70
     1
102
RTVSPost2010Prop50
 90
       50
102
RTVSPost2010PropOp50
 70
     1
102
RTVSPost2010Prop51ColorIndex
 90
      256
102
RTVSPost2010Prop51ColorRGB
 90
-16777216
102
RTVSPost2010PropOp51
 70
     0
102
RTVSPost2010Prop52
140
1.0
102
RTVSPost2010PropOp52
 70
     0
102
RTVSPost2010Prop53
 90
        2
102
RTVSPost2010PropOp53
 70
     1
102
RTVSPost2010Prop54
  1
strokes_ogs.tif
102
RTVSPost2010PropOp54
 70
     1
102
RTVSPost2010Prop55
280
     0
102
RTVSPost2010PropOp55
 70
     1
102
RTVSPost2010Prop56
140
1.0
102
RTVSPost2010PropOp56
 70
     1
102
RTVSPost2010Prop57
140
1.0
102
RTVSPost2010PropOp57
 70
     1
  0
XRECORD
  5
8F4
102
{ACAD_REACTORS
330
8F3
102
}
330
8F3
100
AcDbXrecord
280
     1
102
RTVSPropertyOp0
 70
     0
102
RTVSPropertyOp1
 70
     0
102
RTVSPropertyOp2
 70
     0
102
RTVSPropertyOp3
 70
     0
102
RTVSPropertyOp4
 70
     0
102
RTVSPropertyOp5
 70
     0
102
RTVSPropertyOp6
 70
     0
102
RTVSPropertyOp7
 70
     0
102
RTVSPropertyOp8
 70
     0
102
RTVSPropertyOp9
 70
     0
102
RTVSPropertyOp10
 70
     0
102
RTVSPropertyOp11
 70
     0
102
RTVSPropertyOp12
 70
     0
102
RTVSPropertyOp13
 70
     0
102
RTVSPropertyOp14
 70
     2
102
RTVSPropertyOp15
 70
     0
102
RTVSPropertyOp16
 70
     0
102
RTVSPropertyOp17
 70
     0
102
RTVSPropertyOp18
 70
     0
102
RTVSPropertyOp19
 70
     0
102
RTVSPropertyOp20
 70
     0
102
RTVSPropertyOp21
 70
     0
102
RTVSPropertyOp22
 70
     0
102
RTVSPropertyOp23
 70
     0
102
RTVSPropertyOp24
 70
     0
102
RTVSPropertyOp25
 70
     0
102
RTVSPropertyOp26
 70
     0
102
RTVSPropertyOp27
 70
     0
102
RTVSPropertyOp28
 70
     0
102
RTVSPropertyOp29
 70
     0
102
RTVSPropertyOp30
 70
     0
102
RTVSPropertyOp31
 70
     0
102
RTVSPropertyOp32
 70
     0
102
RTVSPropertyOp33
 70
     1
102
RTVSPropertyOp34
 70
     1
102
RTVSPropertyOp35
 70
     1
102
RTVSPropertyOp36
 70
     1
102
RTVSPropertyOp37
 70
     1
102
RTVSPropertyOp38
 70
     1
102
RTVSPropertyOp39
 70
     1
102
RTVSPropertyOp40
 70
     1
102
RTVSPropertyOp41
 70
     1
102
RTVSPropertyOp42
 70
     1
102
RTVSPropertyOp43
 70
     1
102
RTVSPropertyOp44
 70
     1
102
RTVSPropertyOp45
 70
     1
102
RTVSPropertyOp46
 70
     1
102
RTVSPropertyOp47
 70
     1
102
RTVSPropertyOp48
 70
     1
102
RTVSPropertyOp49
 70
     1
102
RTVSPropertyOp50
 70
     1
102
RTVSPropertyOp51
 70
     0
102
RTVSPropertyOp52
 70
     0
102
RTVSPropertyOp53
 70
     1
102
RTVSPropertyOp54
 70
     1
102
RTVSPropertyOp55
 70
     1
102
RTVSPropertyOp56
 70
     1
102
RTVSPropertyOp57
 70
     1
102
RTVSPost2010Prop28
280
     0
102
RTVSPost2010PropOp28
 70
     0
102
RTVSPost2010Prop29
280
     1
102
RTVSPost2010PropOp29
 70
     0
102
RTVSPost2010Prop30
280
     1
102
RTVSPost2010PropOp30
 70
     0
102
RTVSPost2010Prop31
280
     0
102
RTVSPost2010PropOp31
 70
     0
102
RTVSPost2010Prop32
280
     0
102
RTVSPost2010PropOp32
 70
     0
102
RTVSPost2010Prop33
280
     0
102
RTVSPost2010PropOp33
 70
     1
102
RTVSPost2010Prop34
280
     0
102
RTVSPost2010PropOp34
 70
     1
102
RTVSPost2010Prop35
280
     0
102
RTVSPost2010PropOp35
 70
     1
102
RTVSPost2010Prop36
280
     0
102
RTVSPost2010PropOp36
 70
     1
102
RTVSPost2010Prop37
 90
       50
102
RTVSPost2010PropOp37
 70
     1
102
RTVSPost2010Prop38
140
0.0
102
RTVSPost2010PropOp38
 70
     1
102
RTVSPost2010Prop39
140
1.0
102
RTVSPost2010PropOp39
 70
     1
102
RTVSPost2010Prop40
 90
        0
102
RTVSPost2010PropOp40
 70
     1
102
RTVSPost2010Prop41ColorIndex
 90
       18
102
RTVSPost2010Prop41ColorRGB
 90
        0
102
RTVSPost2010PropOp41
 70
     1
102
RTVSPost2010Prop42
 90
       50
102
RTVSPost2010PropOp42
 70
     1
102
RTVSPost2010Prop43
 90
        3
102
RTVSPost2010PropOp43
 70
     1
102
RTVSPost2010Prop44ColorIndex
 90
        5
102
RTVSPost2010Prop44ColorRGB
 90
      255
102
RTVSPost2010PropOp44
 70
     1
102
RTVSPost2010Prop45
280
     0
102
RTVSPost2010PropOp45
 70
     1
102
RTVSPost2010Prop46
 90
       50
102
RTVSPost2010PropOp46
 70
     1
102
RTVSPost2010Prop47
 90
       50
102
RTVSPost2010PropOp47
 70
     1
102
RTVSPost2010Prop48
 90
       50
102
RTVSPost2010PropOp48
 70
     1
102
RTVSPost2010Prop49
280
     0
102
RTVSPost2010PropOp49
 70
     1
102
RTVSPost2010Prop50
 90
       50
102
RTVSPost2010PropOp50
 70
     1
102
RTVSPost2010Prop51ColorIndex
 90
      256
102
RTVSPost2010Prop51ColorRGB
 90
-16777216
102
RTVSPost2010PropOp51
 70
     0
102
RTVSPost2010Prop52
140
1.0
102
RTVSPost2010PropOp52
 70
     0
102
RTVSPost2010Prop53
 90
        2
102
RTVSPost2010PropOp53
 70
     1
102
RTVSPost2010Prop54
  1
strokes_ogs.tif
102
RTVSPost2010PropOp54
 70
     1
102
RTVSPost2010Prop55
280
     0
102
RTVSPost2010PropOp55
 70
     1
102
RTVSPost2010Prop56
140
1.0
102
RTVSPost2010PropOp56
 70
     1
102
RTVSPost2010Prop57
140
1.0
102
RTVSPost2010PropOp57
 70
     1
  0
XRECORD
  5
8F6
102
{ACAD_REACTORS
330
8F5
102
}
330
8F5
100
AcDbXrecord
280
     1
102
RTVSPropertyOp0
 70
     1
102
RTVSPropertyOp1
 70
     1
102
RTVSPropertyOp2
 70
     1
102
RTVSPropertyOp3
 70
     1
102
RTVSPropertyOp4
 70
     1
102
RTVSPropertyOp5
 70
     1
102
RTVSPropertyOp6
 70
     1
102
RTVSPropertyOp7
 70
     1
102
RTVSPropertyOp8
 70
     1
102
RTVSPropertyOp9
 70
     1
102
RTVSPropertyOp10
 70
     1
102
RTVSPropertyOp11
 70
     1
102
RTVSPropertyOp12
 70
     1
102
RTVSPropertyOp13
 70
     1
102
RTVSPropertyOp14
 70
     1
102
RTVSPropertyOp15
 70
     1
102
RTVSPropertyOp16
 70
     1
102
RTVSPropertyOp17
 70
     1
102
RTVSPropertyOp18
 70
     1
102
RTVSPropertyOp19
 70
     1
102
RTVSPropertyOp20
 70
     1
102
RTVSPropertyOp21
 70
     1
102
RTVSPropertyOp22
 70
     1
102
RTVSPropertyOp23
 70
     1
102
RTVSPropertyOp24
 70
     1
102
RTVSPropertyOp25
 70
     1
102
RTVSPropertyOp26
 70
     1
102
RTVSPropertyOp27
 70
     1
102
RTVSPropertyOp28
 70
     1
102
RTVSPropertyOp29
 70
     1
102
RTVSPropertyOp30
 70
     1
102
RTVSPropertyOp31
 70
     1
102
RTVSPropertyOp32
 70
     1
102
RTVSPropertyOp33
 70
     1
102
RTVSPropertyOp34
 70
     1
102
RTVSPropertyOp35
 70
     1
102
RTVSPropertyOp36
 70
     1
102
RTVSPropertyOp37
 70
     1
102
RTVSPropertyOp38
 70
     1
102
RTVSPropertyOp39
 70
     1
102
RTVSPropertyOp40
 70
     1
102
RTVSPropertyOp41
 70
     1
102
RTVSPropertyOp42
 70
     1
102
RTVSPropertyOp43
 70
     1
102
RTVSPropertyOp44
 70
     1
102
RTVSPropertyOp45
 70
     1
102
RTVSPropertyOp46
 70
     1
102
RTVSPropertyOp47
 70
     1
102
RTVSPropertyOp48
 70
     1
102
RTVSPropertyOp49
 70
     1
102
RTVSPropertyOp50
 70
     1
102
RTVSPropertyOp51
 70
     0
102
RTVSPropertyOp52
 70
     0
102
RTVSPropertyOp53
 70
     1
102
RTVSPropertyOp54
 70
     1
102
RTVSPropertyOp55
 70
     1
102
RTVSPropertyOp56
 70
     1
102
RTVSPropertyOp57
 70
     1
102
RTVSPost2010Prop28
280
     0
102
RTVSPost2010PropOp28
 70
     1
102
RTVSPost2010Prop29
280
     1
102
RTVSPost2010PropOp29
 70
     1
102
RTVSPost2010Prop30
280
     1
102
RTVSPost2010PropOp30
 70
     1
102
RTVSPost2010Prop31
280
     0
102
RTVSPost2010PropOp31
 70
     1
102
RTVSPost2010Prop32
280
     0
102
RTVSPost2010PropOp32
 70
     1
102
RTVSPost2010Prop33
280
     0
102
RTVSPost2010PropOp33
 70
     1
102
RTVSPost2010Prop34
280
     0
102
RTVSPost2010PropOp34
 70
     1
102
RTVSPost2010Prop35
280
     0
102
RTVSPost2010PropOp35
 70
     1
102
RTVSPost2010Prop36
280
     0
102
RTVSPost2010PropOp36
 70
     1
102
RTVSPost2010Prop37
 90
       50
102
RTVSPost2010PropOp37
 70
     1
102
RTVSPost2010Prop38
140
0.0
102
RTVSPost2010PropOp38
 70
     1
102
RTVSPost2010Prop39
140
1.0
102
RTVSPost2010PropOp39
 70
     1
102
RTVSPost2010Prop40
 90
        0
102
RTVSPost2010PropOp40
 70
     1
102
RTVSPost2010Prop41ColorIndex
 90
       18
102
RTVSPost2010Prop41ColorRGB
 90
        0
102
RTVSPost2010PropOp41
 70
     1
102
RTVSPost2010Prop42
 90
       50
102
RTVSPost2010PropOp42
 70
     1
102
RTVSPost2010Prop43
 90
        3
102
RTVSPost2010PropOp43
 70
     1
102
RTVSPost2010Prop44ColorIndex
 90
        5
102
RTVSPost2010Prop44ColorRGB
 90
      255
102
RTVSPost2010PropOp44
 70
     1
102
RTVSPost2010Prop45
280
     0
102
RTVSPost2010PropOp45
 70
     1
102
RTVSPost2010Prop46
 90
       50
102
RTVSPost2010PropOp46
 70
     1
102
RTVSPost2010Prop47
 90
       50
102
RTVSPost2010PropOp47
 70
     1
102
RTVSPost2010Prop48
 90
       50
102
RTVSPost2010PropOp48
 70
     1
102
RTVSPost2010Prop49
280
     0
102
RTVSPost2010PropOp49
 70
     1
102
RTVSPost2010Prop50
 90
       50
102
RTVSPost2010PropOp50
 70
     1
102
RTVSPost2010Prop51ColorIndex
 90
      256
102
RTVSPost2010Prop51ColorRGB
 90
-16777216
102
RTVSPost2010PropOp51
 70
     0
102
RTVSPost2010Prop52
140
1.0
102
RTVSPost2010PropOp52
 70
     0
102
RTVSPost2010Prop53
 90
        2
102
RTVSPost2010PropOp53
 70
     1
102
RTVSPost2010Prop54
  1
strokes_ogs.tif
102
RTVSPost2010PropOp54
 70
     1
102
RTVSPost2010Prop55
280
     0
102
RTVSPost2010PropOp55
 70
     1
102
RTVSPost2010Prop56
140
1.0
102
RTVSPost2010PropOp56
 70
     1
102
RTVSPost2010Prop57
140
1.0
102
RTVSPost2010PropOp57
 70
     1
  0
XRECORD
  5
8F8
102
{ACAD_REACTORS
330
8F7
102
}
330
8F7
100
AcDbXrecord
280
     1
102
RTVSPropertyOp0
 70
     1
102
RTVSPropertyOp1
 70
     1
102
RTVSPropertyOp2
 70
     1
102
RTVSPropertyOp3
 70
     1
102
RTVSPropertyOp4
 70
     1
102
RTVSPropertyOp5
 70
     1
102
RTVSPropertyOp6
 70
     1
102
RTVSPropertyOp7
 70
     1
102
RTVSPropertyOp8
 70
     1
102
RTVSPropertyOp9
 70
     1
102
RTVSPropertyOp10
 70
     1
102
RTVSPropertyOp11
 70
     1
102
RTVSPropertyOp12
 70
     1
102
RTVSPropertyOp13
 70
     1
102
RTVSPropertyOp14
 70
     1
102
RTVSPropertyOp15
 70
     1
102
RTVSPropertyOp16
 70
     1
102
RTVSPropertyOp17
 70
     1
102
RTVSPropertyOp18
 70
     1
102
RTVSPropertyOp19
 70
     1
102
RTVSPropertyOp20
 70
     1
102
RTVSPropertyOp21
 70
     1
102
RTVSPropertyOp22
 70
     1
102
RTVSPropertyOp23
 70
     1
102
RTVSPropertyOp24
 70
     1
102
RTVSPropertyOp25
 70
     1
102
RTVSPropertyOp26
 70
     1
102
RTVSPropertyOp27
 70
     1
102
RTVSPropertyOp28
 70
     1
102
RTVSPropertyOp29
 70
     1
102
RTVSPropertyOp30
 70
     1
102
RTVSPropertyOp31
 70
     1
102
RTVSPropertyOp32
 70
     1
102
RTVSPropertyOp33
 70
     1
102
RTVSPropertyOp34
 70
     1
102
RTVSPropertyOp35
 70
     1
102
RTVSPropertyOp36
 70
     1
102
RTVSPropertyOp37
 70
     1
102
RTVSPropertyOp38
 70
     1
102
RTVSPropertyOp39
 70
     1
102
RTVSPropertyOp40
 70
     1
102
RTVSPropertyOp41
 70
     1
102
RTVSPropertyOp42
 70
     1
102
RTVSPropertyOp43
 70
     1
102
RTVSPropertyOp44
 70
     1
102
RTVSPropertyOp45
 70
     1
102
RTVSPropertyOp46
 70
     1
102
RTVSPropertyOp47
 70
     1
102
RTVSPropertyOp48
 70
     1
102
RTVSPropertyOp49
 70
     1
102
RTVSPropertyOp50
 70
     1
102
RTVSPropertyOp51
 70
     0
102
RTVSPropertyOp52
 70
     0
102
RTVSPropertyOp53
 70
     1
102
RTVSPropertyOp54
 70
     1
102
RTVSPropertyOp55
 70
     1
102
RTVSPropertyOp56
 70
     1
102
RTVSPropertyOp57
 70
     1
102
RTVSPost2010Prop28
280
     0
102
RTVSPost2010PropOp28
 70
     1
102
RTVSPost2010Prop29
280
     1
102
RTVSPost2010PropOp29
 70
     1
102
RTVSPost2010Prop30
280
     1
102
RTVSPost2010PropOp30
 70
     1
102
RTVSPost2010Prop31
280
     0
102
RTVSPost2010PropOp31
 70
     1
102
RTVSPost2010Prop32
280
     0
102
RTVSPost2010PropOp32
 70
     1
102
RTVSPost2010Prop33
280
     0
102
RTVSPost2010PropOp33
 70
     1
102
RTVSPost2010Prop34
280
     0
102
RTVSPost2010PropOp34
 70
     1
102
RTVSPost2010Prop35
280
     0
102
RTVSPost2010PropOp35
 70
     1
102
RTVSPost2010Prop36
280
     0
102
RTVSPost2010PropOp36
 70
     1
102
RTVSPost2010Prop37
 90
       50
102
RTVSPost2010PropOp37
 70
     1
102
RTVSPost2010Prop38
140
0.0
102
RTVSPost2010PropOp38
 70
     1
102
RTVSPost2010Prop39
140
1.0
102
RTVSPost2010PropOp39
 70
     1
102
RTVSPost2010Prop40
 90
        0
102
RTVSPost2010PropOp40
 70
     1
102
RTVSPost2010Prop41ColorIndex
 90
       18
102
RTVSPost2010Prop41ColorRGB
 90
        0
102
RTVSPost2010PropOp41
 70
     1
102
RTVSPost2010Prop42
 90
       50
102
RTVSPost2010PropOp42
 70
     1
102
RTVSPost2010Prop43
 90
        3
102
RTVSPost2010PropOp43
 70
     1
102
RTVSPost2010Prop44ColorIndex
 90
        5
102
RTVSPost2010Prop44ColorRGB
 90
      255
102
RTVSPost2010PropOp44
 70
     1
102
RTVSPost2010Prop45
280
     0
102
RTVSPost2010PropOp45
 70
     1
102
RTVSPost2010Prop46
 90
       50
102
RTVSPost2010PropOp46
 70
     1
102
RTVSPost2010Prop47
 90
       50
102
RTVSPost2010PropOp47
 70
     1
102
RTVSPost2010Prop48
 90
       50
102
RTVSPost2010PropOp48
 70
     1
102
RTVSPost2010Prop49
280
     0
102
RTVSPost2010PropOp49
 70
     1
102
RTVSPost2010Prop50
 90
       50
102
RTVSPost2010PropOp50
 70
     1
102
RTVSPost2010Prop51ColorIndex
 90
      256
102
RTVSPost2010Prop51ColorRGB
 90
-16777216
102
RTVSPost2010PropOp51
 70
     0
102
RTVSPost2010Prop52
140
1.0
102
RTVSPost2010PropOp52
 70
     0
102
RTVSPost2010Prop53
 90
        2
102
RTVSPost2010PropOp53
 70
     1
102
RTVSPost2010Prop54
  1
strokes_ogs.tif
102
RTVSPost2010PropOp54
 70
     1
102
RTVSPost2010Prop55
280
     0
102
RTVSPost2010PropOp55
 70
     1
102
RTVSPost2010Prop56
140
1.0
102
RTVSPost2010PropOp56
 70
     1
102
RTVSPost2010Prop57
140
1.0
102
RTVSPost2010PropOp57
 70
     1
  0
XRECORD
  5
8FA
102
{ACAD_REACTORS
330
8F9
102
}
330
8F9
100
AcDbXrecord
280
     1
102
RTVSPropertyOp0
 70
     1
102
RTVSPropertyOp1
 70
     1
102
RTVSPropertyOp2
 70
     1
102
RTVSPropertyOp3
 70
     1
102
RTVSPropertyOp4
 70
     1
102
RTVSPropertyOp5
 70
     1
102
RTVSPropertyOp6
 70
     1
102
RTVSPropertyOp7
 70
     1
102
RTVSPropertyOp8
 70
     1
102
RTVSPropertyOp9
 70
     1
102
RTVSPropertyOp10
 70
     1
102
RTVSPropertyOp11
 70
     1
102
RTVSPropertyOp12
 70
     1
102
RTVSPropertyOp13
 70
     1
102
RTVSPropertyOp14
 70
     1
102
RTVSPropertyOp15
 70
     1
102
RTVSPropertyOp16
 70
     1
102
RTVSPropertyOp17
 70
     1
102
RTVSPropertyOp18
 70
     1
102
RTVSPropertyOp19
 70
     1
102
RTVSPropertyOp20
 70
     1
102
RTVSPropertyOp21
 70
     1
102
RTVSPropertyOp22
 70
     1
102
RTVSPropertyOp23
 70
     1
102
RTVSPropertyOp24
 70
     1
102
RTVSPropertyOp25
 70
     1
102
RTVSPropertyOp26
 70
     1
102
RTVSPropertyOp27
 70
     1
102
RTVSPropertyOp28
 70
     1
102
RTVSPropertyOp29
 70
     1
102
RTVSPropertyOp30
 70
     1
102
RTVSPropertyOp31
 70
     1
102
RTVSPropertyOp32
 70
     1
102
RTVSPropertyOp33
 70
     1
102
RTVSPropertyOp34
 70
     1
102
RTVSPropertyOp35
 70
     1
102
RTVSPropertyOp36
 70
     1
102
RTVSPropertyOp37
 70
     1
102
RTVSPropertyOp38
 70
     1
102
RTVSPropertyOp39
 70
     1
102
RTVSPropertyOp40
 70
     1
102
RTVSPropertyOp41
 70
     1
102
RTVSPropertyOp42
 70
     1
102
RTVSPropertyOp43
 70
     1
102
RTVSPropertyOp44
 70
     1
102
RTVSPropertyOp45
 70
     1
102
RTVSPropertyOp46
 70
     1
102
RTVSPropertyOp47
 70
     1
102
RTVSPropertyOp48
 70
     1
102
RTVSPropertyOp49
 70
     1
102
RTVSPropertyOp50
 70
     1
102
RTVSPropertyOp51
 70
     0
102
RTVSPropertyOp52
 70
     0
102
RTVSPropertyOp53
 70
     1
102
RTVSPropertyOp54
 70
     1
102
RTVSPropertyOp55
 70
     1
102
RTVSPropertyOp56
 70
     1
102
RTVSPropertyOp57
 70
     1
102
RTVSPost2010Prop28
280
     0
102
RTVSPost2010PropOp28
 70
     1
102
RTVSPost2010Prop29
280
     1
102
RTVSPost2010PropOp29
 70
     1
102
RTVSPost2010Prop30
280
     1
102
RTVSPost2010PropOp30
 70
     1
102
RTVSPost2010Prop31
280
     0
102
RTVSPost2010PropOp31
 70
     1
102
RTVSPost2010Prop32
280
     0
102
RTVSPost2010PropOp32
 70
     1
102
RTVSPost2010Prop33
280
     0
102
RTVSPost2010PropOp33
 70
     1
102
RTVSPost2010Prop34
280
     0
102
RTVSPost2010PropOp34
 70
     1
102
RTVSPost2010Prop35
280
     0
102
RTVSPost2010PropOp35
 70
     1
102
RTVSPost2010Prop36
280
     0
102
RTVSPost2010PropOp36
 70
     1
102
RTVSPost2010Prop37
 90
       50
102
RTVSPost2010PropOp37
 70
     1
102
RTVSPost2010Prop38
140
0.0
102
RTVSPost2010PropOp38
 70
     1
102
RTVSPost2010Prop39
140
1.0
102
RTVSPost2010PropOp39
 70
     1
102
RTVSPost2010Prop40
 90
        0
102
RTVSPost2010PropOp40
 70
     1
102
RTVSPost2010Prop41ColorIndex
 90
       18
102
RTVSPost2010Prop41ColorRGB
 90
        0
102
RTVSPost2010PropOp41
 70
     1
102
RTVSPost2010Prop42
 90
       50
102
RTVSPost2010PropOp42
 70
     1
102
RTVSPost2010Prop43
 90
        3
102
RTVSPost2010PropOp43
 70
     1
102
RTVSPost2010Prop44ColorIndex
 90
        5
102
RTVSPost2010Prop44ColorRGB
 90
      255
102
RTVSPost2010PropOp44
 70
     1
102
RTVSPost2010Prop45
280
     0
102
RTVSPost2010PropOp45
 70
     1
102
RTVSPost2010Prop46
 90
       50
102
RTVSPost2010PropOp46
 70
     1
102
RTVSPost2010Prop47
 90
       50
102
RTVSPost2010PropOp47
 70
     1
102
RTVSPost2010Prop48
 90
       50
102
RTVSPost2010PropOp48
 70
     1
102
RTVSPost2010Prop49
280
     0
102
RTVSPost2010PropOp49
 70
     1
102
RTVSPost2010Prop50
 90
       50
102
RTVSPost2010PropOp50
 70
     1
102
RTVSPost2010Prop51ColorIndex
 90
      256
102
RTVSPost2010Prop51ColorRGB
 90
-16777216
102
RTVSPost2010PropOp51
 70
     0
102
RTVSPost2010Prop52
140
1.0
102
RTVSPost2010PropOp52
 70
     0
102
RTVSPost2010Prop53
 90
        2
102
RTVSPost2010PropOp53
 70
     1
102
RTVSPost2010Prop54
  1
strokes_ogs.tif
102
RTVSPost2010PropOp54
 70
     1
102
RTVSPost2010Prop55
280
     0
102
RTVSPost2010PropOp55
 70
     1
102
RTVSPost2010Prop56
140
1.0
102
RTVSPost2010PropOp56
 70
     1
102
RTVSPost2010Prop57
140
1.0
102
RTVSPost2010PropOp57
 70
     1
  0
XRECORD
  5
8FC
102
{ACAD_REACTORS
330
8FB
102
}
330
8FB
100
AcDbXrecord
280
     1
102
RTVSPropertyOp0
 70
     1
102
RTVSPropertyOp1
 70
     1
102
RTVSPropertyOp2
 70
     1
102
RTVSPropertyOp3
 70
     1
102
RTVSPropertyOp4
 70
     1
102
RTVSPropertyOp5
 70
     1
102
RTVSPropertyOp6
 70
     1
102
RTVSPropertyOp7
 70
     1
102
RTVSPropertyOp8
 70
     1
102
RTVSPropertyOp9
 70
     1
102
RTVSPropertyOp10
 70
     1
102
RTVSPropertyOp11
 70
     1
102
RTVSPropertyOp12
 70
     1
102
RTVSPropertyOp13
 70
     1
102
RTVSPropertyOp14
 70
     1
102
RTVSPropertyOp15
 70
     1
102
RTVSPropertyOp16
 70
     1
102
RTVSPropertyOp17
 70
     1
102
RTVSPropertyOp18
 70
     1
102
RTVSPropertyOp19
 70
     1
102
RTVSPropertyOp20
 70
     1
102
RTVSPropertyOp21
 70
     1
102
RTVSPropertyOp22
 70
     1
102
RTVSPropertyOp23
 70
     1
102
RTVSPropertyOp24
 70
     1
102
RTVSPropertyOp25
 70
     1
102
RTVSPropertyOp26
 70
     1
102
RTVSPropertyOp27
 70
     1
102
RTVSPropertyOp28
 70
     1
102
RTVSPropertyOp29
 70
     1
102
RTVSPropertyOp30
 70
     1
102
RTVSPropertyOp31
 70
     1
102
RTVSPropertyOp32
 70
     1
102
RTVSPropertyOp33
 70
     1
102
RTVSPropertyOp34
 70
     1
102
RTVSPropertyOp35
 70
     1
102
RTVSPropertyOp36
 70
     1
102
RTVSPropertyOp37
 70
     1
102
RTVSPropertyOp38
 70
     1
102
RTVSPropertyOp39
 70
     1
102
RTVSPropertyOp40
 70
     1
102
RTVSPropertyOp41
 70
     1
102
RTVSPropertyOp42
 70
     1
102
RTVSPropertyOp43
 70
     1
102
RTVSPropertyOp44
 70
     1
102
RTVSPropertyOp45
 70
     1
102
RTVSPropertyOp46
 70
     1
102
RTVSPropertyOp47
 70
     1
102
RTVSPropertyOp48
 70
     1
102
RTVSPropertyOp49
 70
     1
102
RTVSPropertyOp50
 70
     1
102
RTVSPropertyOp51
 70
     0
102
RTVSPropertyOp52
 70
     0
102
RTVSPropertyOp53
 70
     1
102
RTVSPropertyOp54
 70
     1
102
RTVSPropertyOp55
 70
     1
102
RTVSPropertyOp56
 70
     1
102
RTVSPropertyOp57
 70
     1
102
RTVSPost2010Prop28
280
     0
102
RTVSPost2010PropOp28
 70
     1
102
RTVSPost2010Prop29
280
     1
102
RTVSPost2010PropOp29
 70
     1
102
RTVSPost2010Prop30
280
     1
102
RTVSPost2010PropOp30
 70
     1
102
RTVSPost2010Prop31
280
     0
102
RTVSPost2010PropOp31
 70
     1
102
RTVSPost2010Prop32
280
     0
102
RTVSPost2010PropOp32
 70
     1
102
RTVSPost2010Prop33
280
     0
102
RTVSPost2010PropOp33
 70
     1
102
RTVSPost2010Prop34
280
     0
102
RTVSPost2010PropOp34
 70
     1
102
RTVSPost2010Prop35
280
     0
102
RTVSPost2010PropOp35
 70
     1
102
RTVSPost2010Prop36
280
     0
102
RTVSPost2010PropOp36
 70
     1
102
RTVSPost2010Prop37
 90
       50
102
RTVSPost2010PropOp37
 70
     1
102
RTVSPost2010Prop38
140
0.0
102
RTVSPost2010PropOp38
 70
     1
102
RTVSPost2010Prop39
140
1.0
102
RTVSPost2010PropOp39
 70
     1
102
RTVSPost2010Prop40
 90
        0
102
RTVSPost2010PropOp40
 70
     1
102
RTVSPost2010Prop41ColorIndex
 90
       18
102
RTVSPost2010Prop41ColorRGB
 90
        0
102
RTVSPost2010PropOp41
 70
     1
102
RTVSPost2010Prop42
 90
       50
102
RTVSPost2010PropOp42
 70
     1
102
RTVSPost2010Prop43
 90
        3
102
RTVSPost2010PropOp43
 70
     1
102
RTVSPost2010Prop44ColorIndex
 90
        5
102
RTVSPost2010Prop44ColorRGB
 90
      255
102
RTVSPost2010PropOp44
 70
     1
102
RTVSPost2010Prop45
280
     0
102
RTVSPost2010PropOp45
 70
     1
102
RTVSPost2010Prop46
 90
       50
102
RTVSPost2010PropOp46
 70
     1
102
RTVSPost2010Prop47
 90
       50
102
RTVSPost2010PropOp47
 70
     1
102
RTVSPost2010Prop48
 90
       50
102
RTVSPost2010PropOp48
 70
     1
102
RTVSPost2010Prop49
280
     0
102
RTVSPost2010PropOp49
 70
     1
102
RTVSPost2010Prop50
 90
       50
102
RTVSPost2010PropOp50
 70
     1
102
RTVSPost2010Prop51ColorIndex
 90
      256
102
RTVSPost2010Prop51ColorRGB
 90
-16777216
102
RTVSPost2010PropOp51
 70
     0
102
RTVSPost2010Prop52
140
1.0
102
RTVSPost2010PropOp52
 70
     0
102
RTVSPost2010Prop53
 90
        2
102
RTVSPost2010PropOp53
 70
     1
102
RTVSPost2010Prop54
  1
strokes_ogs.tif
102
RTVSPost2010PropOp54
 70
     1
102
RTVSPost2010Prop55
280
     0
102
RTVSPost2010PropOp55
 70
     1
102
RTVSPost2010Prop56
140
1.0
102
RTVSPost2010PropOp56
 70
     1
102
RTVSPost2010Prop57
140
1.0
102
RTVSPost2010PropOp57
 70
     1
  0
XRECORD
  5
8FE
102
{ACAD_REACTORS
330
8FD
102
}
330
8FD
100
AcDbXrecord
280
     1
102
RTVSPropertyOp0
 70
     1
102
RTVSPropertyOp1
 70
     1
102
RTVSPropertyOp2
 70
     1
102
RTVSPropertyOp3
 70
     1
102
RTVSPropertyOp4
 70
     1
102
RTVSPropertyOp5
 70
     1
102
RTVSPropertyOp6
 70
     1
102
RTVSPropertyOp7
 70
     1
102
RTVSPropertyOp8
 70
     1
102
RTVSPropertyOp9
 70
     1
102
RTVSPropertyOp10
 70
     1
102
RTVSPropertyOp11
 70
     1
102
RTVSPropertyOp12
 70
     1
102
RTVSPropertyOp13
 70
     1
102
RTVSPropertyOp14
 70
     1
102
RTVSPropertyOp15
 70
     1
102
RTVSPropertyOp16
 70
     1
102
RTVSPropertyOp17
 70
     1
102
RTVSPropertyOp18
 70
     1
102
RTVSPropertyOp19
 70
     1
102
RTVSPropertyOp20
 70
     1
102
RTVSPropertyOp21
 70
     1
102
RTVSPropertyOp22
 70
     1
102
RTVSPropertyOp23
 70
     1
102
RTVSPropertyOp24
 70
     1
102
RTVSPropertyOp25
 70
     1
102
RTVSPropertyOp26
 70
     1
102
RTVSPropertyOp27
 70
     1
102
RTVSPropertyOp28
 70
     1
102
RTVSPropertyOp29
 70
     1
102
RTVSPropertyOp30
 70
     1
102
RTVSPropertyOp31
 70
     1
102
RTVSPropertyOp32
 70
     1
102
RTVSPropertyOp33
 70
     1
102
RTVSPropertyOp34
 70
     1
102
RTVSPropertyOp35
 70
     1
102
RTVSPropertyOp36
 70
     1
102
RTVSPropertyOp37
 70
     1
102
RTVSPropertyOp38
 70
     1
102
RTVSPropertyOp39
 70
     1
102
RTVSPropertyOp40
 70
     1
102
RTVSPropertyOp41
 70
     1
102
RTVSPropertyOp42
 70
     1
102
RTVSPropertyOp43
 70
     1
102
RTVSPropertyOp44
 70
     1
102
RTVSPropertyOp45
 70
     1
102
RTVSPropertyOp46
 70
     1
102
RTVSPropertyOp47
 70
     1
102
RTVSPropertyOp48
 70
     1
102
RTVSPropertyOp49
 70
     1
102
RTVSPropertyOp50
 70
     1
102
RTVSPropertyOp51
 70
     0
102
RTVSPropertyOp52
 70
     0
102
RTVSPropertyOp53
 70
     1
102
RTVSPropertyOp54
 70
     1
102
RTVSPropertyOp55
 70
     1
102
RTVSPropertyOp56
 70
     1
102
RTVSPropertyOp57
 70
     1
102
RTVSPost2010Prop28
280
     0
102
RTVSPost2010PropOp28
 70
     1
102
RTVSPost2010Prop29
280
     1
102
RTVSPost2010PropOp29
 70
     1
102
RTVSPost2010Prop30
280
     1
102
RTVSPost2010PropOp30
 70
     1
102
RTVSPost2010Prop31
280
     0
102
RTVSPost2010PropOp31
 70
     1
102
RTVSPost2010Prop32
280
     0
102
RTVSPost2010PropOp32
 70
     1
102
RTVSPost2010Prop33
280
     0
102
RTVSPost2010PropOp33
 70
     1
102
RTVSPost2010Prop34
280
     0
102
RTVSPost2010PropOp34
 70
     1
102
RTVSPost2010Prop35
280
     0
102
RTVSPost2010PropOp35
 70
     1
102
RTVSPost2010Prop36
280
     0
102
RTVSPost2010PropOp36
 70
     1
102
RTVSPost2010Prop37
 90
       50
102
RTVSPost2010PropOp37
 70
     1
102
RTVSPost2010Prop38
140
0.0
102
RTVSPost2010PropOp38
 70
     1
102
RTVSPost2010Prop39
140
1.0
102
RTVSPost2010PropOp39
 70
     1
102
RTVSPost2010Prop40
 90
        0
102
RTVSPost2010PropOp40
 70
     1
102
RTVSPost2010Prop41ColorIndex
 90
       18
102
RTVSPost2010Prop41ColorRGB
 90
        0
102
RTVSPost2010PropOp41
 70
     1
102
RTVSPost2010Prop42
 90
       50
102
RTVSPost2010PropOp42
 70
     1
102
RTVSPost2010Prop43
 90
        3
102
RTVSPost2010PropOp43
 70
     1
102
RTVSPost2010Prop44ColorIndex
 90
        5
102
RTVSPost2010Prop44ColorRGB
 90
      255
102
RTVSPost2010PropOp44
 70
     1
102
RTVSPost2010Prop45
280
     0
102
RTVSPost2010PropOp45
 70
     1
102
RTVSPost2010Prop46
 90
       50
102
RTVSPost2010PropOp46
 70
     1
102
RTVSPost2010Prop47
 90
       50
102
RTVSPost2010PropOp47
 70
     1
102
RTVSPost2010Prop48
 90
       50
102
RTVSPost2010PropOp48
 70
     1
102
RTVSPost2010Prop49
280
     0
102
RTVSPost2010PropOp49
 70
     1
102
RTVSPost2010Prop50
 90
       50
102
RTVSPost2010PropOp50
 70
     1
102
RTVSPost2010Prop51ColorIndex
 90
      256
102
RTVSPost2010Prop51ColorRGB
 90
-16777216
102
RTVSPost2010PropOp51
 70
     0
102
RTVSPost2010Prop52
140
1.0
102
RTVSPost2010PropOp52
 70
     0
102
RTVSPost2010Prop53
 90
        2
102
RTVSPost2010PropOp53
 70
     1
102
RTVSPost2010Prop54
  1
strokes_ogs.tif
102
RTVSPost2010PropOp54
 70
     1
102
RTVSPost2010Prop55
280
     0
102
RTVSPost2010PropOp55
 70
     1
102
RTVSPost2010Prop56
140
1.0
102
RTVSPost2010PropOp56
 70
     1
102
RTVSPost2010Prop57
140
1.0
102
RTVSPost2010PropOp57
 70
     1
  0
XRECORD
  5
900
102
{ACAD_REACTORS
330
8FF
102
}
330
8FF
100
AcDbXrecord
280
     1
102
RTVSPropertyOp0
 70
     1
102
RTVSPropertyOp1
 70
     1
102
RTVSPropertyOp2
 70
     1
102
RTVSPropertyOp3
 70
     1
102
RTVSPropertyOp4
 70
     1
102
RTVSPropertyOp5
 70
     1
102
RTVSPropertyOp6
 70
     1
102
RTVSPropertyOp7
 70
     1
102
RTVSPropertyOp8
 70
     1
102
RTVSPropertyOp9
 70
     1
102
RTVSPropertyOp10
 70
     1
102
RTVSPropertyOp11
 70
     1
102
RTVSPropertyOp12
 70
     1
102
RTVSPropertyOp13
 70
     1
102
RTVSPropertyOp14
 70
     1
102
RTVSPropertyOp15
 70
     1
102
RTVSPropertyOp16
 70
     1
102
RTVSPropertyOp17
 70
     1
102
RTVSPropertyOp18
 70
     1
102
RTVSPropertyOp19
 70
     1
102
RTVSPropertyOp20
 70
     1
102
RTVSPropertyOp21
 70
     1
102
RTVSPropertyOp22
 70
     1
102
RTVSPropertyOp23
 70
     1
102
RTVSPropertyOp24
 70
     1
102
RTVSPropertyOp25
 70
     1
102
RTVSPropertyOp26
 70
     1
102
RTVSPropertyOp27
 70
     1
102
RTVSPropertyOp28
 70
     1
102
RTVSPropertyOp29
 70
     1
102
RTVSPropertyOp30
 70
     1
102
RTVSPropertyOp31
 70
     1
102
RTVSPropertyOp32
 70
     1
102
RTVSPropertyOp33
 70
     1
102
RTVSPropertyOp34
 70
     1
102
RTVSPropertyOp35
 70
     1
102
RTVSPropertyOp36
 70
     1
102
RTVSPropertyOp37
 70
     1
102
RTVSPropertyOp38
 70
     1
102
RTVSPropertyOp39
 70
     1
102
RTVSPropertyOp40
 70
     1
102
RTVSPropertyOp41
 70
     1
102
RTVSPropertyOp42
 70
     1
102
RTVSPropertyOp43
 70
     1
102
RTVSPropertyOp44
 70
     1
102
RTVSPropertyOp45
 70
     1
102
RTVSPropertyOp46
 70
     1
102
RTVSPropertyOp47
 70
     1
102
RTVSPropertyOp48
 70
     1
102
RTVSPropertyOp49
 70
     1
102
RTVSPropertyOp50
 70
     1
102
RTVSPropertyOp51
 70
     0
102
RTVSPropertyOp52
 70
     0
102
RTVSPropertyOp53
 70
     1
102
RTVSPropertyOp54
 70
     1
102
RTVSPropertyOp55
 70
     1
102
RTVSPropertyOp56
 70
     1
102
RTVSPropertyOp57
 70
     1
102
RTVSPost2010Prop28
280
     0
102
RTVSPost2010PropOp28
 70
     1
102
RTVSPost2010Prop29
280
     1
102
RTVSPost2010PropOp29
 70
     1
102
RTVSPost2010Prop30
280
     1
102
RTVSPost2010PropOp30
 70
     1
102
RTVSPost2010Prop31
280
     0
102
RTVSPost2010PropOp31
 70
     1
102
RTVSPost2010Prop32
280
     0
102
RTVSPost2010PropOp32
 70
     1
102
RTVSPost2010Prop33
280
     0
102
RTVSPost2010PropOp33
 70
     1
102
RTVSPost2010Prop34
280
     0
102
RTVSPost2010PropOp34
 70
     1
102
RTVSPost2010Prop35
280
     0
102
RTVSPost2010PropOp35
 70
     1
102
RTVSPost2010Prop36
280
     0
102
RTVSPost2010PropOp36
 70
     1
102
RTVSPost2010Prop37
 90
       50
102
RTVSPost2010PropOp37
 70
     1
102
RTVSPost2010Prop38
140
0.0
102
RTVSPost2010PropOp38
 70
     1
102
RTVSPost2010Prop39
140
1.0
102
RTVSPost2010PropOp39
 70
     1
102
RTVSPost2010Prop40
 90
        0
102
RTVSPost2010PropOp40
 70
     1
102
RTVSPost2010Prop41ColorIndex
 90
       18
102
RTVSPost2010Prop41ColorRGB
 90
        0
102
RTVSPost2010PropOp41
 70
     1
102
RTVSPost2010Prop42
 90
       50
102
RTVSPost2010PropOp42
 70
     1
102
RTVSPost2010Prop43
 90
        3
102
RTVSPost2010PropOp43
 70
     1
102
RTVSPost2010Prop44ColorIndex
 90
        5
102
RTVSPost2010Prop44ColorRGB
 90
      255
102
RTVSPost2010PropOp44
 70
     1
102
RTVSPost2010Prop45
280
     0
102
RTVSPost2010PropOp45
 70
     1
102
RTVSPost2010Prop46
 90
       50
102
RTVSPost2010PropOp46
 70
     1
102
RTVSPost2010Prop47
 90
       50
102
RTVSPost2010PropOp47
 70
     1
102
RTVSPost2010Prop48
 90
       50
102
RTVSPost2010PropOp48
 70
     1
102
RTVSPost2010Prop49
280
     0
102
RTVSPost2010PropOp49
 70
     1
102
RTVSPost2010Prop50
 90
       50
102
RTVSPost2010PropOp50
 70
     1
102
RTVSPost2010Prop51ColorIndex
 90
      256
102
RTVSPost2010Prop51ColorRGB
 90
-16777216
102
RTVSPost2010PropOp51
 70
     0
102
RTVSPost2010Prop52
140
1.0
102
RTVSPost2010PropOp52
 70
     0
102
RTVSPost2010Prop53
 90
        2
102
RTVSPost2010PropOp53
 70
     1
102
RTVSPost2010Prop54
  1
strokes_ogs.tif
102
RTVSPost2010PropOp54
 70
     1
102
RTVSPost2010Prop55
280
     0
102
RTVSPost2010PropOp55
 70
     1
102
RTVSPost2010Prop56
140
1.0
102
RTVSPost2010PropOp56
 70
     1
102
RTVSPost2010Prop57
140
1.0
102
RTVSPost2010PropOp57
 70
     1
  0
XRECORD
  5
902
102
{ACAD_REACTORS
330
901
102
}
330
901
100
AcDbXrecord
280
     1
102
RTVSPropertyOp0
 70
     0
102
RTVSPropertyOp1
 70
     0
102
RTVSPropertyOp2
 70
     0
102
RTVSPropertyOp3
 70
     0
102
RTVSPropertyOp4
 70
     0
102
RTVSPropertyOp5
 70
     0
102
RTVSPropertyOp6
 70
     0
102
RTVSPropertyOp7
 70
     0
102
RTVSPropertyOp8
 70
     0
102
RTVSPropertyOp9
 70
     0
102
RTVSPropertyOp10
 70
     0
102
RTVSPropertyOp11
 70
     0
102
RTVSPropertyOp12
 70
     0
102
RTVSPropertyOp13
 70
     0
102
RTVSPropertyOp14
 70
     2
102
RTVSPropertyOp15
 70
     0
102
RTVSPropertyOp16
 70
     0
102
RTVSPropertyOp17
 70
     0
102
RTVSPropertyOp18
 70
     0
102
RTVSPropertyOp19
 70
     0
102
RTVSPropertyOp20
 70
     0
102
RTVSPropertyOp21
 70
     0
102
RTVSPropertyOp22
 70
     0
102
RTVSPropertyOp23
 70
     0
102
RTVSPropertyOp24
 70
     0
102
RTVSPropertyOp25
 70
     0
102
RTVSPropertyOp26
 70
     0
102
RTVSPropertyOp27
 70
     0
102
RTVSPropertyOp28
 70
     0
102
RTVSPropertyOp29
 70
     0
102
RTVSPropertyOp30
 70
     0
102
RTVSPropertyOp31
 70
     0
102
RTVSPropertyOp32
 70
     0
102
RTVSPropertyOp33
 70
     1
102
RTVSPropertyOp34
 70
     1
102
RTVSPropertyOp35
 70
     1
102
RTVSPropertyOp36
 70
     1
102
RTVSPropertyOp37
 70
     1
102
RTVSPropertyOp38
 70
     1
102
RTVSPropertyOp39
 70
     1
102
RTVSPropertyOp40
 70
     1
102
RTVSPropertyOp41
 70
     1
102
RTVSPropertyOp42
 70
     1
102
RTVSPropertyOp43
 70
     1
102
RTVSPropertyOp44
 70
     1
102
RTVSPropertyOp45
 70
     1
102
RTVSPropertyOp46
 70
     1
102
RTVSPropertyOp47
 70
     1
102
RTVSPropertyOp48
 70
     1
102
RTVSPropertyOp49
 70
     1
102
RTVSPropertyOp50
 70
     1
102
RTVSPropertyOp51
 70
     0
102
RTVSPropertyOp52
 70
     0
102
RTVSPropertyOp53
 70
     1
102
RTVSPropertyOp54
 70
     1
102
RTVSPropertyOp55
 70
     1
102
RTVSPropertyOp56
 70
     1
102
RTVSPropertyOp57
 70
     1
102
RTVSPost2010Prop28
280
     0
102
RTVSPost2010PropOp28
 70
     0
102
RTVSPost2010Prop29
280
     1
102
RTVSPost2010PropOp29
 70
     0
102
RTVSPost2010Prop30
280
     1
102
RTVSPost2010PropOp30
 70
     0
102
RTVSPost2010Prop31
280
     0
102
RTVSPost2010PropOp31
 70
     0
102
RTVSPost2010Prop32
280
     0
102
RTVSPost2010PropOp32
 70
     0
102
RTVSPost2010Prop33
280
     0
102
RTVSPost2010PropOp33
 70
     1
102
RTVSPost2010Prop34
280
     0
102
RTVSPost2010PropOp34
 70
     1
102
RTVSPost2010Prop35
280
     0
102
RTVSPost2010PropOp35
 70
     1
102
RTVSPost2010Prop36
280
     0
102
RTVSPost2010PropOp36
 70
     1
102
RTVSPost2010Prop37
 90
       50
102
RTVSPost2010PropOp37
 70
     1
102
RTVSPost2010Prop38
140
0.0
102
RTVSPost2010PropOp38
 70
     1
102
RTVSPost2010Prop39
140
1.0
102
RTVSPost2010PropOp39
 70
     1
102
RTVSPost2010Prop40
 90
        0
102
RTVSPost2010PropOp40
 70
     1
102
RTVSPost2010Prop41ColorIndex
 90
       18
102
RTVSPost2010Prop41ColorRGB
 90
        0
102
RTVSPost2010PropOp41
 70
     1
102
RTVSPost2010Prop42
 90
       50
102
RTVSPost2010PropOp42
 70
     1
102
RTVSPost2010Prop43
 90
        3
102
RTVSPost2010PropOp43
 70
     1
102
RTVSPost2010Prop44ColorIndex
 90
        5
102
RTVSPost2010Prop44ColorRGB
 90
      255
102
RTVSPost2010PropOp44
 70
     1
102
RTVSPost2010Prop45
280
     0
102
RTVSPost2010PropOp45
 70
     1
102
RTVSPost2010Prop46
 90
       50
102
RTVSPost2010PropOp46
 70
     1
102
RTVSPost2010Prop47
 90
       50
102
RTVSPost2010PropOp47
 70
     1
102
RTVSPost2010Prop48
 90
       50
102
RTVSPost2010PropOp48
 70
     1
102
RTVSPost2010Prop49
280
     0
102
RTVSPost2010PropOp49
 70
     1
102
RTVSPost2010Prop50
 90
       50
102
RTVSPost2010PropOp50
 70
     1
102
RTVSPost2010Prop51ColorIndex
 90
      256
102
RTVSPost2010Prop51ColorRGB
 90
-16777216
102
RTVSPost2010PropOp51
 70
     0
102
RTVSPost2010Prop52
140
1.0
102
RTVSPost2010PropOp52
 70
     0
102
RTVSPost2010Prop53
 90
        2
102
RTVSPost2010PropOp53
 70
     1
102
RTVSPost2010Prop54
  1
strokes_ogs.tif
102
RTVSPost2010PropOp54
 70
     1
102
RTVSPost2010Prop55
280
     0
102
RTVSPost2010PropOp55
 70
     1
102
RTVSPost2010Prop56
140
1.0
102
RTVSPost2010PropOp56
 70
     1
102
RTVSPost2010Prop57
140
1.0
102
RTVSPost2010PropOp57
 70
     1
  0
XRECORD
  5
904
102
{ACAD_REACTORS
330
903
102
}
330
903
100
AcDbXrecord
280
     1
102
RTVSPropertyOp0
 70
     1
102
RTVSPropertyOp1
 70
     1
102
RTVSPropertyOp2
 70
     1
102
RTVSPropertyOp3
 70
     1
102
RTVSPropertyOp4
 70
     1
102
RTVSPropertyOp5
 70
     1
102
RTVSPropertyOp6
 70
     1
102
RTVSPropertyOp7
 70
     1
102
RTVSPropertyOp8
 70
     1
102
RTVSPropertyOp9
 70
     1
102
RTVSPropertyOp10
 70
     1
102
RTVSPropertyOp11
 70
     1
102
RTVSPropertyOp12
 70
     1
102
RTVSPropertyOp13
 70
     1
102
RTVSPropertyOp14
 70
     1
102
RTVSPropertyOp15
 70
     1
102
RTVSPropertyOp16
 70
     1
102
RTVSPropertyOp17
 70
     1
102
RTVSPropertyOp18
 70
     1
102
RTVSPropertyOp19
 70
     1
102
RTVSPropertyOp20
 70
     1
102
RTVSPropertyOp21
 70
     1
102
RTVSPropertyOp22
 70
     1
102
RTVSPropertyOp23
 70
     1
102
RTVSPropertyOp24
 70
     1
102
RTVSPropertyOp25
 70
     1
102
RTVSPropertyOp26
 70
     1
102
RTVSPropertyOp27
 70
     1
102
RTVSPropertyOp28
 70
     1
102
RTVSPropertyOp29
 70
     1
102
RTVSPropertyOp30
 70
     1
102
RTVSPropertyOp31
 70
     1
102
RTVSPropertyOp32
 70
     1
102
RTVSPropertyOp33
 70
     1
102
RTVSPropertyOp34
 70
     1
102
RTVSPropertyOp35
 70
     1
102
RTVSPropertyOp36
 70
     1
102
RTVSPropertyOp37
 70
     1
102
RTVSPropertyOp38
 70
     1
102
RTVSPropertyOp39
 70
     1
102
RTVSPropertyOp40
 70
     1
102
RTVSPropertyOp41
 70
     1
102
RTVSPropertyOp42
 70
     1
102
RTVSPropertyOp43
 70
     1
102
RTVSPropertyOp44
 70
     1
102
RTVSPropertyOp45
 70
     1
102
RTVSPropertyOp46
 70
     1
102
RTVSPropertyOp47
 70
     1
102
RTVSPropertyOp48
 70
     1
102
RTVSPropertyOp49
 70
     1
102
RTVSPropertyOp50
 70
     1
102
RTVSPropertyOp51
 70
     0
102
RTVSPropertyOp52
 70
     0
102
RTVSPropertyOp53
 70
     1
102
RTVSPropertyOp54
 70
     1
102
RTVSPropertyOp55
 70
     1
102
RTVSPropertyOp56
 70
     1
102
RTVSPropertyOp57
 70
     1
102
RTVSPost2010Prop28
280
     0
102
RTVSPost2010PropOp28
 70
     1
102
RTVSPost2010Prop29
280
     1
102
RTVSPost2010PropOp29
 70
     1
102
RTVSPost2010Prop30
280
     1
102
RTVSPost2010PropOp30
 70
     1
102
RTVSPost2010Prop31
280
     0
102
RTVSPost2010PropOp31
 70
     1
102
RTVSPost2010Prop32
280
     0
102
RTVSPost2010PropOp32
 70
     1
102
RTVSPost2010Prop33
280
     0
102
RTVSPost2010PropOp33
 70
     1
102
RTVSPost2010Prop34
280
     0
102
RTVSPost2010PropOp34
 70
     1
102
RTVSPost2010Prop35
280
     0
102
RTVSPost2010PropOp35
 70
     1
102
RTVSPost2010Prop36
280
     0
102
RTVSPost2010PropOp36
 70
     1
102
RTVSPost2010Prop37
 90
       50
102
RTVSPost2010PropOp37
 70
     1
102
RTVSPost2010Prop38
140
0.0
102
RTVSPost2010PropOp38
 70
     1
102
RTVSPost2010Prop39
140
1.0
102
RTVSPost2010PropOp39
 70
     1
102
RTVSPost2010Prop40
 90
        0
102
RTVSPost2010PropOp40
 70
     1
102
RTVSPost2010Prop41ColorIndex
 90
       18
102
RTVSPost2010Prop41ColorRGB
 90
        0
102
RTVSPost2010PropOp41
 70
     1
102
RTVSPost2010Prop42
 90
       50
102
RTVSPost2010PropOp42
 70
     1
102
RTVSPost2010Prop43
 90
        3
102
RTVSPost2010PropOp43
 70
     1
102
RTVSPost2010Prop44ColorIndex
 90
        5
102
RTVSPost2010Prop44ColorRGB
 90
      255
102
RTVSPost2010PropOp44
 70
     1
102
RTVSPost2010Prop45
280
     0
102
RTVSPost2010PropOp45
 70
     1
102
RTVSPost2010Prop46
 90
       50
102
RTVSPost2010PropOp46
 70
     1
102
RTVSPost2010Prop47
 90
       50
102
RTVSPost2010PropOp47
 70
     1
102
RTVSPost2010Prop48
 90
       50
102
RTVSPost2010PropOp48
 70
     1
102
RTVSPost2010Prop49
280
     0
102
RTVSPost2010PropOp49
 70
     1
102
RTVSPost2010Prop50
 90
       50
102
RTVSPost2010PropOp50
 70
     1
102
RTVSPost2010Prop51ColorIndex
 90
      256
102
RTVSPost2010Prop51ColorRGB
 90
-16777216
102
RTVSPost2010PropOp51
 70
     0
102
RTVSPost2010Prop52
140
1.0
102
RTVSPost2010PropOp52
 70
     0
102
RTVSPost2010Prop53
 90
        2
102
RTVSPost2010PropOp53
 70
     1
102
RTVSPost2010Prop54
  1
strokes_ogs.tif
102
RTVSPost2010PropOp54
 70
     1
102
RTVSPost2010Prop55
280
     0
102
RTVSPost2010PropOp55
 70
     1
102
RTVSPost2010Prop56
140
1.0
102
RTVSPost2010PropOp56
 70
     1
102
RTVSPost2010Prop57
140
1.0
102
RTVSPost2010PropOp57
 70
     1
  0
XRECORD
  5
906
102
{ACAD_REACTORS
330
905
102
}
330
905
100
AcDbXrecord
280
     1
102
RTVSPropertyOp0
 70
     0
102
RTVSPropertyOp1
 70
     0
102
RTVSPropertyOp2
 70
     0
102
RTVSPropertyOp3
 70
     0
102
RTVSPropertyOp4
 70
     0
102
RTVSPropertyOp5
 70
     0
102
RTVSPropertyOp6
 70
     0
102
RTVSPropertyOp7
 70
     0
102
RTVSPropertyOp8
 70
     0
102
RTVSPropertyOp9
 70
     0
102
RTVSPropertyOp10
 70
     0
102
RTVSPropertyOp11
 70
     0
102
RTVSPropertyOp12
 70
     0
102
RTVSPropertyOp13
 70
     0
102
RTVSPropertyOp14
 70
     2
102
RTVSPropertyOp15
 70
     0
102
RTVSPropertyOp16
 70
     0
102
RTVSPropertyOp17
 70
     0
102
RTVSPropertyOp18
 70
     0
102
RTVSPropertyOp19
 70
     0
102
RTVSPropertyOp20
 70
     0
102
RTVSPropertyOp21
 70
     0
102
RTVSPropertyOp22
 70
     0
102
RTVSPropertyOp23
 70
     0
102
RTVSPropertyOp24
 70
     0
102
RTVSPropertyOp25
 70
     0
102
RTVSPropertyOp26
 70
     0
102
RTVSPropertyOp27
 70
     0
102
RTVSPropertyOp28
 70
     0
102
RTVSPropertyOp29
 70
     0
102
RTVSPropertyOp30
 70
     0
102
RTVSPropertyOp31
 70
     0
102
RTVSPropertyOp32
 70
     0
102
RTVSPropertyOp33
 70
     1
102
RTVSPropertyOp34
 70
     1
102
RTVSPropertyOp35
 70
     1
102
RTVSPropertyOp36
 70
     1
102
RTVSPropertyOp37
 70
     1
102
RTVSPropertyOp38
 70
     1
102
RTVSPropertyOp39
 70
     1
102
RTVSPropertyOp40
 70
     1
102
RTVSPropertyOp41
 70
     1
102
RTVSPropertyOp42
 70
     1
102
RTVSPropertyOp43
 70
     1
102
RTVSPropertyOp44
 70
     1
102
RTVSPropertyOp45
 70
     1
102
RTVSPropertyOp46
 70
     1
102
RTVSPropertyOp47
 70
     1
102
RTVSPropertyOp48
 70
     1
102
RTVSPropertyOp49
 70
     1
102
RTVSPropertyOp50
 70
     1
102
RTVSPropertyOp51
 70
     0
102
RTVSPropertyOp52
 70
     0
102
RTVSPropertyOp53
 70
     1
102
RTVSPropertyOp54
 70
     1
102
RTVSPropertyOp55
 70
     1
102
RTVSPropertyOp56
 70
     1
102
RTVSPropertyOp57
 70
     1
102
RTVSPost2010Prop28
280
     0
102
RTVSPost2010PropOp28
 70
     0
102
RTVSPost2010Prop29
280
     1
102
RTVSPost2010PropOp29
 70
     0
102
RTVSPost2010Prop30
280
     1
102
RTVSPost2010PropOp30
 70
     0
102
RTVSPost2010Prop31
280
     0
102
RTVSPost2010PropOp31
 70
     0
102
RTVSPost2010Prop32
280
     0
102
RTVSPost2010PropOp32
 70
     0
102
RTVSPost2010Prop33
280
     0
102
RTVSPost2010PropOp33
 70
     1
102
RTVSPost2010Prop34
280
     0
102
RTVSPost2010PropOp34
 70
     1
102
RTVSPost2010Prop35
280
     0
102
RTVSPost2010PropOp35
 70
     1
102
RTVSPost2010Prop36
280
     0
102
RTVSPost2010PropOp36
 70
     1
102
RTVSPost2010Prop37
 90
       50
102
RTVSPost2010PropOp37
 70
     1
102
RTVSPost2010Prop38
140
0.0
102
RTVSPost2010PropOp38
 70
     1
102
RTVSPost2010Prop39
140
1.0
102
RTVSPost2010PropOp39
 70
     1
102
RTVSPost2010Prop40
 90
        0
102
RTVSPost2010PropOp40
 70
     1
102
RTVSPost2010Prop41ColorIndex
 90
       18
102
RTVSPost2010Prop41ColorRGB
 90
        0
102
RTVSPost2010PropOp41
 70
     1
102
RTVSPost2010Prop42
 90
       50
102
RTVSPost2010PropOp42
 70
     1
102
RTVSPost2010Prop43
 90
        3
102
RTVSPost2010PropOp43
 70
     1
102
RTVSPost2010Prop44ColorIndex
 90
        5
102
RTVSPost2010Prop44ColorRGB
 90
      255
102
RTVSPost2010PropOp44
 70
     1
102
RTVSPost2010Prop45
280
     0
102
RTVSPost2010PropOp45
 70
     1
102
RTVSPost2010Prop46
 90
       50
102
RTVSPost2010PropOp46
 70
     1
102
RTVSPost2010Prop47
 90
       50
102
RTVSPost2010PropOp47
 70
     1
102
RTVSPost2010Prop48
 90
       50
102
RTVSPost2010PropOp48
 70
     1
102
RTVSPost2010Prop49
280
     0
102
RTVSPost2010PropOp49
 70
     1
102
RTVSPost2010Prop50
 90
       50
102
RTVSPost2010PropOp50
 70
     1
102
RTVSPost2010Prop51ColorIndex
 90
      256
102
RTVSPost2010Prop51ColorRGB
 90
-16777216
102
RTVSPost2010PropOp51
 70
     0
102
RTVSPost2010Prop52
140
1.0
102
RTVSPost2010PropOp52
 70
     0
102
RTVSPost2010Prop53
 90
        2
102
RTVSPost2010PropOp53
 70
     1
102
RTVSPost2010Prop54
  1
strokes_ogs.tif
102
RTVSPost2010PropOp54
 70
     1
102
RTVSPost2010Prop55
280
     0
102
RTVSPost2010PropOp55
 70
     1
102
RTVSPost2010Prop56
140
1.0
102
RTVSPost2010PropOp56
 70
     1
102
RTVSPost2010Prop57
140
1.0
102
RTVSPost2010PropOp57
 70
     1
  0
XRECORD
  5
908
102
{ACAD_REACTORS
330
907
102
}
330
907
100
AcDbXrecord
280
     1
102
RTVSPropertyOp0
 70
     1
102
RTVSPropertyOp1
 70
     1
102
RTVSPropertyOp2
 70
     1
102
RTVSPropertyOp3
 70
     1
102
RTVSPropertyOp4
 70
     1
102
RTVSPropertyOp5
 70
     1
102
RTVSPropertyOp6
 70
     1
102
RTVSPropertyOp7
 70
     1
102
RTVSPropertyOp8
 70
     1
102
RTVSPropertyOp9
 70
     1
102
RTVSPropertyOp10
 70
     1
102
RTVSPropertyOp11
 70
     1
102
RTVSPropertyOp12
 70
     1
102
RTVSPropertyOp13
 70
     1
102
RTVSPropertyOp14
 70
     1
102
RTVSPropertyOp15
 70
     1
102
RTVSPropertyOp16
 70
     1
102
RTVSPropertyOp17
 70
     1
102
RTVSPropertyOp18
 70
     1
102
RTVSPropertyOp19
 70
     1
102
RTVSPropertyOp20
 70
     1
102
RTVSPropertyOp21
 70
     1
102
RTVSPropertyOp22
 70
     1
102
RTVSPropertyOp23
 70
     1
102
RTVSPropertyOp24
 70
     1
102
RTVSPropertyOp25
 70
     1
102
RTVSPropertyOp26
 70
     1
102
RTVSPropertyOp27
 70
     1
102
RTVSPropertyOp28
 70
     1
102
RTVSPropertyOp29
 70
     1
102
RTVSPropertyOp30
 70
     1
102
RTVSPropertyOp31
 70
     1
102
RTVSPropertyOp32
 70
     1
102
RTVSPropertyOp33
 70
     1
102
RTVSPropertyOp34
 70
     1
102
RTVSPropertyOp35
 70
     1
102
RTVSPropertyOp36
 70
     1
102
RTVSPropertyOp37
 70
     1
102
RTVSPropertyOp38
 70
     1
102
RTVSPropertyOp39
 70
     1
102
RTVSPropertyOp40
 70
     1
102
RTVSPropertyOp41
 70
     1
102
RTVSPropertyOp42
 70
     1
102
RTVSPropertyOp43
 70
     1
102
RTVSPropertyOp44
 70
     1
102
RTVSPropertyOp45
 70
     1
102
RTVSPropertyOp46
 70
     1
102
RTVSPropertyOp47
 70
     1
102
RTVSPropertyOp48
 70
     1
102
RTVSPropertyOp49
 70
     1
102
RTVSPropertyOp50
 70
     1
102
RTVSPropertyOp51
 70
     0
102
RTVSPropertyOp52
 70
     0
102
RTVSPropertyOp53
 70
     1
102
RTVSPropertyOp54
 70
     1
102
RTVSPropertyOp55
 70
     1
102
RTVSPropertyOp56
 70
     1
102
RTVSPropertyOp57
 70
     1
102
RTVSPost2010Prop28
280
     0
102
RTVSPost2010PropOp28
 70
     1
102
RTVSPost2010Prop29
280
     1
102
RTVSPost2010PropOp29
 70
     1
102
RTVSPost2010Prop30
280
     1
102
RTVSPost2010PropOp30
 70
     1
102
RTVSPost2010Prop31
280
     0
102
RTVSPost2010PropOp31
 70
     1
102
RTVSPost2010Prop32
280
     0
102
RTVSPost2010PropOp32
 70
     1
102
RTVSPost2010Prop33
280
     0
102
RTVSPost2010PropOp33
 70
     1
102
RTVSPost2010Prop34
280
     0
102
RTVSPost2010PropOp34
 70
     1
102
RTVSPost2010Prop35
280
     0
102
RTVSPost2010PropOp35
 70
     1
102
RTVSPost2010Prop36
280
     0
102
RTVSPost2010PropOp36
 70
     1
102
RTVSPost2010Prop37
 90
       50
102
RTVSPost2010PropOp37
 70
     1
102
RTVSPost2010Prop38
140
0.0
102
RTVSPost2010PropOp38
 70
     1
102
RTVSPost2010Prop39
140
1.0
102
RTVSPost2010PropOp39
 70
     1
102
RTVSPost2010Prop40
 90
        0
102
RTVSPost2010PropOp40
 70
     1
102
RTVSPost2010Prop41ColorIndex
 90
       18
102
RTVSPost2010Prop41ColorRGB
 90
        0
102
RTVSPost2010PropOp41
 70
     1
102
RTVSPost2010Prop42
 90
       50
102
RTVSPost2010PropOp42
 70
     1
102
RTVSPost2010Prop43
 90
        3
102
RTVSPost2010PropOp43
 70
     1
102
RTVSPost2010Prop44ColorIndex
 90
        5
102
RTVSPost2010Prop44ColorRGB
 90
      255
102
RTVSPost2010PropOp44
 70
     1
102
RTVSPost2010Prop45
280
     0
102
RTVSPost2010PropOp45
 70
     1
102
RTVSPost2010Prop46
 90
       50
102
RTVSPost2010PropOp46
 70
     1
102
RTVSPost2010Prop47
 90
       50
102
RTVSPost2010PropOp47
 70
     1
102
RTVSPost2010Prop48
 90
       50
102
RTVSPost2010PropOp48
 70
     1
102
RTVSPost2010Prop49
280
     0
102
RTVSPost2010PropOp49
 70
     1
102
RTVSPost2010Prop50
 90
       50
102
RTVSPost2010PropOp50
 70
     1
102
RTVSPost2010Prop51ColorIndex
 90
      256
102
RTVSPost2010Prop51ColorRGB
 90
-16777216
102
RTVSPost2010PropOp51
 70
     0
102
RTVSPost2010Prop52
140
1.0
102
RTVSPost2010PropOp52
 70
     0
102
RTVSPost2010Prop53
 90
        2
102
RTVSPost2010PropOp53
 70
     1
102
RTVSPost2010Prop54
  1
strokes_ogs.tif
102
RTVSPost2010PropOp54
 70
     1
102
RTVSPost2010Prop55
280
     0
102
RTVSPost2010PropOp55
 70
     1
102
RTVSPost2010Prop56
140
1.0
102
RTVSPost2010PropOp56
 70
     1
102
RTVSPost2010Prop57
140
1.0
102
RTVSPost2010PropOp57
 70
     1
  0
XRECORD
  5
90A
102
{ACAD_REACTORS
330
909
102
}
330
909
100
AcDbXrecord
280
     1
102
RTVSPropertyOp0
 70
     1
102
RTVSPropertyOp1
 70
     1
102
RTVSPropertyOp2
 70
     1
102
RTVSPropertyOp3
 70
     1
102
RTVSPropertyOp4
 70
     1
102
RTVSPropertyOp5
 70
     1
102
RTVSPropertyOp6
 70
     1
102
RTVSPropertyOp7
 70
     1
102
RTVSPropertyOp8
 70
     1
102
RTVSPropertyOp9
 70
     1
102
RTVSPropertyOp10
 70
     1
102
RTVSPropertyOp11
 70
     1
102
RTVSPropertyOp12
 70
     1
102
RTVSPropertyOp13
 70
     1
102
RTVSPropertyOp14
 70
     1
102
RTVSPropertyOp15
 70
     1
102
RTVSPropertyOp16
 70
     1
102
RTVSPropertyOp17
 70
     1
102
RTVSPropertyOp18
 70
     1
102
RTVSPropertyOp19
 70
     1
102
RTVSPropertyOp20
 70
     1
102
RTVSPropertyOp21
 70
     1
102
RTVSPropertyOp22
 70
     1
102
RTVSPropertyOp23
 70
     1
102
RTVSPropertyOp24
 70
     1
102
RTVSPropertyOp25
 70
     1
102
RTVSPropertyOp26
 70
     1
102
RTVSPropertyOp27
 70
     1
102
RTVSPropertyOp28
 70
     1
102
RTVSPropertyOp29
 70
     1
102
RTVSPropertyOp30
 70
     1
102
RTVSPropertyOp31
 70
     1
102
RTVSPropertyOp32
 70
     1
102
RTVSPropertyOp33
 70
     1
102
RTVSPropertyOp34
 70
     1
102
RTVSPropertyOp35
 70
     1
102
RTVSPropertyOp36
 70
     1
102
RTVSPropertyOp37
 70
     1
102
RTVSPropertyOp38
 70
     1
102
RTVSPropertyOp39
 70
     1
102
RTVSPropertyOp40
 70
     1
102
RTVSPropertyOp41
 70
     1
102
RTVSPropertyOp42
 70
     1
102
RTVSPropertyOp43
 70
     1
102
RTVSPropertyOp44
 70
     1
102
RTVSPropertyOp45
 70
     1
102
RTVSPropertyOp46
 70
     1
102
RTVSPropertyOp47
 70
     1
102
RTVSPropertyOp48
 70
     1
102
RTVSPropertyOp49
 70
     1
102
RTVSPropertyOp50
 70
     1
102
RTVSPropertyOp51
 70
     0
102
RTVSPropertyOp52
 70
     0
102
RTVSPropertyOp53
 70
     1
102
RTVSPropertyOp54
 70
     1
102
RTVSPropertyOp55
 70
     1
102
RTVSPropertyOp56
 70
     1
102
RTVSPropertyOp57
 70
     1
102
RTVSPost2010Prop28
280
     0
102
RTVSPost2010PropOp28
 70
     1
102
RTVSPost2010Prop29
280
     1
102
RTVSPost2010PropOp29
 70
     1
102
RTVSPost2010Prop30
280
     1
102
RTVSPost2010PropOp30
 70
     1
102
RTVSPost2010Prop31
280
     0
102
RTVSPost2010PropOp31
 70
     1
102
RTVSPost2010Prop32
280
     0
102
RTVSPost2010PropOp32
 70
     1
102
RTVSPost2010Prop33
280
     0
102
RTVSPost2010PropOp33
 70
     1
102
RTVSPost2010Prop34
280
     0
102
RTVSPost2010PropOp34
 70
     1
102
RTVSPost2010Prop35
280
     0
102
RTVSPost2010PropOp35
 70
     1
102
RTVSPost2010Prop36
280
     0
102
RTVSPost2010PropOp36
 70
     1
102
RTVSPost2010Prop37
 90
       50
102
RTVSPost2010PropOp37
 70
     1
102
RTVSPost2010Prop38
140
0.0
102
RTVSPost2010PropOp38
 70
     1
102
RTVSPost2010Prop39
140
1.0
102
RTVSPost2010PropOp39
 70
     1
102
RTVSPost2010Prop40
 90
        0
102
RTVSPost2010PropOp40
 70
     1
102
RTVSPost2010Prop41ColorIndex
 90
       18
102
RTVSPost2010Prop41ColorRGB
 90
        0
102
RTVSPost2010PropOp41
 70
     1
102
RTVSPost2010Prop42
 90
       50
102
RTVSPost2010PropOp42
 70
     1
102
RTVSPost2010Prop43
 90
        3
102
RTVSPost2010PropOp43
 70
     1
102
RTVSPost2010Prop44ColorIndex
 90
        5
102
RTVSPost2010Prop44ColorRGB
 90
      255
102
RTVSPost2010PropOp44
 70
     1
102
RTVSPost2010Prop45
280
     0
102
RTVSPost2010PropOp45
 70
     1
102
RTVSPost2010Prop46
 90
       50
102
RTVSPost2010PropOp46
 70
     1
102
RTVSPost2010Prop47
 90
       50
102
RTVSPost2010PropOp47
 70
     1
102
RTVSPost2010Prop48
 90
       50
102
RTVSPost2010PropOp48
 70
     1
102
RTVSPost2010Prop49
280
     0
102
RTVSPost2010PropOp49
 70
     1
102
RTVSPost2010Prop50
 90
       50
102
RTVSPost2010PropOp50
 70
     1
102
RTVSPost2010Prop51ColorIndex
 90
      256
102
RTVSPost2010Prop51ColorRGB
 90
-16777216
102
RTVSPost2010PropOp51
 70
     0
102
RTVSPost2010Prop52
140
1.0
102
RTVSPost2010PropOp52
 70
     0
102
RTVSPost2010Prop53
 90
        2
102
RTVSPost2010PropOp53
 70
     1
102
RTVSPost2010Prop54
  1
strokes_ogs.tif
102
RTVSPost2010PropOp54
 70
     1
102
RTVSPost2010Prop55
280
     0
102
RTVSPost2010PropOp55
 70
     1
102
RTVSPost2010Prop56
140
1.0
102
RTVSPost2010PropOp56
 70
     1
102
RTVSPost2010Prop57
140
1.0
102
RTVSPost2010PropOp57
 70
     1
  0
XRECORD
  5
90C
102
{ACAD_REACTORS
330
90B
102
}
330
90B
100
AcDbXrecord
280
     1
102
RTVSPropertyOp0
 70
     1
102
RTVSPropertyOp1
 70
     1
102
RTVSPropertyOp2
 70
     1
102
RTVSPropertyOp3
 70
     1
102
RTVSPropertyOp4
 70
     1
102
RTVSPropertyOp5
 70
     1
102
RTVSPropertyOp6
 70
     1
102
RTVSPropertyOp7
 70
     1
102
RTVSPropertyOp8
 70
     1
102
RTVSPropertyOp9
 70
     1
102
RTVSPropertyOp10
 70
     1
102
RTVSPropertyOp11
 70
     1
102
RTVSPropertyOp12
 70
     1
102
RTVSPropertyOp13
 70
     1
102
RTVSPropertyOp14
 70
     1
102
RTVSPropertyOp15
 70
     1
102
RTVSPropertyOp16
 70
     1
102
RTVSPropertyOp17
 70
     1
102
RTVSPropertyOp18
 70
     1
102
RTVSPropertyOp19
 70
     1
102
RTVSPropertyOp20
 70
     1
102
RTVSPropertyOp21
 70
     1
102
RTVSPropertyOp22
 70
     1
102
RTVSPropertyOp23
 70
     1
102
RTVSPropertyOp24
 70
     1
102
RTVSPropertyOp25
 70
     1
102
RTVSPropertyOp26
 70
     1
102
RTVSPropertyOp27
 70
     1
102
RTVSPropertyOp28
 70
     1
102
RTVSPropertyOp29
 70
     1
102
RTVSPropertyOp30
 70
     1
102
RTVSPropertyOp31
 70
     1
102
RTVSPropertyOp32
 70
     1
102
RTVSPropertyOp33
 70
     1
102
RTVSPropertyOp34
 70
     1
102
RTVSPropertyOp35
 70
     1
102
RTVSPropertyOp36
 70
     1
102
RTVSPropertyOp37
 70
     1
102
RTVSPropertyOp38
 70
     1
102
RTVSPropertyOp39
 70
     1
102
RTVSPropertyOp40
 70
     1
102
RTVSPropertyOp41
 70
     1
102
RTVSPropertyOp42
 70
     1
102
RTVSPropertyOp43
 70
     1
102
RTVSPropertyOp44
 70
     1
102
RTVSPropertyOp45
 70
     1
102
RTVSPropertyOp46
 70
     1
102
RTVSPropertyOp47
 70
     1
102
RTVSPropertyOp48
 70
     1
102
RTVSPropertyOp49
 70
     1
102
RTVSPropertyOp50
 70
     1
102
RTVSPropertyOp51
 70
     0
102
RTVSPropertyOp52
 70
     0
102
RTVSPropertyOp53
 70
     1
102
RTVSPropertyOp54
 70
     1
102
RTVSPropertyOp55
 70
     1
102
RTVSPropertyOp56
 70
     1
102
RTVSPropertyOp57
 70
     1
102
RTVSPost2010Prop28
280
     0
102
RTVSPost2010PropOp28
 70
     1
102
RTVSPost2010Prop29
280
     1
102
RTVSPost2010PropOp29
 70
     1
102
RTVSPost2010Prop30
280
     1
102
RTVSPost2010PropOp30
 70
     1
102
RTVSPost2010Prop31
280
     0
102
RTVSPost2010PropOp31
 70
     1
102
RTVSPost2010Prop32
280
     0
102
RTVSPost2010PropOp32
 70
     1
102
RTVSPost2010Prop33
280
     0
102
RTVSPost2010PropOp33
 70
     1
102
RTVSPost2010Prop34
280
     0
102
RTVSPost2010PropOp34
 70
     1
102
RTVSPost2010Prop35
280
     0
102
RTVSPost2010PropOp35
 70
     1
102
RTVSPost2010Prop36
280
     0
102
RTVSPost2010PropOp36
 70
     1
102
RTVSPost2010Prop37
 90
       50
102
RTVSPost2010PropOp37
 70
     1
102
RTVSPost2010Prop38
140
0.0
102
RTVSPost2010PropOp38
 70
     1
102
RTVSPost2010Prop39
140
1.0
102
RTVSPost2010PropOp39
 70
     1
102
RTVSPost2010Prop40
 90
        0
102
RTVSPost2010PropOp40
 70
     1
102
RTVSPost2010Prop41ColorIndex
 90
       18
102
RTVSPost2010Prop41ColorRGB
 90
        0
102
RTVSPost2010PropOp41
 70
     1
102
RTVSPost2010Prop42
 90
       50
102
RTVSPost2010PropOp42
 70
     1
102
RTVSPost2010Prop43
 90
        3
102
RTVSPost2010PropOp43
 70
     1
102
RTVSPost2010Prop44ColorIndex
 90
        5
102
RTVSPost2010Prop44ColorRGB
 90
      255
102
RTVSPost2010PropOp44
 70
     1
102
RTVSPost2010Prop45
280
     0
102
RTVSPost2010PropOp45
 70
     1
102
RTVSPost2010Prop46
 90
       50
102
RTVSPost2010PropOp46
 70
     1
102
RTVSPost2010Prop47
 90
       50
102
RTVSPost2010PropOp47
 70
     1
102
RTVSPost2010Prop48
 90
       50
102
RTVSPost2010PropOp48
 70
     1
102
RTVSPost2010Prop49
280
     0
102
RTVSPost2010PropOp49
 70
     1
102
RTVSPost2010Prop50
 90
       50
102
RTVSPost2010PropOp50
 70
     1
102
RTVSPost2010Prop51ColorIndex
 90
      256
102
RTVSPost2010Prop51ColorRGB
 90
-16777216
102
RTVSPost2010PropOp51
 70
     0
102
RTVSPost2010Prop52
140
1.0
102
RTVSPost2010PropOp52
 70
     0
102
RTVSPost2010Prop53
 90
        2
102
RTVSPost2010PropOp53
 70
     1
102
RTVSPost2010Prop54
  1
strokes_ogs.tif
102
RTVSPost2010PropOp54
 70
     1
102
RTVSPost2010Prop55
280
     0
102
RTVSPost2010PropOp55
 70
     1
102
RTVSPost2010Prop56
140
1.0
102
RTVSPost2010PropOp56
 70
     1
102
RTVSPost2010Prop57
140
1.0
102
RTVSPost2010PropOp57
 70
     1
  0
XRECORD
  5
90E
102
{ACAD_REACTORS
330
90D
102
}
330
90D
100
AcDbXrecord
280
     1
102
RTVSPropertyOp0
 70
     1
102
RTVSPropertyOp1
 70
     1
102
RTVSPropertyOp2
 70
     1
102
RTVSPropertyOp3
 70
     1
102
RTVSPropertyOp4
 70
     1
102
RTVSPropertyOp5
 70
     1
102
RTVSPropertyOp6
 70
     1
102
RTVSPropertyOp7
 70
     1
102
RTVSPropertyOp8
 70
     1
102
RTVSPropertyOp9
 70
     1
102
RTVSPropertyOp10
 70
     1
102
RTVSPropertyOp11
 70
     1
102
RTVSPropertyOp12
 70
     1
102
RTVSPropertyOp13
 70
     1
102
RTVSPropertyOp14
 70
     1
102
RTVSPropertyOp15
 70
     1
102
RTVSPropertyOp16
 70
     1
102
RTVSPropertyOp17
 70
     1
102
RTVSPropertyOp18
 70
     1
102
RTVSPropertyOp19
 70
     1
102
RTVSPropertyOp20
 70
     1
102
RTVSPropertyOp21
 70
     1
102
RTVSPropertyOp22
 70
     1
102
RTVSPropertyOp23
 70
     1
102
RTVSPropertyOp24
 70
     1
102
RTVSPropertyOp25
 70
     1
102
RTVSPropertyOp26
 70
     1
102
RTVSPropertyOp27
 70
     1
102
RTVSPropertyOp28
 70
     1
102
RTVSPropertyOp29
 70
     1
102
RTVSPropertyOp30
 70
     1
102
RTVSPropertyOp31
 70
     1
102
RTVSPropertyOp32
 70
     1
102
RTVSPropertyOp33
 70
     1
102
RTVSPropertyOp34
 70
     1
102
RTVSPropertyOp35
 70
     1
102
RTVSPropertyOp36
 70
     1
102
RTVSPropertyOp37
 70
     1
102
RTVSPropertyOp38
 70
     1
102
RTVSPropertyOp39
 70
     1
102
RTVSPropertyOp40
 70
     1
102
RTVSPropertyOp41
 70
     1
102
RTVSPropertyOp42
 70
     1
102
RTVSPropertyOp43
 70
     1
102
RTVSPropertyOp44
 70
     1
102
RTVSPropertyOp45
 70
     1
102
RTVSPropertyOp46
 70
     1
102
RTVSPropertyOp47
 70
     1
102
RTVSPropertyOp48
 70
     1
102
RTVSPropertyOp49
 70
     1
102
RTVSPropertyOp50
 70
     1
102
RTVSPropertyOp51
 70
     0
102
RTVSPropertyOp52
 70
     0
102
RTVSPropertyOp53
 70
     1
102
RTVSPropertyOp54
 70
     1
102
RTVSPropertyOp55
 70
     1
102
RTVSPropertyOp56
 70
     1
102
RTVSPropertyOp57
 70
     1
102
RTVSPost2010Prop28
280
     0
102
RTVSPost2010PropOp28
 70
     1
102
RTVSPost2010Prop29
280
     1
102
RTVSPost2010PropOp29
 70
     1
102
RTVSPost2010Prop30
280
     1
102
RTVSPost2010PropOp30
 70
     1
102
RTVSPost2010Prop31
280
     0
102
RTVSPost2010PropOp31
 70
     1
102
RTVSPost2010Prop32
280
     0
102
RTVSPost2010PropOp32
 70
     1
102
RTVSPost2010Prop33
280
     0
102
RTVSPost2010PropOp33
 70
     1
102
RTVSPost2010Prop34
280
     0
102
RTVSPost2010PropOp34
 70
     1
102
RTVSPost2010Prop35
280
     0
102
RTVSPost2010PropOp35
 70
     1
102
RTVSPost2010Prop36
280
     0
102
RTVSPost2010PropOp36
 70
     1
102
RTVSPost2010Prop37
 90
       50
102
RTVSPost2010PropOp37
 70
     1
102
RTVSPost2010Prop38
140
0.0
102
RTVSPost2010PropOp38
 70
     1
102
RTVSPost2010Prop39
140
1.0
102
RTVSPost2010PropOp39
 70
     1
102
RTVSPost2010Prop40
 90
        0
102
RTVSPost2010PropOp40
 70
     1
102
RTVSPost2010Prop41ColorIndex
 90
       18
102
RTVSPost2010Prop41ColorRGB
 90
        0
102
RTVSPost2010PropOp41
 70
     1
102
RTVSPost2010Prop42
 90
       50
102
RTVSPost2010PropOp42
 70
     1
102
RTVSPost2010Prop43
 90
        3
102
RTVSPost2010PropOp43
 70
     1
102
RTVSPost2010Prop44ColorIndex
 90
        5
102
RTVSPost2010Prop44ColorRGB
 90
      255
102
RTVSPost2010PropOp44
 70
     1
102
RTVSPost2010Prop45
280
     0
102
RTVSPost2010PropOp45
 70
     1
102
RTVSPost2010Prop46
 90
       50
102
RTVSPost2010PropOp46
 70
     1
102
RTVSPost2010Prop47
 90
       50
102
RTVSPost2010PropOp47
 70
     1
102
RTVSPost2010Prop48
 90
       50
102
RTVSPost2010PropOp48
 70
     1
102
RTVSPost2010Prop49
280
     0
102
RTVSPost2010PropOp49
 70
     1
102
RTVSPost2010Prop50
 90
       50
102
RTVSPost2010PropOp50
 70
     1
102
RTVSPost2010Prop51ColorIndex
 90
      256
102
RTVSPost2010Prop51ColorRGB
 90
-16777216
102
RTVSPost2010PropOp51
 70
     0
102
RTVSPost2010Prop52
140
1.0
102
RTVSPost2010PropOp52
 70
     0
102
RTVSPost2010Prop53
 90
        2
102
RTVSPost2010PropOp53
 70
     1
102
RTVSPost2010Prop54
  1
strokes_ogs.tif
102
RTVSPost2010PropOp54
 70
     1
102
RTVSPost2010Prop55
280
     0
102
RTVSPost2010PropOp55
 70
     1
102
RTVSPost2010Prop56
140
1.0
102
RTVSPost2010PropOp56
 70
     1
102
RTVSPost2010Prop57
140
1.0
102
RTVSPost2010PropOp57
 70
     1
  0
XRECORD
  5
910
102
{ACAD_REACTORS
330
90F
102
}
330
90F
100
AcDbXrecord
280
     1
102
RTVSPropertyOp0
 70
     1
102
RTVSPropertyOp1
 70
     1
102
RTVSPropertyOp2
 70
     1
102
RTVSPropertyOp3
 70
     1
102
RTVSPropertyOp4
 70
     1
102
RTVSPropertyOp5
 70
     1
102
RTVSPropertyOp6
 70
     1
102
RTVSPropertyOp7
 70
     1
102
RTVSPropertyOp8
 70
     1
102
RTVSPropertyOp9
 70
     1
102
RTVSPropertyOp10
 70
     1
102
RTVSPropertyOp11
 70
     1
102
RTVSPropertyOp12
 70
     1
102
RTVSPropertyOp13
 70
     1
102
RTVSPropertyOp14
 70
     1
102
RTVSPropertyOp15
 70
     1
102
RTVSPropertyOp16
 70
     1
102
RTVSPropertyOp17
 70
     1
102
RTVSPropertyOp18
 70
     1
102
RTVSPropertyOp19
 70
     1
102
RTVSPropertyOp20
 70
     1
102
RTVSPropertyOp21
 70
     1
102
RTVSPropertyOp22
 70
     1
102
RTVSPropertyOp23
 70
     1
102
RTVSPropertyOp24
 70
     1
102
RTVSPropertyOp25
 70
     1
102
RTVSPropertyOp26
 70
     1
102
RTVSPropertyOp27
 70
     1
102
RTVSPropertyOp28
 70
     1
102
RTVSPropertyOp29
 70
     1
102
RTVSPropertyOp30
 70
     1
102
RTVSPropertyOp31
 70
     1
102
RTVSPropertyOp32
 70
     1
102
RTVSPropertyOp33
 70
     1
102
RTVSPropertyOp34
 70
     1
102
RTVSPropertyOp35
 70
     1
102
RTVSPropertyOp36
 70
     1
102
RTVSPropertyOp37
 70
     1
102
RTVSPropertyOp38
 70
     1
102
RTVSPropertyOp39
 70
     1
102
RTVSPropertyOp40
 70
     1
102
RTVSPropertyOp41
 70
     1
102
RTVSPropertyOp42
 70
     1
102
RTVSPropertyOp43
 70
     1
102
RTVSPropertyOp44
 70
     1
102
RTVSPropertyOp45
 70
     1
102
RTVSPropertyOp46
 70
     1
102
RTVSPropertyOp47
 70
     1
102
RTVSPropertyOp48
 70
     1
102
RTVSPropertyOp49
 70
     1
102
RTVSPropertyOp50
 70
     1
102
RTVSPropertyOp51
 70
     0
102
RTVSPropertyOp52
 70
     0
102
RTVSPropertyOp53
 70
     1
102
RTVSPropertyOp54
 70
     1
102
RTVSPropertyOp55
 70
     1
102
RTVSPropertyOp56
 70
     1
102
RTVSPropertyOp57
 70
     1
102
RTVSPost2010Prop28
280
     0
102
RTVSPost2010PropOp28
 70
     1
102
RTVSPost2010Prop29
280
     1
102
RTVSPost2010PropOp29
 70
     1
102
RTVSPost2010Prop30
280
     1
102
RTVSPost2010PropOp30
 70
     1
102
RTVSPost2010Prop31
280
     0
102
RTVSPost2010PropOp31
 70
     1
102
RTVSPost2010Prop32
280
     0
102
RTVSPost2010PropOp32
 70
     1
102
RTVSPost2010Prop33
280
     0
102
RTVSPost2010PropOp33
 70
     1
102
RTVSPost2010Prop34
280
     0
102
RTVSPost2010PropOp34
 70
     1
102
RTVSPost2010Prop35
280
     0
102
RTVSPost2010PropOp35
 70
     1
102
RTVSPost2010Prop36
280
     0
102
RTVSPost2010PropOp36
 70
     1
102
RTVSPost2010Prop37
 90
       50
102
RTVSPost2010PropOp37
 70
     1
102
RTVSPost2010Prop38
140
0.0
102
RTVSPost2010PropOp38
 70
     1
102
RTVSPost2010Prop39
140
1.0
102
RTVSPost2010PropOp39
 70
     1
102
RTVSPost2010Prop40
 90
        0
102
RTVSPost2010PropOp40
 70
     1
102
RTVSPost2010Prop41ColorIndex
 90
       18
102
RTVSPost2010Prop41ColorRGB
 90
        0
102
RTVSPost2010PropOp41
 70
     1
102
RTVSPost2010Prop42
 90
       50
102
RTVSPost2010PropOp42
 70
     1
102
RTVSPost2010Prop43
 90
        3
102
RTVSPost2010PropOp43
 70
     1
102
RTVSPost2010Prop44ColorIndex
 90
        5
102
RTVSPost2010Prop44ColorRGB
 90
      255
102
RTVSPost2010PropOp44
 70
     1
102
RTVSPost2010Prop45
280
     0
102
RTVSPost2010PropOp45
 70
     1
102
RTVSPost2010Prop46
 90
       50
102
RTVSPost2010PropOp46
 70
     1
102
RTVSPost2010Prop47
 90
       50
102
RTVSPost2010PropOp47
 70
     1
102
RTVSPost2010Prop48
 90
       50
102
RTVSPost2010PropOp48
 70
     1
102
RTVSPost2010Prop49
280
     0
102
RTVSPost2010PropOp49
 70
     1
102
RTVSPost2010Prop50
 90
       50
102
RTVSPost2010PropOp50
 70
     1
102
RTVSPost2010Prop51ColorIndex
 90
      256
102
RTVSPost2010Prop51ColorRGB
 90
-16777216
102
RTVSPost2010PropOp51
 70
     0
102
RTVSPost2010Prop52
140
1.0
102
RTVSPost2010PropOp52
 70
     0
102
RTVSPost2010Prop53
 90
        2
102
RTVSPost2010PropOp53
 70
     1
102
RTVSPost2010Prop54
  1
strokes_ogs.tif
102
RTVSPost2010PropOp54
 70
     1
102
RTVSPost2010Prop55
280
     0
102
RTVSPost2010PropOp55
 70
     1
102
RTVSPost2010Prop56
140
1.0
102
RTVSPost2010PropOp56
 70
     1
102
RTVSPost2010Prop57
140
1.0
102
RTVSPost2010PropOp57
 70
     1
  0
XRECORD
  5
912
102
{ACAD_REACTORS
330
911
102
}
330
911
100
AcDbXrecord
280
     1
102
RTVSPropertyOp0
 70
     1
102
RTVSPropertyOp1
 70
     1
102
RTVSPropertyOp2
 70
     1
102
RTVSPropertyOp3
 70
     1
102
RTVSPropertyOp4
 70
     1
102
RTVSPropertyOp5
 70
     1
102
RTVSPropertyOp6
 70
     1
102
RTVSPropertyOp7
 70
     1
102
RTVSPropertyOp8
 70
     1
102
RTVSPropertyOp9
 70
     1
102
RTVSPropertyOp10
 70
     1
102
RTVSPropertyOp11
 70
     1
102
RTVSPropertyOp12
 70
     1
102
RTVSPropertyOp13
 70
     1
102
RTVSPropertyOp14
 70
     1
102
RTVSPropertyOp15
 70
     1
102
RTVSPropertyOp16
 70
     1
102
RTVSPropertyOp17
 70
     1
102
RTVSPropertyOp18
 70
     1
102
RTVSPropertyOp19
 70
     1
102
RTVSPropertyOp20
 70
     1
102
RTVSPropertyOp21
 70
     1
102
RTVSPropertyOp22
 70
     1
102
RTVSPropertyOp23
 70
     1
102
RTVSPropertyOp24
 70
     1
102
RTVSPropertyOp25
 70
     1
102
RTVSPropertyOp26
 70
     1
102
RTVSPropertyOp27
 70
     1
102
RTVSPropertyOp28
 70
     1
102
RTVSPropertyOp29
 70
     1
102
RTVSPropertyOp30
 70
     1
102
RTVSPropertyOp31
 70
     1
102
RTVSPropertyOp32
 70
     1
102
RTVSPropertyOp33
 70
     1
102
RTVSPropertyOp34
 70
     1
102
RTVSPropertyOp35
 70
     1
102
RTVSPropertyOp36
 70
     1
102
RTVSPropertyOp37
 70
     1
102
RTVSPropertyOp38
 70
     1
102
RTVSPropertyOp39
 70
     1
102
RTVSPropertyOp40
 70
     1
102
RTVSPropertyOp41
 70
     1
102
RTVSPropertyOp42
 70
     1
102
RTVSPropertyOp43
 70
     1
102
RTVSPropertyOp44
 70
     1
102
RTVSPropertyOp45
 70
     1
102
RTVSPropertyOp46
 70
     1
102
RTVSPropertyOp47
 70
     1
102
RTVSPropertyOp48
 70
     1
102
RTVSPropertyOp49
 70
     1
102
RTVSPropertyOp50
 70
     1
102
RTVSPropertyOp51
 70
     0
102
RTVSPropertyOp52
 70
     0
102
RTVSPropertyOp53
 70
     1
102
RTVSPropertyOp54
 70
     1
102
RTVSPropertyOp55
 70
     1
102
RTVSPropertyOp56
 70
     1
102
RTVSPropertyOp57
 70
     1
102
RTVSPost2010Prop28
280
     0
102
RTVSPost2010PropOp28
 70
     1
102
RTVSPost2010Prop29
280
     1
102
RTVSPost2010PropOp29
 70
     1
102
RTVSPost2010Prop30
280
     1
102
RTVSPost2010PropOp30
 70
     1
102
RTVSPost2010Prop31
280
     0
102
RTVSPost2010PropOp31
 70
     1
102
RTVSPost2010Prop32
280
     0
102
RTVSPost2010PropOp32
 70
     1
102
RTVSPost2010Prop33
280
     0
102
RTVSPost2010PropOp33
 70
     1
102
RTVSPost2010Prop34
280
     0
102
RTVSPost2010PropOp34
 70
     1
102
RTVSPost2010Prop35
280
     0
102
RTVSPost2010PropOp35
 70
     1
102
RTVSPost2010Prop36
280
     0
102
RTVSPost2010PropOp36
 70
     1
102
RTVSPost2010Prop37
 90
       50
102
RTVSPost2010PropOp37
 70
     1
102
RTVSPost2010Prop38
140
0.0
102
RTVSPost2010PropOp38
 70
     1
102
RTVSPost2010Prop39
140
1.0
102
RTVSPost2010PropOp39
 70
     1
102
RTVSPost2010Prop40
 90
        0
102
RTVSPost2010PropOp40
 70
     1
102
RTVSPost2010Prop41ColorIndex
 90
       18
102
RTVSPost2010Prop41ColorRGB
 90
        0
102
RTVSPost2010PropOp41
 70
     1
102
RTVSPost2010Prop42
 90
       50
102
RTVSPost2010PropOp42
 70
     1
102
RTVSPost2010Prop43
 90
        3
102
RTVSPost2010PropOp43
 70
     1
102
RTVSPost2010Prop44ColorIndex
 90
        5
102
RTVSPost2010Prop44ColorRGB
 90
      255
102
RTVSPost2010PropOp44
 70
     1
102
RTVSPost2010Prop45
280
     0
102
RTVSPost2010PropOp45
 70
     1
102
RTVSPost2010Prop46
 90
       50
102
RTVSPost2010PropOp46
 70
     1
102
RTVSPost2010Prop47
 90
       50
102
RTVSPost2010PropOp47
 70
     1
102
RTVSPost2010Prop48
 90
       50
102
RTVSPost2010PropOp48
 70
     1
102
RTVSPost2010Prop49
280
     0
102
RTVSPost2010PropOp49
 70
     1
102
RTVSPost2010Prop50
 90
       50
102
RTVSPost2010PropOp50
 70
     1
102
RTVSPost2010Prop51ColorIndex
 90
      256
102
RTVSPost2010Prop51ColorRGB
 90
-16777216
102
RTVSPost2010PropOp51
 70
     0
102
RTVSPost2010Prop52
140
1.0
102
RTVSPost2010PropOp52
 70
     0
102
RTVSPost2010Prop53
 90
        2
102
RTVSPost2010PropOp53
 70
     1
102
RTVSPost2010Prop54
  1
strokes_ogs.tif
102
RTVSPost2010PropOp54
 70
     1
102
RTVSPost2010Prop55
280
     0
102
RTVSPost2010PropOp55
 70
     1
102
RTVSPost2010Prop56
140
1.0
102
RTVSPost2010PropOp56
 70
     1
102
RTVSPost2010Prop57
140
1.0
102
RTVSPost2010PropOp57
 70
     1
  0
XRECORD
  5
914
102
{ACAD_REACTORS
330
913
102
}
330
913
100
AcDbXrecord
280
     1
102
RTVSPropertyOp0
 70
     1
102
RTVSPropertyOp1
 70
     1
102
RTVSPropertyOp2
 70
     1
102
RTVSPropertyOp3
 70
     1
102
RTVSPropertyOp4
 70
     1
102
RTVSPropertyOp5
 70
     1
102
RTVSPropertyOp6
 70
     1
102
RTVSPropertyOp7
 70
     1
102
RTVSPropertyOp8
 70
     1
102
RTVSPropertyOp9
 70
     1
102
RTVSPropertyOp10
 70
     1
102
RTVSPropertyOp11
 70
     1
102
RTVSPropertyOp12
 70
     1
102
RTVSPropertyOp13
 70
     1
102
RTVSPropertyOp14
 70
     1
102
RTVSPropertyOp15
 70
     1
102
RTVSPropertyOp16
 70
     1
102
RTVSPropertyOp17
 70
     1
102
RTVSPropertyOp18
 70
     1
102
RTVSPropertyOp19
 70
     1
102
RTVSPropertyOp20
 70
     1
102
RTVSPropertyOp21
 70
     1
102
RTVSPropertyOp22
 70
     1
102
RTVSPropertyOp23
 70
     1
102
RTVSPropertyOp24
 70
     1
102
RTVSPropertyOp25
 70
     1
102
RTVSPropertyOp26
 70
     1
102
RTVSPropertyOp27
 70
     1
102
RTVSPropertyOp28
 70
     1
102
RTVSPropertyOp29
 70
     1
102
RTVSPropertyOp30
 70
     1
102
RTVSPropertyOp31
 70
     1
102
RTVSPropertyOp32
 70
     1
102
RTVSPropertyOp33
 70
     1
102
RTVSPropertyOp34
 70
     1
102
RTVSPropertyOp35
 70
     1
102
RTVSPropertyOp36
 70
     1
102
RTVSPropertyOp37
 70
     1
102
RTVSPropertyOp38
 70
     1
102
RTVSPropertyOp39
 70
     1
102
RTVSPropertyOp40
 70
     1
102
RTVSPropertyOp41
 70
     1
102
RTVSPropertyOp42
 70
     1
102
RTVSPropertyOp43
 70
     1
102
RTVSPropertyOp44
 70
     1
102
RTVSPropertyOp45
 70
     1
102
RTVSPropertyOp46
 70
     1
102
RTVSPropertyOp47
 70
     1
102
RTVSPropertyOp48
 70
     1
102
RTVSPropertyOp49
 70
     1
102
RTVSPropertyOp50
 70
     1
102
RTVSPropertyOp51
 70
     0
102
RTVSPropertyOp52
 70
     0
102
RTVSPropertyOp53
 70
     1
102
RTVSPropertyOp54
 70
     1
102
RTVSPropertyOp55
 70
     1
102
RTVSPropertyOp56
 70
     1
102
RTVSPropertyOp57
 70
     1
102
RTVSPost2010Prop28
280
     0
102
RTVSPost2010PropOp28
 70
     1
102
RTVSPost2010Prop29
280
     1
102
RTVSPost2010PropOp29
 70
     1
102
RTVSPost2010Prop30
280
     1
102
RTVSPost2010PropOp30
 70
     1
102
RTVSPost2010Prop31
280
     0
102
RTVSPost2010PropOp31
 70
     1
102
RTVSPost2010Prop32
280
     0
102
RTVSPost2010PropOp32
 70
     1
102
RTVSPost2010Prop33
280
     0
102
RTVSPost2010PropOp33
 70
     1
102
RTVSPost2010Prop34
280
     0
102
RTVSPost2010PropOp34
 70
     1
102
RTVSPost2010Prop35
280
     0
102
RTVSPost2010PropOp35
 70
     1
102
RTVSPost2010Prop36
280
     0
102
RTVSPost2010PropOp36
 70
     1
102
RTVSPost2010Prop37
 90
       50
102
RTVSPost2010PropOp37
 70
     1
102
RTVSPost2010Prop38
140
0.0
102
RTVSPost2010PropOp38
 70
     1
102
RTVSPost2010Prop39
140
1.0
102
RTVSPost2010PropOp39
 70
     1
102
RTVSPost2010Prop40
 90
        0
102
RTVSPost2010PropOp40
 70
     1
102
RTVSPost2010Prop41ColorIndex
 90
       18
102
RTVSPost2010Prop41ColorRGB
 90
        0
102
RTVSPost2010PropOp41
 70
     1
102
RTVSPost2010Prop42
 90
       50
102
RTVSPost2010PropOp42
 70
     1
102
RTVSPost2010Prop43
 90
        3
102
RTVSPost2010PropOp43
 70
     1
102
RTVSPost2010Prop44ColorIndex
 90
        5
102
RTVSPost2010Prop44ColorRGB
 90
      255
102
RTVSPost2010PropOp44
 70
     1
102
RTVSPost2010Prop45
280
     0
102
RTVSPost2010PropOp45
 70
     1
102
RTVSPost2010Prop46
 90
       50
102
RTVSPost2010PropOp46
 70
     1
102
RTVSPost2010Prop47
 90
       50
102
RTVSPost2010PropOp47
 70
     1
102
RTVSPost2010Prop48
 90
       50
102
RTVSPost2010PropOp48
 70
     1
102
RTVSPost2010Prop49
280
     0
102
RTVSPost2010PropOp49
 70
     1
102
RTVSPost2010Prop50
 90
       50
102
RTVSPost2010PropOp50
 70
     1
102
RTVSPost2010Prop51ColorIndex
 90
      256
102
RTVSPost2010Prop51ColorRGB
 90
-16777216
102
RTVSPost2010PropOp51
 70
     0
102
RTVSPost2010Prop52
140
1.0
102
RTVSPost2010PropOp52
 70
     0
102
RTVSPost2010Prop53
 90
        2
102
RTVSPost2010PropOp53
 70
     1
102
RTVSPost2010Prop54
  1
strokes_ogs.tif
102
RTVSPost2010PropOp54
 70
     1
102
RTVSPost2010Prop55
280
     0
102
RTVSPost2010PropOp55
 70
     1
102
RTVSPost2010Prop56
140
1.0
102
RTVSPost2010PropOp56
 70
     1
102
RTVSPost2010Prop57
140
1.0
102
RTVSPost2010PropOp57
 70
     1
  0
XRECORD
  5
916
102
{ACAD_REACTORS
330
915
102
}
330
915
100
AcDbXrecord
280
     1
102
RTVSPropertyOp0
 70
     1
102
RTVSPropertyOp1
 70
     1
102
RTVSPropertyOp2
 70
     1
102
RTVSPropertyOp3
 70
     1
102
RTVSPropertyOp4
 70
     1
102
RTVSPropertyOp5
 70
     1
102
RTVSPropertyOp6
 70
     1
102
RTVSPropertyOp7
 70
     1
102
RTVSPropertyOp8
 70
     1
102
RTVSPropertyOp9
 70
     1
102
RTVSPropertyOp10
 70
     1
102
RTVSPropertyOp11
 70
     1
102
RTVSPropertyOp12
 70
     1
102
RTVSPropertyOp13
 70
     1
102
RTVSPropertyOp14
 70
     1
102
RTVSPropertyOp15
 70
     1
102
RTVSPropertyOp16
 70
     1
102
RTVSPropertyOp17
 70
     1
102
RTVSPropertyOp18
 70
     1
102
RTVSPropertyOp19
 70
     1
102
RTVSPropertyOp20
 70
     1
102
RTVSPropertyOp21
 70
     1
102
RTVSPropertyOp22
 70
     1
102
RTVSPropertyOp23
 70
     1
102
RTVSPropertyOp24
 70
     1
102
RTVSPropertyOp25
 70
     1
102
RTVSPropertyOp26
 70
     1
102
RTVSPropertyOp27
 70
     1
102
RTVSPropertyOp28
 70
     1
102
RTVSPropertyOp29
 70
     1
102
RTVSPropertyOp30
 70
     1
102
RTVSPropertyOp31
 70
     1
102
RTVSPropertyOp32
 70
     1
102
RTVSPropertyOp33
 70
     1
102
RTVSPropertyOp34
 70
     1
102
RTVSPropertyOp35
 70
     1
102
RTVSPropertyOp36
 70
     1
102
RTVSPropertyOp37
 70
     1
102
RTVSPropertyOp38
 70
     1
102
RTVSPropertyOp39
 70
     1
102
RTVSPropertyOp40
 70
     1
102
RTVSPropertyOp41
 70
     1
102
RTVSPropertyOp42
 70
     1
102
RTVSPropertyOp43
 70
     1
102
RTVSPropertyOp44
 70
     1
102
RTVSPropertyOp45
 70
     1
102
RTVSPropertyOp46
 70
     1
102
RTVSPropertyOp47
 70
     1
102
RTVSPropertyOp48
 70
     1
102
RTVSPropertyOp49
 70
     1
102
RTVSPropertyOp50
 70
     1
102
RTVSPropertyOp51
 70
     0
102
RTVSPropertyOp52
 70
     0
102
RTVSPropertyOp53
 70
     1
102
RTVSPropertyOp54
 70
     1
102
RTVSPropertyOp55
 70
     1
102
RTVSPropertyOp56
 70
     1
102
RTVSPropertyOp57
 70
     1
102
RTVSPost2010Prop28
280
     0
102
RTVSPost2010PropOp28
 70
     1
102
RTVSPost2010Prop29
280
     1
102
RTVSPost2010PropOp29
 70
     1
102
RTVSPost2010Prop30
280
     1
102
RTVSPost2010PropOp30
 70
     1
102
RTVSPost2010Prop31
280
     0
102
RTVSPost2010PropOp31
 70
     1
102
RTVSPost2010Prop32
280
     0
102
RTVSPost2010PropOp32
 70
     1
102
RTVSPost2010Prop33
280
     0
102
RTVSPost2010PropOp33
 70
     1
102
RTVSPost2010Prop34
280
     0
102
RTVSPost2010PropOp34
 70
     1
102
RTVSPost2010Prop35
280
     0
102
RTVSPost2010PropOp35
 70
     1
102
RTVSPost2010Prop36
280
     0
102
RTVSPost2010PropOp36
 70
     1
102
RTVSPost2010Prop37
 90
       50
102
RTVSPost2010PropOp37
 70
     1
102
RTVSPost2010Prop38
140
0.0
102
RTVSPost2010PropOp38
 70
     1
102
RTVSPost2010Prop39
140
1.0
102
RTVSPost2010PropOp39
 70
     1
102
RTVSPost2010Prop40
 90
        0
102
RTVSPost2010PropOp40
 70
     1
102
RTVSPost2010Prop41ColorIndex
 90
       18
102
RTVSPost2010Prop41ColorRGB
 90
        0
102
RTVSPost2010PropOp41
 70
     1
102
RTVSPost2010Prop42
 90
       50
102
RTVSPost2010PropOp42
 70
     1
102
RTVSPost2010Prop43
 90
        3
102
RTVSPost2010PropOp43
 70
     1
102
RTVSPost2010Prop44ColorIndex
 90
        5
102
RTVSPost2010Prop44ColorRGB
 90
      255
102
RTVSPost2010PropOp44
 70
     1
102
RTVSPost2010Prop45
280
     0
102
RTVSPost2010PropOp45
 70
     1
102
RTVSPost2010Prop46
 90
       50
102
RTVSPost2010PropOp46
 70
     1
102
RTVSPost2010Prop47
 90
       50
102
RTVSPost2010PropOp47
 70
     1
102
RTVSPost2010Prop48
 90
       50
102
RTVSPost2010PropOp48
 70
     1
102
RTVSPost2010Prop49
280
     0
102
RTVSPost2010PropOp49
 70
     1
102
RTVSPost2010Prop50
 90
       50
102
RTVSPost2010PropOp50
 70
     1
102
RTVSPost2010Prop51ColorIndex
 90
      256
102
RTVSPost2010Prop51ColorRGB
 90
-16777216
102
RTVSPost2010PropOp51
 70
     0
102
RTVSPost2010Prop52
140
1.0
102
RTVSPost2010PropOp52
 70
     0
102
RTVSPost2010Prop53
 90
        2
102
RTVSPost2010PropOp53
 70
     1
102
RTVSPost2010Prop54
  1
strokes_ogs.tif
102
RTVSPost2010PropOp54
 70
     1
102
RTVSPost2010Prop55
280
     0
102
RTVSPost2010PropOp55
 70
     1
102
RTVSPost2010Prop56
140
1.0
102
RTVSPost2010PropOp56
 70
     1
102
RTVSPost2010Prop57
140
1.0
102
RTVSPost2010PropOp57
 70
     1
  0
ENDSEC
  0
EOF
