 0
SECTION
 2
HEADER
 9
$ACADVER
 1
AC1003
 9
$EXTMIN
 10
713.898010
 20
-98.101303
 9
$EXTMAX
 10
990.907410
 20
90.371315
 9
$LIMMIN
 10
713.897010
 20
-98.102303
 9
$LIMMAX
 10
990.908410
 20
90.372315
 9
$SNAPUNIT
 10
1
 20
1
 9
$SNAPBASE
 10
0
 20
0
 9
$GRIDMODE
 70
0
 9
$GRIDUNIT
 10
0
 20
0
 9
$LTSCALE
 40
4.616823
 9
$TEXTSIZE
 40
3.2
 9
$DIMTAD
 70
0
 9
$LUNITS
 70
2
 9
$LUPREC
 70
4
 9
$FILLETRAD
 40
0
 9
$AUNITS
 70
0
 9
$AUPREC
 70
0
 0
ENDSEC
 0
SECTION
 2
TABLES
 0
TABLE
 2
LTYPE
 70
25
  0
LTYPE
  2
CONTINUOUS
 70
    64
  3
Solid-line
 72
    65
 73
     0
 40
0.0
  0
LTYPE
  2
BORDER
 70
    64
  3
BORDER
 72
    65
 73
     6
 40
1.75
 49
0.5
 49
-0.25
 49
0.5
 49
-0.25
 49
0.0
 49
-0.25
  0
LTYPE
  2
BORDER2
 70
    64
  3
BORDER2
 72
    65
 73
     6
 40
0.875
 49
0.25
 49
-0.125
 49
0.25
 49
-0.125
 49
0.0
 49
-0.125
  0
LTYPE
  2
BORDERX2
 70
    64
  3
BORDERX2
 72
    65
 73
     6
 40
3.5
 49
1.0
 49
-0.5
 49
1.0
 49
-0.5
 49
0.0
 49
-0.5
  0
LTYPE
  2
CENTER
 70
    64
  3
CENTER
 72
    65
 73
     4
 40
2.0
 49
1.25
 49
-0.25
 49
0.25
 49
-0.25
  0
LTYPE
  2
CENTER2
 70
    64
  3
CENTER2
 72
    65
 73
     4
 40
1.125
 49
0.75
 49
-0.125
 49
0.125
 49
-0.125
  0
LTYPE
  2
CENTERX2
 70
    64
  3
CENTERX2
 72
    65
 73
     4
 40
4.0
 49
2.5
 49
-0.5
 49
0.5
 49
-0.5
  0
LTYPE
  2
DASHDOT
 70
    64
  3
DASHDOT
 72
    65
 73
     4
 40
1.0
 49
0.5
 49
-0.25
 49
0.0
 49
-0.25
  0
LTYPE
  2
DASHDOT2
 70
    64
  3
DASHDOT2
 72
    65
 73
     4
 40
0.5
 49
0.25
 49
-0.125
 49
0.0
 49
-0.125
  0
LTYPE
  2
DASHDOTX2
 70
    64
  3
DASHDOTX2
 72
    65
 73
     4
 40
2.0
 49
1.0
 49
-0.5
 49
0.0
 49
-0.5
  0
LTYPE
  2
DASHED
 70
    64
  3
DASHED
 72
    65
 73
     2
 40
0.75
 49
0.5
 49
-0.25
  0
LTYPE
  2
DASHED2
 70
    64
  3
DASHED2
 72
    65
 73
     2
 40
0.375
 49
0.25
 49
-0.125
  0
LTYPE
  2
DASHEDX2
 70
    64
  3
DASHEDX2
 72
    65
 73
     2
 40
1.5
 49
1.0
 49
-0.5
  0
LTYPE
  2
DIVIDE
 70
    64
  3
DIVIDE
 72
    65
 73
     6
 40
1.25
 49
0.5
 49
-0.25
 49
0.0
 49
-0.25
 49
0.0
 49
-0.25
  0
LTYPE
  2
DIVIDE2
 70
    64
  3
DIVIDE2
 72
    65
 73
     6
 40
0.625
 49
0.25
 49
-0.125
 49
0.0
 49
-0.125
 49
0.0
 49
-0.125
  0
LTYPE
  2
DIVIDEX2
 70
    64
  3
DIVIDEX2
 72
    65
 73
     6
 40
2.5
 49
1.0
 49
-0.5
 49
0.0
 49
-0.5
 49
0.0
 49
-0.5
  0
LTYPE
  2
DOT
 70
    64
  3
DOT
 72
    65
 73
     2
 40
0.25
 49
0.0
 49
-0.25
  0
LTYPE
  2
DOT2
 70
    64
  3
DOT2
 72
    65
 73
     2
 40
0.125
 49
0.0
 49
-0.125
  0
LTYPE
  2
DOTX2
 70
    64
  3
DOTX2
 72
    65
 73
     2
 40
0.5
 49
0.0
 49
-0.5
  0
LTYPE
  2
HIDDEN
 70
    64
  3
HIDDEN
 72
    65
 73
     2
 40
0.375
 49
0.25
 49
-0.125
  0
LTYPE
  2
HIDDEN2
 70
    64
  3
HIDDEN2
 72
    65
 73
     2
 40
0.1875
 49
0.125
 49
-0.0625
  0
LTYPE
  2
HIDDENX2
 70
    64
  3
HIDDENX2
 72
    65
 73
     2
 40
0.75
 49
0.5
 49
-0.25
  0
LTYPE
  2
PHANTOM
 70
    64
  3
PHANTOM
 72
    65
 73
     6
 40
2.5
 49
1.25
 49
-0.25
 49
0.25
 49
-0.25
 49
0.25
 49
-0.25
  0
LTYPE
  2
PHANTOM2
 70
    64
  3
PHANTOM2
 72
    65
 73
     6
 40
1.25
 49
0.625
 49
-0.125
 49
0.125
 49
-0.125
 49
0.125
 49
-0.125
  0
LTYPE
  2
PHANTOMX2
 70
    64
  3
PHANTOMX2
 72
    65
 73
     6
 40
5.0
 49
2.5
 49
-0.5
 49
0.5
 49
-0.5
 49
0.5
 49
-0.5
 0
ENDTAB
 0
TABLE
 2
LAYER
 70
5
 0
LAYER
 2
001
 70
0
 62
7
 6
CONTINUOUS
 0
LAYER
 2
002
 70
0
 62
7
 6
CONTINUOUS
 0
LAYER
 2
004
 70
0
 62
7
 6
CONTINUOUS
 0
LAYER
 2
005
 70
0
 62
7
 6
CONTINUOUS
 0
LAYER
 2
010
 70
0
 62
7
 6
CONTINUOUS
 0
ENDTAB
 0
TABLE
 2
STYLE
 70
2
 0
STYLE
 2
STANDARD
 70
0
 40
0
 41
1
 50
0
 71
0
 42
.2
 3
TXT
 4
BIGFONT
 0
STYLE
 2
TATEGAKI
 70
4
 40
1
 41
1
 50
0
 71
0
 42
.2
 3
TXT
 4
BIGFONT
 0
ENDTAB
 0
ENDSEC
 0
SECTION
 2
BLOCKS
 0
BLOCK
 8
0
 2
ARROW
 70
0
 10
0
 20
0
 0
POLYLINE
 8
0
 6
CONTINUOUS
 62
0
 66
1
 0
VERTEX
 8
0
 6
CONTINUOUS
 62
0
 10
2.000000
 20
0.535898
 0
VERTEX
 8
0
 6
CONTINUOUS
 62
0
 10
0.0
 20
0.0
 0
VERTEX
 8
0
 6
CONTINUOUS
 62
0
 10
2.000000
 20
-0.535898
 0
SEQEND
 8
0
 0
ENDBLK
 8
0
 0
BLOCK
 8
001
 2
*D0
 70
1
 10
0.0
 20
0.0
 0
LINE
 8
001
 10
890.453957
 20
32.336153
 11
900.597820
 21
39.438962
 0
LINE
 8
001
 10
899.057604
 20
20.048872
 11
909.201467
 21
27.151682
 0
LINE
 8
001
 10
899.778668
 20
38.865386
 11
908.382315
 21
26.578105
 0
INSERT
 8
001
 62
7
 2
ARROW
 6
BYBLOCK
 10
899.778668
 20
38.865386
 41
1.000000
 42
1.000000
 50
305.000000
 0
INSERT
 8
001
 62
7
 2
ARROW
 6
BYBLOCK
 10
908.382315
 20
26.578105
 41
1.000000
 42
1.000000
 50
125.000000
 0
TEXT
 8
001
 10
903.163598
 20
35.774651
 40
3.200000
 1
15
 50
304.999994
 41
1.031250
 7
STANDARD
 0
POINT
 8
001
 10
889.634805
 20
31.762576
 0
POINT
 8
001
 10
898.238452
 20
19.475296
 0
POINT
 8
001
 10
908.382315
 20
26.578105
 0
ENDBLK
 8
001
 0
BLOCK
 8
001
 2
*D1
 70
1
 10
0.0
 20
0.0
 0
LINE
 8
001
 10
916.982704
 20
-4.805567
 11
923.891533
 21
0.104530
 0
LINE
 8
001
 10
923.341338
 20
-13.752584
 11
930.250168
 21
-8.842488
 0
LINE
 8
001
 10
923.076419
 20
-0.474771
 11
929.435054
 21
-9.421788
 0
INSERT
 8
001
 62
7
 2
ARROW
 6
BYBLOCK
 10
923.076419
 20
-0.474771
 41
1.000000
 42
1.000000
 50
125.401361
 0
INSERT
 8
001
 62
7
 2
ARROW
 6
BYBLOCK
 10
929.435054
 20
-9.421788
 41
1.000000
 42
1.000000
 50
305.401361
 0
TEXT
 8
001
 10
931.988069
 20
-11.287830
 40
3.200000
 1
11
 50
305.401363
 41
1.289062
 7
STANDARD
 0
POINT
 8
001
 10
916.167590
 20
-5.384867
 0
POINT
 8
001
 10
922.526224
 20
-14.331885
 0
POINT
 8
001
 10
929.435054
 20
-9.421788
 0
LINE
 8
001
 10
923.076419
 20
-0.474771
 11
921.338518
 21
1.970571
 0
LINE
 8
001
 10
929.435054
 20
-9.421788
 11
934.359108
 21
-16.350258
 0
ENDBLK
 8
001
 0
BLOCK
 8
001
 2
*D2
 70
1
 10
0.0
 20
0.0
 0
LINE
 8
001
 10
885.579335
 20
-21.919896
 11
888.269892
 21
-20.035947
 0
LINE
 8
001
 10
891.315099
 20
-30.111416
 11
894.005656
 21
-28.227468
 0
LINE
 8
001
 10
887.450740
 20
-20.609524
 11
893.186504
 21
-28.801044
 0
INSERT
 8
001
 62
7
 2
ARROW
 6
BYBLOCK
 10
887.450740
 20
-20.609524
 41
1.000000
 42
1.000000
 50
125.000000
 0
INSERT
 8
001
 62
7
 2
ARROW
 6
BYBLOCK
 10
893.186504
 20
-28.801044
 41
1.000000
 42
1.000000
 50
305.000000
 0
TEXT
 8
001
 10
895.726385
 20
-30.684924
 40
3.200000
 1
10
 50
304.999994
 41
1.145833
 7
STANDARD
 0
POINT
 8
001
 10
884.760183
 20
-22.493472
 0
POINT
 8
001
 10
890.495947
 20
-30.684993
 0
POINT
 8
001
 10
893.186504
 20
-28.801044
 0
LINE
 8
001
 10
887.450740
 20
-20.609524
 11
885.730010
 21
-18.152068
 0
LINE
 8
001
 10
893.186504
 20
-28.801044
 11
898.061904
 21
-35.763837
 0
ENDBLK
 8
001
 0
BLOCK
 8
004
 2
*D3
 70
1
 10
0.0
 20
0.0
 0
LINE
 8
004
 10
786.283050
 20
56.411089
 11
784.723016
 21
57.662606
 0
INSERT
 8
004
 62
7
 2
ARROW
 6
BYBLOCK
 10
784.723016
 20
57.662606
 41
1.000000
 42
1.000000
 50
141.262139
 0
TEXT
 8
004
 10
774.427572
 20
67.204011
 40
3.200000
 1
R1
 50
321.262155
 41
1.031250
 7
STANDARD
 0
POINT
 8
004
 10
784.723016
 20
57.662606
 0
POINT
 8
004
 10
786.283050
 20
56.411089
 0
LINE
 8
004
 10
784.723016
 20
57.662606
 11
773.801812
 21
66.423995
 0
ENDBLK
 8
004
 0
BLOCK
 8
004
 2
*D4
 70
1
 10
0.0
 20
0.0
 0
LINE
 8
004
 10
740.016309
 20
-3.849227
 11
739.296658
 21
-3.154891
 0
INSERT
 8
004
 62
7
 2
ARROW
 6
BYBLOCK
 10
739.296658
 20
-3.154891
 41
1.000000
 42
1.000000
 50
136.025649
 0
TEXT
 8
004
 10
733.873964
 20
3.466618
 40
3.200000
 1
R1
 50
316.025640
 41
1.031250
 7
STANDARD
 0
POINT
 8
004
 10
739.296658
 20
-3.154891
 0
POINT
 8
004
 10
740.016309
 20
-3.849227
 0
LINE
 8
004
 10
739.296658
 20
-3.154891
 11
733.179627
 21
2.746967
 0
ENDBLK
 8
004
 0
BLOCK
 8
004
 2
*D5
 70
1
 10
0.0
 20
0.0
 0
LINE
 8
004
 10
890.453957
 20
32.336153
 11
897.856055
 21
37.519158
 0
LINE
 8
004
 10
890.453957
 20
32.336153
 11
897.856055
 21
37.519158
 0
LINE
 8
004
 10
846.016309
 20
62.505221
 11
846.016309
 21
70.160264
 0
LINE
 8
004
 10
846.016309
 20
62.505221
 11
846.016309
 21
70.160264
 0
ARC
 8
004
 10
846.016309
 20
1.220577
 40
62.284644
 50
35.000000
 51
90.000000
 0
INSERT
 8
004
 62
7
 2
ARROW
 6
BYBLOCK
 10
897.036903
 20
36.945581
 41
1.000000
 42
1.000000
 50
125.000000
 0
INSERT
 8
004
 62
7
 2
ARROW
 6
BYBLOCK
 10
846.016309
 20
63.505221
 41
1.000000
 42
1.000000
 0
TEXT
 8
004
 10
871.578986
 20
59.259455
 40
3.200000
 1
55%%d
 50
332.500002
 41
0.966797
 7
STANDARD
 0
POINT
 8
004
 10
890.453957
 20
32.336153
 0
POINT
 8
004
 10
846.016309
 20
1.220577
 0
POINT
 8
004
 10
846.016309
 20
1.220577
 0
POINT
 8
004
 10
846.016309
 20
62.505221
 0
ARC
 8
004
 10
846.016309
 20
1.220577
 40
62.284644
 50
35.000000
 51
90.000000
 0
ARC
 8
004
 10
846.016309
 20
1.220577
 40
62.284644
 50
35.000000
 51
90.000000
 0
ENDBLK
 8
004
 0
BLOCK
 8
004
 2
*D6
 70
1
 10
0.0
 20
0.0
 0
LINE
 8
004
 10
885.213594
 20
12.796742
 11
902.427804
 21
24.850261
 0
LINE
 8
004
 10
897.486942
 20
18.949083
 11
903.574957
 21
23.211957
 0
LINE
 8
004
 10
901.608652
 20
24.276685
 11
902.755805
 21
22.638380
 0
INSERT
 8
004
 62
7
 2
ARROW
 6
BYBLOCK
 10
901.608652
 20
24.276685
 41
1.000000
 42
1.000000
 50
125.000000
 0
INSERT
 8
004
 62
7
 2
ARROW
 6
BYBLOCK
 10
902.755805
 20
22.638380
 41
1.000000
 42
1.000000
 50
305.000000
 0
TEXT
 8
004
 10
905.295686
 20
20.754500
 40
3.200000
 1
2
 50
304.999966
 41
0.859375
 7
STANDARD
 0
POINT
 8
004
 10
884.394442
 20
12.223165
 0
POINT
 8
004
 10
896.667790
 20
18.375506
 0
POINT
 8
004
 10
902.755805
 20
22.638380
 0
LINE
 8
004
 10
901.608652
 20
24.276685
 11
899.887923
 21
26.734141
 0
LINE
 8
004
 10
902.755805
 20
22.638380
 11
906.053871
 21
17.928254
 0
ENDBLK
 8
004
 0
BLOCK
 8
004
 2
*D7
 70
1
 10
0.0
 20
0.0
 0
LINE
 8
004
 10
888.883295
 20
31.236363
 11
892.956207
 21
34.088247
 0
LINE
 8
004
 10
878.904253
 20
21.807414
 11
894.103360
 21
32.449943
 0
LINE
 8
004
 10
892.137055
 20
33.514670
 11
893.284208
 21
31.876366
 0
INSERT
 8
004
 62
7
 2
ARROW
 6
BYBLOCK
 10
892.137055
 20
33.514670
 41
1.000000
 42
1.000000
 50
125.000000
 0
INSERT
 8
004
 62
7
 2
ARROW
 6
BYBLOCK
 10
893.284208
 20
31.876366
 41
1.000000
 42
1.000000
 50
305.000000
 0
TEXT
 8
004
 10
889.658143
 20
38.798371
 40
3.200000
 1
2
 50
304.999966
 41
0.859375
 7
STANDARD
 0
POINT
 8
004
 10
888.064143
 20
30.662787
 0
POINT
 8
004
 10
878.085101
 20
21.233838
 0
POINT
 8
004
 10
893.284208
 20
31.876366
 0
LINE
 8
004
 10
892.137055
 20
33.514670
 11
888.838991
 21
38.224794
 0
LINE
 8
004
 10
893.284208
 20
31.876366
 11
895.004937
 21
29.418910
 0
ENDBLK
 8
004
 0
BLOCK
 8
004
 2
*D8
 70
1
 10
0.0
 20
0.0
 0
LINE
 8
004
 10
869.740446
 20
-25.451320
 11
887.761791
 21
-12.832638
 0
INSERT
 8
004
 62
7
 2
ARROW
 6
BYBLOCK
 10
869.740446
 20
-25.451320
 41
1.000000
 42
1.000000
 50
35.000000
 0
INSERT
 8
004
 62
7
 2
ARROW
 6
BYBLOCK
 10
887.761791
 20
-12.832638
 41
1.000000
 42
1.000000
 50
215.000000
 0
TEXT
 8
004
 10
875.924874
 20
-19.900162
 40
3.200000
 1
22
 50
35.000000
 41
0.859375
 7
STANDARD
 0
POINT
 8
004
 10
875.586360
 20
-33.800151
 0
POINT
 8
004
 10
893.607705
 20
-21.181469
 0
POINT
 8
004
 10
887.761791
 20
-12.832638
 0
ENDBLK
 8
004
 0
BLOCK
 8
004
 2
*D9
 70
1
 10
0.0
 20
0.0
 0
LINE
 8
004
 10
906.089510
 20
-6.897535
 11
902.274885
 21
-1.449686
 0
LINE
 8
004
 10
898.752701
 20
-5.136720
 11
902.848461
 21
-2.268838
 0
INSERT
 8
004
 62
7
 2
ARROW
 6
BYBLOCK
 10
898.752701
 20
-5.136720
 41
1.000000
 42
1.000000
 50
215.000000
 0
INSERT
 8
004
 62
7
 2
ARROW
 6
BYBLOCK
 10
902.848461
 20
-2.268838
 41
1.000000
 42
1.000000
 50
35.000000
 0
TEXT
 8
004
 10
904.732341
 20
0.271044
 40
3.200000
 1
5
 50
34.999976
 41
0.859375
 7
STANDARD
 0
POINT
 8
004
 10
905.745768
 20
-15.123855
 0
POINT
 8
004
 10
906.663087
 20
-7.716687
 0
POINT
 8
004
 10
902.848461
 20
-2.268838
 0
LINE
 8
004
 10
898.752701
 20
-5.136720
 11
896.295245
 21
-6.857449
 0
LINE
 8
004
 10
902.848461
 20
-2.268838
 11
907.558587
 21
1.029228
 0
ENDBLK
 8
004
 0
BLOCK
 8
004
 2
*D10
 70
1
 10
0.0
 20
0.0
 0
LINE
 8
004
 10
858.318543
 20
-23.769874
 11
905.423787
 21
9.213573
 0
INSERT
 8
004
 62
7
 2
ARROW
 6
BYBLOCK
 10
858.318543
 20
-23.769874
 41
1.000000
 42
1.000000
 50
35.000000
 0
INSERT
 8
004
 62
7
 2
ARROW
 6
BYBLOCK
 10
905.423787
 20
9.213573
 41
1.000000
 42
1.000000
 50
215.000000
 0
TEXT
 8
004
 10
876.792252
 20
-9.613669
 40
3.200000
 1
57.5
 50
35.000000
 41
1.031250
 7
STANDARD
 0
POINT
 8
004
 10
850.272843
 20
-12.279423
 0
POINT
 8
004
 10
898.238452
 20
19.475296
 0
POINT
 8
004
 10
905.423787
 20
9.213573
 0
ENDBLK
 8
004
 0
BLOCK
 8
004
 2
*D11
 70
1
 10
0.0
 20
0.0
 0
LINE
 8
004
 10
738.016309
 20
-8.029423
 11
724.290854
 21
-8.029423
 0
LINE
 8
004
 10
738.016309
 20
-3.029423
 11
724.290854
 21
-3.029423
 0
LINE
 8
004
 10
725.290854
 20
-8.029423
 11
725.290854
 21
-3.029423
 0
INSERT
 8
004
 62
7
 2
ARROW
 6
BYBLOCK
 10
725.290854
 20
-8.029423
 41
1.000000
 42
1.000000
 50
270.000000
 0
INSERT
 8
004
 62
7
 2
ARROW
 6
BYBLOCK
 10
725.290854
 20
-3.029423
 41
1.000000
 42
1.000000
 50
90.000000
 0
TEXT
 8
004
 10
724.290854
 20
-13.779423
 40
3.200000
 1
5
 50
90.000003
 41
0.859375
 7
STANDARD
 0
POINT
 8
004
 10
739.016309
 20
-8.029423
 0
POINT
 8
004
 10
739.016309
 20
-3.029423
 0
POINT
 8
004
 10
725.290854
 20
-3.029423
 0
LINE
 8
004
 10
725.290854
 20
-8.029423
 11
725.290854
 21
-13.779423
 0
LINE
 8
004
 10
725.290854
 20
-3.029423
 11
725.290854
 21
-0.029423
 0
ENDBLK
 8
004
 0
BLOCK
 8
004
 2
*D12
 70
1
 10
0.0
 20
0.0
 0
LINE
 8
004
 10
753.555847
 20
-10.029423
 11
718.195204
 21
-10.029423
 0
LINE
 8
004
 10
755.813830
 20
-1.029423
 11
718.195204
 21
-1.029423
 0
LINE
 8
004
 10
719.195204
 20
-10.029423
 11
719.195204
 21
-1.029423
 0
INSERT
 8
004
 62
7
 2
ARROW
 6
BYBLOCK
 10
719.195204
 20
-10.029423
 41
1.000000
 42
1.000000
 50
90.000000
 0
INSERT
 8
004
 62
7
 2
ARROW
 6
BYBLOCK
 10
719.195204
 20
-1.029423
 41
1.000000
 42
1.000000
 50
270.000000
 0
TEXT
 8
004
 10
718.195204
 20
-6.904423
 40
3.200000
 1
9
 50
90.000003
 41
0.859375
 7
STANDARD
 0
POINT
 8
004
 10
754.555847
 20
-10.029423
 0
POINT
 8
004
 10
756.813830
 20
-1.029423
 0
POINT
 8
004
 10
719.195204
 20
-1.029423
 0
ENDBLK
 8
004
 0
BLOCK
 8
004
 2
*D13
 70
1
 10
0.0
 20
0.0
 0
LINE
 8
004
 10
739.016309
 20
-6.529423
 11
739.016309
 21
-24.283131
 0
LINE
 8
004
 10
835.016309
 20
-7.529423
 11
835.016309
 21
-24.283131
 0
LINE
 8
004
 10
739.016309
 20
-23.283131
 11
835.016309
 21
-23.283131
 0
INSERT
 8
004
 62
7
 2
ARROW
 6
BYBLOCK
 10
739.016309
 20
-23.283131
 41
1.000000
 42
1.000000
 0
INSERT
 8
004
 62
7
 2
ARROW
 6
BYBLOCK
 10
835.016309
 20
-23.283131
 41
1.000000
 42
1.000000
 50
180.000000
 0
TEXT
 8
004
 10
784.266309
 20
-22.283131
 40
3.200000
 1
96
 41
0.859375
 7
STANDARD
 0
POINT
 8
004
 10
739.016309
 20
-5.529423
 0
POINT
 8
004
 10
835.016309
 20
-6.529423
 0
POINT
 8
004
 10
835.016309
 20
-23.283131
 0
ENDBLK
 8
004
 0
BLOCK
 8
004
 2
*D14
 70
1
 10
0.0
 20
0.0
 0
LINE
 8
004
 10
739.016309
 20
-6.529423
 11
739.016309
 21
-30.521878
 0
LINE
 8
004
 10
846.016309
 20
-6.529423
 11
846.016309
 21
-30.521878
 0
LINE
 8
004
 10
739.016309
 20
-29.521878
 11
846.016309
 21
-29.521878
 0
INSERT
 8
004
 62
7
 2
ARROW
 6
BYBLOCK
 10
739.016309
 20
-29.521878
 41
1.000000
 42
1.000000
 0
INSERT
 8
004
 62
7
 2
ARROW
 6
BYBLOCK
 10
846.016309
 20
-29.521878
 41
1.000000
 42
1.000000
 50
180.000000
 0
TEXT
 8
004
 10
788.391309
 20
-28.521878
 40
3.200000
 1
107
 41
1.031250
 7
STANDARD
 0
POINT
 8
004
 10
739.016309
 20
-5.529423
 0
POINT
 8
004
 10
846.016309
 20
-5.529423
 0
POINT
 8
004
 10
846.016309
 20
-29.521878
 0
ENDBLK
 8
004
 0
BLOCK
 8
004
 2
*D15
 70
1
 10
0.0
 20
0.0
 0
LINE
 8
004
 10
739.016309
 20
-8.149879
 11
739.016309
 21
-36.766520
 0
LINE
 8
004
 10
850.272843
 20
-13.279423
 11
850.272843
 21
-36.766520
 0
LINE
 8
004
 10
739.016309
 20
-35.766520
 11
850.272843
 21
-35.766520
 0
INSERT
 8
004
 62
7
 2
ARROW
 6
BYBLOCK
 10
739.016309
 20
-35.766520
 41
1.000000
 42
1.000000
 0
INSERT
 8
004
 62
7
 2
ARROW
 6
BYBLOCK
 10
850.272843
 20
-35.766520
 41
1.000000
 42
1.000000
 50
180.000000
 0
TEXT
 8
004
 10
787.769576
 20
-34.766520
 40
3.200000
 1
111.3
 41
1.289062
 7
STANDARD
 0
POINT
 8
004
 10
739.016309
 20
-7.149879
 0
POINT
 8
004
 10
850.272843
 20
-12.279423
 0
POINT
 8
004
 10
850.272843
 20
-35.766520
 0
ENDBLK
 8
004
 0
BLOCK
 8
004
 2
*D16
 70
1
 10
0.0
 20
0.0
 0
LINE
 8
004
 10
748.016309
 20
-63.452158
 11
730.923162
 21
-63.452158
 0
LINE
 8
004
 10
738.016309
 20
-61.952158
 11
730.923162
 21
-61.952158
 0
LINE
 8
004
 10
731.923162
 20
-63.452158
 11
731.923162
 21
-61.952158
 0
INSERT
 8
004
 62
7
 2
ARROW
 6
BYBLOCK
 10
731.923162
 20
-63.452158
 41
1.000000
 42
1.000000
 50
270.000000
 0
INSERT
 8
004
 62
7
 2
ARROW
 6
BYBLOCK
 10
731.923162
 20
-61.952158
 41
1.000000
 42
1.000000
 50
90.000000
 0
TEXT
 8
004
 10
730.923162
 20
-57.191368
 40
3.200000
 1
1.5
 50
90.000003
 41
1.289062
 7
STANDARD
 0
POINT
 8
004
 10
749.016309
 20
-63.452158
 0
POINT
 8
004
 10
739.016309
 20
-61.952158
 0
POINT
 8
004
 10
731.923162
 20
-61.952158
 0
LINE
 8
004
 10
731.923162
 20
-63.452158
 11
731.923162
 21
-66.452158
 0
LINE
 8
004
 10
731.923162
 20
-61.952158
 11
731.923162
 21
-48.941368
 0
ENDBLK
 8
004
 0
BLOCK
 8
004
 2
*D17
 70
1
 10
0.0
 20
0.0
 0
LINE
 8
004
 10
739.016309
 20
-63.452158
 11
735.987707
 21
-63.452158
 0
LINE
 8
004
 10
739.016309
 20
-62.752158
 11
735.987707
 21
-62.752158
 0
LINE
 8
004
 10
736.987707
 20
-63.452158
 11
736.987707
 21
-62.752158
 0
INSERT
 8
004
 62
7
 2
ARROW
 6
BYBLOCK
 10
736.987707
 20
-63.452158
 41
1.000000
 42
1.000000
 50
270.000000
 0
INSERT
 8
004
 62
7
 2
ARROW
 6
BYBLOCK
 10
736.987707
 20
-62.752158
 41
1.000000
 42
1.000000
 50
90.000000
 0
TEXT
 8
004
 10
735.987707
 20
-59.293571
 40
3.200000
 1
0.7
 50
90.000003
 41
1.189904
 7
STANDARD
 0
POINT
 8
004
 10
740.016309
 20
-63.452158
 0
POINT
 8
004
 10
740.016309
 20
-62.752158
 0
POINT
 8
004
 10
736.987707
 20
-62.752158
 0
LINE
 8
004
 10
736.987707
 20
-63.452158
 11
736.987707
 21
-66.452158
 0
LINE
 8
004
 10
736.987707
 20
-62.752158
 11
736.987707
 21
-51.043571
 0
ENDBLK
 8
004
 0
BLOCK
 8
004
 2
*D18
 70
1
 10
0.0
 20
0.0
 0
LINE
 8
004
 10
833.013830
 20
-58.452158
 11
833.013830
 21
-51.121995
 0
LINE
 8
004
 10
835.016309
 20
-58.952158
 11
835.016309
 21
-51.121995
 0
LINE
 8
004
 10
833.013830
 20
-52.121995
 11
835.016309
 21
-52.121995
 0
INSERT
 8
004
 62
7
 2
ARROW
 6
BYBLOCK
 10
833.013830
 20
-52.121995
 41
1.000000
 42
1.000000
 50
180.000000
 0
INSERT
 8
004
 62
7
 2
ARROW
 6
BYBLOCK
 10
835.016309
 20
-52.121995
 41
1.000000
 42
1.000000
 0
TEXT
 8
004
 10
827.263830
 20
-51.121995
 40
3.200000
 1
2
 41
0.859375
 7
STANDARD
 0
POINT
 8
004
 10
833.013830
 20
-59.452158
 0
POINT
 8
004
 10
835.016309
 20
-59.952158
 0
POINT
 8
004
 10
835.016309
 20
-52.121995
 0
LINE
 8
004
 10
833.013830
 20
-52.121995
 11
827.263830
 21
-52.121995
 0
LINE
 8
004
 10
835.016309
 20
-52.121995
 11
838.016309
 21
-52.121995
 0
ENDBLK
 8
004
 0
BLOCK
 8
004
 2
*D19
 70
1
 10
0.0
 20
0.0
 0
LINE
 8
004
 10
788.013830
 20
-59.452158
 11
788.013830
 21
-46.126976
 0
LINE
 8
004
 10
833.013830
 20
-53.535482
 11
833.013830
 21
-46.126976
 0
LINE
 8
004
 10
788.013830
 20
-47.126976
 11
833.013830
 21
-47.126976
 0
INSERT
 8
004
 62
7
 2
ARROW
 6
BYBLOCK
 10
788.013830
 20
-47.126976
 41
1.000000
 42
1.000000
 0
INSERT
 8
004
 62
7
 2
ARROW
 6
BYBLOCK
 10
833.013830
 20
-47.126976
 41
1.000000
 42
1.000000
 50
180.000000
 0
TEXT
 8
004
 10
807.763830
 20
-46.126976
 40
3.200000
 1
45
 41
0.859375
 7
STANDARD
 0
POINT
 8
004
 10
788.013830
 20
-60.452158
 0
POINT
 8
004
 10
833.013830
 20
-54.535482
 0
POINT
 8
004
 10
833.013830
 20
-47.126976
 0
ENDBLK
 8
004
 0
BLOCK
 8
004
 2
*D20
 70
1
 10
0.0
 20
0.0
 0
LINE
 8
004
 10
749.016309
 20
-62.452158
 11
749.016309
 21
-46.126976
 0
LINE
 8
004
 10
788.013830
 20
-60.452158
 11
788.013830
 21
-46.126976
 0
LINE
 8
004
 10
749.016309
 20
-47.126976
 11
788.013830
 21
-47.126976
 0
INSERT
 8
004
 62
7
 2
ARROW
 6
BYBLOCK
 10
749.016309
 20
-47.126976
 41
1.000000
 42
1.000000
 0
INSERT
 8
004
 62
7
 2
ARROW
 6
BYBLOCK
 10
788.013830
 20
-47.126976
 41
1.000000
 42
1.000000
 50
180.000000
 0
TEXT
 8
004
 10
765.765070
 20
-46.126976
 40
3.200000
 1
39
 41
0.859375
 7
STANDARD
 0
POINT
 8
004
 10
749.016309
 20
-63.452158
 0
POINT
 8
004
 10
788.013830
 20
-61.452158
 0
POINT
 8
004
 10
788.013830
 20
-47.126976
 0
ENDBLK
 8
004
 0
BLOCK
 8
004
 2
*D21
 70
1
 10
0.0
 20
0.0
 0
LINE
 8
004
 10
853.259568
 20
-80.952158
 11
859.510697
 21
-80.952158
 0
LINE
 8
004
 10
852.455658
 20
-78.952158
 11
859.510697
 21
-78.952158
 0
LINE
 8
004
 10
858.510697
 20
-80.952158
 11
858.510697
 21
-78.952158
 0
INSERT
 8
004
 62
7
 2
ARROW
 6
BYBLOCK
 10
858.510697
 20
-80.952158
 41
1.000000
 42
1.000000
 50
270.000000
 0
INSERT
 8
004
 62
7
 2
ARROW
 6
BYBLOCK
 10
858.510697
 20
-78.952158
 41
1.000000
 42
1.000000
 50
90.000000
 0
TEXT
 8
004
 10
857.510697
 20
-92.202158
 40
3.200000
 1
(2)
 50
90.000003
 41
1.104910
 7
STANDARD
 0
POINT
 8
004
 10
852.259568
 20
-80.952158
 0
POINT
 8
004
 10
851.455658
 20
-78.952158
 0
POINT
 8
004
 10
858.510697
 20
-78.952158
 0
LINE
 8
004
 10
858.510697
 20
-80.952158
 11
858.510697
 21
-92.202158
 0
LINE
 8
004
 10
858.510697
 20
-78.952158
 11
858.510697
 21
-75.952158
 0
ENDBLK
 8
004
 0
BLOCK
 8
004
 2
*D22
 70
1
 10
0.0
 20
0.0
 0
LINE
 8
004
 10
853.455658
 20
-78.952158
 11
865.808857
 21
-78.952158
 0
LINE
 8
004
 10
843.516309
 20
-54.952158
 11
865.808857
 21
-54.952158
 0
LINE
 8
004
 10
864.808857
 20
-78.952158
 11
864.808857
 21
-54.952158
 0
INSERT
 8
004
 62
7
 2
ARROW
 6
BYBLOCK
 10
864.808857
 20
-78.952158
 41
1.000000
 42
1.000000
 50
90.000000
 0
INSERT
 8
004
 62
7
 2
ARROW
 6
BYBLOCK
 10
864.808857
 20
-54.952158
 41
1.000000
 42
1.000000
 50
270.000000
 0
TEXT
 8
004
 10
863.808857
 20
-72.452158
 40
3.200000
 1
(24)
 50
90.000003
 41
1.031250
 7
STANDARD
 0
POINT
 8
004
 10
852.455658
 20
-78.952158
 0
POINT
 8
004
 10
842.516309
 20
-54.952158
 0
POINT
 8
004
 10
864.808857
 20
-54.952158
 0
ENDBLK
 8
004
 0
BLOCK
 8
004
 2
*D23
 70
1
 10
0.0
 20
0.0
 0
LINE
 8
004
 10
853.723650
 20
-80.952158
 11
873.377760
 21
-80.952158
 0
LINE
 8
004
 10
842.516309
 20
-54.952158
 11
873.377760
 21
-54.952158
 0
LINE
 8
004
 10
872.377760
 20
-80.952158
 11
872.377760
 21
-54.952158
 0
INSERT
 8
004
 62
7
 2
ARROW
 6
BYBLOCK
 10
872.377760
 20
-80.952158
 41
1.000000
 42
1.000000
 50
90.000000
 0
INSERT
 8
004
 62
7
 2
ARROW
 6
BYBLOCK
 10
872.377760
 20
-54.952158
 41
1.000000
 42
1.000000
 50
270.000000
 0
TEXT
 8
004
 10
871.377760
 20
-73.452158
 40
3.200000
 1
(26)
 50
90.000003
 41
1.031250
 7
STANDARD
 0
POINT
 8
004
 10
852.723650
 20
-80.952158
 0
POINT
 8
004
 10
841.516309
 20
-54.952158
 0
POINT
 8
004
 10
872.377760
 20
-54.952158
 0
ENDBLK
 8
004
 0
BLOCK
 8
004
 2
*D24
 70
1
 10
0.0
 20
0.0
 0
LINE
 8
004
 10
849.453691
 20
-12.853000
 11
844.729610
 21
-16.160836
 0
LINE
 8
004
 10
859.805879
 20
-7.435481
 11
845.589975
 21
-17.389564
 0
LINE
 8
004
 10
845.548763
 20
-15.587260
 11
846.409127
 21
-16.815988
 0
INSERT
 8
004
 62
7
 2
ARROW
 6
BYBLOCK
 10
845.548763
 20
-15.587260
 41
1.000000
 42
1.000000
 50
125.000000
 0
INSERT
 8
004
 62
7
 2
ARROW
 6
BYBLOCK
 10
846.409127
 20
-16.815988
 41
1.000000
 42
1.000000
 50
305.000000
 0
TEXT
 8
004
 10
851.374793
 20
-22.164247
 40
3.200000
 1
1.5
 50
305.000021
 41
1.289062
 7
STANDARD
 0
POINT
 8
004
 10
850.272843
 20
-12.279423
 0
POINT
 8
004
 10
860.625031
 20
-6.861905
 0
POINT
 8
004
 10
846.409127
 20
-16.815988
 0
LINE
 8
004
 10
845.548763
 20
-15.587260
 11
843.828033
 21
-13.129804
 0
LINE
 8
004
 10
846.409127
 20
-16.815988
 11
855.287647
 21
-29.495828
 0
ENDBLK
 8
004
 0
BLOCK
 8
004
 2
*D25
 70
1
 10
0.0
 20
0.0
 0
LINE
 8
004
 10
862.706010
 20
-30.376885
 11
869.740446
 21
-25.451320
 0
INSERT
 8
004
 62
7
 2
ARROW
 6
BYBLOCK
 10
862.706010
 20
-30.376885
 41
1.000000
 42
1.000000
 50
35.000000
 0
INSERT
 8
004
 62
7
 2
ARROW
 6
BYBLOCK
 10
869.740446
 20
-25.451320
 41
1.000000
 42
1.000000
 50
215.000000
 0
TEXT
 8
004
 10
861.947993
 20
-29.686880
 40
3.200000
 1
8.5
 50
35.000000
 41
1.104911
 7
STANDARD
 0
POINT
 8
004
 10
869.699077
 20
-40.364020
 0
POINT
 8
004
 10
863.868669
 20
-17.065554
 0
POINT
 8
004
 10
869.740446
 20
-25.451320
 0
ENDBLK
 8
004
 0
BLOCK
 8
004
 2
*D26
 70
1
 10
0.0
 20
0.0
 0
LINE
 8
004
 10
835.016309
 20
-54.952158
 11
835.016309
 21
-46.126976
 0
LINE
 8
004
 10
846.016309
 20
-54.952158
 11
846.016309
 21
-46.126976
 0
LINE
 8
004
 10
835.016309
 20
-47.126976
 11
846.016309
 21
-47.126976
 0
INSERT
 8
004
 62
7
 2
ARROW
 6
BYBLOCK
 10
835.016309
 20
-47.126976
 41
1.000000
 42
1.000000
 0
INSERT
 8
004
 62
7
 2
ARROW
 6
BYBLOCK
 10
846.016309
 20
-47.126976
 41
1.000000
 42
1.000000
 50
180.000000
 0
TEXT
 8
004
 10
835.069299
 20
-46.126976
 40
3.200000
 1
(11)
 41
1.289062
 7
STANDARD
 0
POINT
 8
004
 10
835.016309
 20
-55.952158
 0
POINT
 8
004
 10
846.016309
 20
-55.952158
 0
POINT
 8
004
 10
846.016309
 20
-47.126976
 0
ENDBLK
 8
004
 0
BLOCK
 8
004
 2
*D27
 70
1
 10
0.0
 20
0.0
 0
LINE
 8
004
 10
887.761791
 20
-12.832638
 11
898.752701
 21
-5.136720
 0
INSERT
 8
004
 62
7
 2
ARROW
 6
BYBLOCK
 10
887.761791
 20
-12.832638
 41
1.000000
 42
1.000000
 50
35.000000
 0
INSERT
 8
004
 62
7
 2
ARROW
 6
BYBLOCK
 10
898.752701
 20
-5.136720
 41
1.000000
 42
1.000000
 50
215.000000
 0
TEXT
 8
004
 10
890.431001
 20
-9.742862
 40
3.200000
 1
14
 50
35.000000
 41
1.031250
 7
STANDARD
 0
POINT
 8
004
 10
882.946461
 20
-5.955635
 0
POINT
 8
004
 10
886.356034
 20
12.567555
 0
POINT
 8
004
 10
898.752701
 20
-5.136720
 0
ENDBLK
 8
004
 0
BLOCK
 8
004
 2
*D28
 70
1
 10
0.0
 20
0.0
 0
LINE
 8
004
 10
805.283050
 20
39.607957
 11
823.540567
 21
39.607957
 0
LINE
 8
004
 10
805.283050
 20
58.442805
 11
823.540567
 21
58.442805
 0
LINE
 8
004
 10
822.540567
 20
39.607957
 11
822.540567
 21
58.442805
 0
INSERT
 8
004
 62
7
 2
ARROW
 6
BYBLOCK
 10
822.540567
 20
39.607957
 41
1.000000
 42
1.000000
 50
90.000000
 0
INSERT
 8
004
 62
7
 2
ARROW
 6
BYBLOCK
 10
822.540567
 20
58.442805
 41
1.000000
 42
1.000000
 50
270.000000
 0
TEXT
 8
004
 10
821.540567
 20
43.525381
 40
3.200000
 1
(10)
 50
90.000003
 41
1.213235
 7
STANDARD
 0
POINT
 8
004
 10
804.283050
 20
39.607957
 0
POINT
 8
004
 10
804.283050
 20
58.442805
 0
POINT
 8
004
 10
822.540567
 20
58.442805
 0
ENDBLK
 8
004
 0
BLOCK
 8
004
 2
*D29
 70
1
 10
0.0
 20
0.0
 0
LINE
 8
004
 10
784.283050
 20
57.442805
 11
784.283050
 21
72.947575
 0
LINE
 8
004
 10
806.283050
 20
57.442805
 11
806.283050
 21
72.947575
 0
LINE
 8
004
 10
784.283050
 20
71.947575
 11
806.283050
 21
71.947575
 0
INSERT
 8
004
 62
7
 2
ARROW
 6
BYBLOCK
 10
784.283050
 20
71.947575
 41
1.000000
 42
1.000000
 0
INSERT
 8
004
 62
7
 2
ARROW
 6
BYBLOCK
 10
806.283050
 20
71.947575
 41
1.000000
 42
1.000000
 50
180.000000
 0
TEXT
 8
004
 10
789.783050
 20
72.947575
 40
3.200000
 1
(11)
 41
1.289062
 7
STANDARD
 0
POINT
 8
004
 10
784.283050
 20
56.442805
 0
POINT
 8
004
 10
806.283050
 20
56.442805
 0
POINT
 8
004
 10
806.283050
 20
71.947575
 0
ENDBLK
 8
004
 0
BLOCK
 8
004
 2
*D30
 70
1
 10
0.0
 20
0.0
 0
LINE
 8
004
 10
749.016309
 20
-11.029423
 11
749.016309
 21
-18.810959
 0
LINE
 8
004
 10
835.016309
 20
-6.529423
 11
835.016309
 21
-18.810959
 0
LINE
 8
004
 10
749.016309
 20
-17.810959
 11
835.016309
 21
-17.810959
 0
INSERT
 8
004
 62
7
 2
ARROW
 6
BYBLOCK
 10
749.016309
 20
-17.810959
 41
1.000000
 42
1.000000
 0
INSERT
 8
004
 62
7
 2
ARROW
 6
BYBLOCK
 10
835.016309
 20
-17.810959
 41
1.000000
 42
1.000000
 50
180.000000
 0
TEXT
 8
004
 10
789.266309
 20
-16.810959
 40
3.200000
 1
86
 41
0.859375
 7
STANDARD
 0
POINT
 8
004
 10
749.016309
 20
-10.029423
 0
POINT
 8
004
 10
835.016309
 20
-5.529423
 0
POINT
 8
004
 10
835.016309
 20
-17.810959
 0
ENDBLK
 8
004
 0
ENDSEC
 0
SECTION
 2
ENTITIES
 0
DIMENSION
 8
001
 2
*D0
 10
908.382315
 20
26.578105
 11
903.163598
 21
35.774651
 13
889.634805
 23
31.762576
 14
898.238452
 24
19.475296
 50
305.000000
 0
DIMENSION
 8
001
 2
*D1
 10
929.435054
 20
-9.421788
 11
931.988069
 21
-11.287830
 13
916.167590
 23
-5.384867
 14
922.526224
 24
-14.331885
 50
305.401361
 0
DIMENSION
 8
001
 2
*D2
 10
893.186504
 20
-28.801044
 11
895.726385
 21
-30.684924
 13
884.760183
 23
-22.493472
 14
890.495947
 24
-30.684993
 50
305.000000
 0
DIMENSION
 8
004
 2
*D3
 10
786.283050
 20
56.411089
 11
774.427572
 21
67.204011
 70
4
 15
784.723016
 25
57.662606
 0
DIMENSION
 8
004
 2
*D4
 10
740.016309
 20
-3.849227
 11
733.873964
 21
3.466618
 70
4
 15
739.296658
 25
-3.154891
 0
DIMENSION
 8
004
 2
*D5
 10
846.016309
 20
1.220577
 11
871.578986
 21
59.259455
 70
130
 13
846.016309
 23
1.220577
 14
897.036903
 24
36.945581
 15
846.016309
 25
63.505221
 16
874.776157
 26
56.467731
 0
DIMENSION
 8
004
 2
*D6
 10
902.755805
 20
22.638380
 11
905.295686
 21
20.754500
 13
884.394442
 23
12.223165
 14
896.667790
 24
18.375506
 50
305.000000
 0
DIMENSION
 8
004
 2
*D7
 10
893.284208
 20
31.876366
 11
889.658143
 21
38.798371
 13
888.064143
 23
30.662787
 14
878.085101
 24
21.233838
 50
305.000000
 0
DIMENSION
 8
004
 2
*D8
 10
887.761791
 20
-12.832638
 11
875.924874
 21
-19.900162
 13
875.586360
 23
-33.800151
 14
893.607705
 24
-21.181469
 50
35.000000
 0
DIMENSION
 8
004
 2
*D9
 10
902.848461
 20
-2.268838
 11
904.732341
 21
0.271044
 13
905.745768
 23
-15.123855
 14
906.663087
 24
-7.716687
 50
35.000000
 0
DIMENSION
 8
004
 2
*D10
 10
905.423787
 20
9.213573
 11
876.792252
 21
-9.613669
 13
850.272843
 23
-12.279423
 14
898.238452
 24
19.475296
 50
35.000000
 0
DIMENSION
 8
004
 2
*D11
 10
725.290854
 20
-3.029423
 11
724.290854
 21
-13.779423
 13
739.016309
 23
-8.029423
 14
739.016309
 24
-3.029423
 50
90.000000
 0
DIMENSION
 8
004
 2
*D12
 10
719.195204
 20
-1.029423
 11
718.195204
 21
-6.904423
 13
754.555847
 23
-10.029423
 14
756.813830
 24
-1.029423
 50
90.000000
 0
DIMENSION
 8
004
 2
*D13
 10
835.016309
 20
-23.283131
 11
784.266309
 21
-22.283131
 13
739.016309
 23
-5.529423
 14
835.016309
 24
-6.529423
 0
DIMENSION
 8
004
 2
*D14
 10
846.016309
 20
-29.521878
 11
788.391309
 21
-28.521878
 13
739.016309
 23
-5.529423
 14
846.016309
 24
-5.529423
 0
DIMENSION
 8
004
 2
*D15
 10
850.272843
 20
-35.766520
 11
787.769576
 21
-34.766520
 13
739.016309
 23
-7.149879
 14
850.272843
 24
-12.279423
 0
DIMENSION
 8
004
 2
*D16
 10
731.923162
 20
-61.952158
 11
730.923162
 21
-57.191368
 13
749.016309
 23
-63.452158
 14
739.016309
 24
-61.952158
 50
90.000000
 0
DIMENSION
 8
004
 2
*D17
 10
736.987707
 20
-62.752158
 11
735.987707
 21
-59.293571
 13
740.016309
 23
-63.452158
 14
740.016309
 24
-62.752158
 50
90.000000
 0
DIMENSION
 8
004
 2
*D18
 10
835.016309
 20
-52.121995
 11
827.263830
 21
-51.121995
 13
833.013830
 23
-59.452158
 14
835.016309
 24
-59.952158
 0
DIMENSION
 8
004
 2
*D19
 10
833.013830
 20
-47.126976
 11
807.763830
 21
-46.126976
 13
788.013830
 23
-60.452158
 14
833.013830
 24
-54.535482
 0
DIMENSION
 8
004
 2
*D20
 10
788.013830
 20
-47.126976
 11
765.765070
 21
-46.126976
 13
749.016309
 23
-63.452158
 14
788.013830
 24
-61.452158
 0
DIMENSION
 8
004
 2
*D21
 10
858.510697
 20
-78.952158
 11
857.510697
 21
-92.202158
 13
852.259568
 23
-80.952158
 14
851.455658
 24
-78.952158
 50
90.000000
 0
DIMENSION
 8
004
 2
*D22
 10
864.808857
 20
-54.952158
 11
863.808857
 21
-72.452158
 13
852.455658
 23
-78.952158
 14
842.516309
 24
-54.952158
 50
90.000000
 0
DIMENSION
 8
004
 2
*D23
 10
872.377760
 20
-54.952158
 11
871.377760
 21
-73.452158
 13
852.723650
 23
-80.952158
 14
841.516309
 24
-54.952158
 50
90.000000
 0
DIMENSION
 8
004
 2
*D24
 10
846.409127
 20
-16.815988
 11
851.374793
 21
-22.164247
 13
850.272843
 23
-12.279423
 14
860.625031
 24
-6.861905
 50
305.000000
 0
DIMENSION
 8
004
 2
*D25
 10
869.740446
 20
-25.451320
 11
861.947993
 21
-29.686880
 13
869.699077
 23
-40.364020
 14
863.868669
 24
-17.065554
 50
35.000000
 0
DIMENSION
 8
004
 2
*D26
 10
846.016309
 20
-47.126976
 11
835.069299
 21
-46.126976
 13
835.016309
 23
-55.952158
 14
846.016309
 24
-55.952158
 0
DIMENSION
 8
004
 2
*D27
 10
898.752701
 20
-5.136720
 11
890.431001
 21
-9.742862
 13
882.946461
 23
-5.955635
 14
886.356034
 24
12.567555
 50
35.000000
 0
DIMENSION
 8
004
 2
*D28
 10
822.540567
 20
58.442805
 11
821.540567
 21
43.525381
 13
804.283050
 23
39.607957
 14
804.283050
 24
58.442805
 50
90.000000
 0
DIMENSION
 8
004
 2
*D29
 10
806.283050
 20
71.947575
 11
789.783050
 21
72.947575
 13
784.283050
 23
56.442805
 14
806.283050
 24
56.442805
 0
DIMENSION
 8
004
 2
*D30
 10
835.016309
 20
-17.810959
 11
789.266309
 21
-16.810959
 13
749.016309
 23
-10.029423
 14
835.016309
 24
-5.529423
 0
TEXT
 8
001
 62
3
 10
896.189599
 20
-65.591817
 40
5.040000
 1
ドラムストッパー
 41
0.833333
 7
STANDARD
 0
LINE
 8
001
 6
CENTER
 10
916.167590
 20
-5.384867
 11
905.759701
 21
-12.672549
 0
LINE
 8
001
 6
CENTER
 10
910.415105
 20
-13.075124
 11
906.663087
 21
-7.716687
 0
LINE
 8
001
 10
904.359830
 20
-13.652750
 11
904.598615
 21
-13.485550
 0
ARC
 8
001
 10
908.694376
 20
-10.617668
 40
5.000000
 50
211.755108
 51
215.000000
 0
TEXT
 8
001
 62
3
 10
791.738070
 20
-82.470601
 40
3.200000
 1
＊指示なき角部は０・３Ｒ
 41
0.833333
 7
STANDARD
 0
LINE
 8
001
 10
910.621403
 20
-13.369748
 11
910.415105
 21
-13.075124
 0
LINE
 8
001
 6
CENTER
 10
784.173889
 20
49.009523
 11
806.862350
 21
49.009523
 0
LINE
 8
001
 6
CENTER
 10
795.283050
 20
63.727520
 11
795.283050
 21
22.572319
 0
LINE
 8
001
 62
3
 10
867.591837
 20
16.327924
 11
876.195484
 21
4.040643
 0
LINE
 8
001
 10
878.582748
 20
24.023842
 11
887.186394
 21
11.736562
 0
LINE
 8
001
 62
3
 10
887.179899
 20
11.732014
 11
878.576253
 21
24.019295
 0
LINE
 8
001
 6
CENTER
 10
872.505392
 20
20.993100
 11
882.194034
 21
7.156285
 0
LINE
 8
001
 62
3
 10
860.625031
 20
-6.861905
 11
852.021384
 21
5.425376
 0
LINE
 8
001
 62
3
 10
863.089051
 20
-5.136580
 11
854.485404
 21
7.150701
 0
LINE
 8
001
 62
3
 10
867.184811
 20
-2.268697
 11
858.581165
 21
10.018583
 0
LINE
 8
001
 62
3
 10
869.642267
 20
-0.547968
 11
861.038621
 21
11.739313
 0
LINE
 8
001
 62
3
 10
873.738027
 20
2.319914
 11
865.134381
 21
14.607195
 0
LINE
 8
001
 62
3
 10
894.552993
 20
16.894710
 11
885.949346
 21
29.181990
 0
LINE
 8
001
 62
3
 10
892.913189
 20
15.746506
 11
884.309542
 21
28.033787
 0
ARC
 8
001
 10
891.854685
 20
-22.164791
 40
2.000000
 50
35.000000
 51
61.743684
 0
LINE
 8
001
 10
874.298559
 20
-34.701878
 11
875.594572
 21
-33.794400
 0
ARC
 8
001
 10
877.109949
 20
-32.489167
 40
2.000000
 50
188.256316
 51
215.000000
 0
LINE
 8
001
 10
875.586360
 20
-33.800151
 11
875.471645
 21
-33.636320
 0
LINE
 8
001
 6
CENTER
 10
903.185664
 20
32.095181
 11
849.452161
 21
-5.529423
 0
LINE
 8
001
 62
3
 10
883.827361
 20
13.046865
 11
878.665173
 21
20.419233
 0
LINE
 8
001
 62
3
 10
724.843995
 20
27.879684
 11
724.970142
 21
28.837164
 0
LINE
 8
001
 62
3
 10
724.970142
 20
28.837164
 11
725.323353
 21
29.996219
 0
LINE
 8
001
 62
3
 10
725.499959
 20
30.046613
 11
725.802711
 21
29.593069
 0
LINE
 8
001
 62
3
 10
725.373812
 20
29.391495
 11
726.786656
 21
29.391495
 0
LINE
 8
001
 62
3
 10
726.786656
 20
29.391495
 11
726.231610
 21
28.988345
 0
LINE
 8
001
 62
3
 10
726.231610
 20
28.988345
 11
726.231610
 21
27.930077
 0
LINE
 8
001
 62
3
 10
726.231610
 20
27.930077
 11
726.055004
 21
27.728502
 0
LINE
 8
001
 62
3
 10
726.055004
 20
27.728502
 11
725.802711
 21
27.930077
 0
LINE
 8
001
 62
3
 10
725.197206
 20
28.635589
 11
727.139867
 21
28.635589
 0
LINE
 8
001
 62
3
 10
726.534362
 20
29.593069
 11
726.887573
 21
30.147400
 0
LINE
 8
001
 62
3
 10
726.837114
 20
30.550550
 11
725.424270
 21
30.248187
 0
LINE
 8
001
 62
3
 10
725.247665
 20
30.298581
 11
724.970142
 21
30.550550
 0
LINE
 8
001
 62
3
 10
724.717848
 20
29.794644
 11
724.970142
 21
29.542676
 0
LINE
 8
001
 62
3
 10
725.928858
 20
30.147400
 11
726.282069
 21
29.593069
 0
LINE
 8
001
 62
3
 10
728.649500
 20
27.980471
 11
728.952252
 21
27.778896
 0
LINE
 8
001
 62
3
 10
728.952252
 20
27.778896
 11
729.078399
 21
27.930077
 0
LINE
 8
001
 62
3
 10
729.078399
 20
27.930077
 11
729.078399
 21
29.189920
 0
LINE
 8
001
 62
3
 10
729.078399
 20
29.189920
 11
729.835280
 21
29.643463
 0
LINE
 8
001
 62
3
 10
729.835280
 20
29.643463
 11
728.321518
 21
29.643463
 0
LINE
 8
001
 62
3
 10
727.917848
 20
29.744250
 11
728.144913
 21
30.197794
 0
LINE
 8
001
 62
3
 10
728.144913
 20
30.197794
 11
730.213720
 21
30.197794
 0
LINE
 8
001
 62
3
 10
730.213720
 20
30.197794
 11
729.910968
 21
29.794644
 0
LINE
 8
001
 62
3
 10
729.078399
 20
30.197794
 11
729.078399
 21
30.600943
 0
LINE
 8
001
 62
3
 10
730.264179
 20
28.786770
 11
727.917848
 21
28.786770
 0
LINE
 8
001
 62
3
 10
731.168307
 20
27.980471
 11
731.950417
 21
28.534802
 0
LINE
 8
001
 62
3
 10
731.950417
 20
28.534802
 11
732.429775
 21
29.089132
 0
LINE
 8
001
 62
3
 10
732.202711
 20
29.643463
 11
731.723353
 21
28.988345
 0
LINE
 8
001
 62
3
 10
731.723353
 20
28.988345
 11
731.168307
 21
28.484408
 0
LINE
 8
001
 62
3
 10
731.950417
 20
28.534802
 11
732.429775
 21
28.030865
 0
LINE
 8
001
 62
3
 10
732.934362
 20
27.980471
 11
733.161427
 21
27.778896
 0
LINE
 8
001
 62
3
 10
733.161427
 20
27.778896
 11
733.338032
 21
27.879684
 0
LINE
 8
001
 62
3
 10
733.338032
 20
27.879684
 11
733.338032
 21
30.550550
 0
LINE
 8
001
 62
3
 10
732.808215
 20
30.298581
 11
732.808215
 21
28.434014
 0
LINE
 8
001
 62
3
 10
731.672894
 20
29.189920
 11
731.294454
 21
29.643463
 0
LINE
 8
001
 62
3
 10
731.471060
 20
29.441888
 11
731.849500
 21
30.097006
 0
LINE
 8
001
 62
3
 10
731.849500
 20
30.147400
 11
731.849500
 21
30.651337
 0
LINE
 8
001
 62
3
 10
732.555922
 20
30.147400
 11
731.067390
 21
30.147400
 0
LINE
 8
001
 62
3
 10
734.544913
 20
28.131652
 11
734.544913
 21
30.298581
 0
LINE
 8
001
 62
3
 10
734.544913
 20
30.298581
 11
735.402711
 21
30.500156
 0
LINE
 8
001
 62
3
 10
735.655005
 20
30.348975
 11
735.655005
 21
27.728502
 0
LINE
 8
001
 62
3
 10
736.058674
 20
28.383621
 11
736.260509
 21
28.182046
 0
LINE
 8
001
 62
3
 10
736.260509
 20
28.182046
 11
736.487573
 21
28.383621
 0
LINE
 8
001
 62
3
 10
736.487573
 20
28.383621
 11
736.487573
 21
30.348975
 0
LINE
 8
001
 62
3
 10
736.487573
 20
30.348975
 11
735.655005
 21
30.348975
 0
LINE
 8
001
 62
3
 10
735.402711
 20
29.492282
 11
734.544913
 21
29.492282
 0
LINE
 8
001
 62
3
 10
734.544913
 20
28.484408
 11
735.402711
 21
28.484408
 0
LINE
 8
001
 62
3
 10
740.843995
 20
27.879684
 11
740.970142
 21
28.837164
 0
LINE
 8
001
 62
3
 10
740.970142
 20
28.837164
 11
741.323353
 21
29.996219
 0
LINE
 8
001
 62
3
 10
741.499959
 20
30.046613
 11
741.802711
 21
29.593069
 0
LINE
 8
001
 62
3
 10
741.373812
 20
29.391495
 11
742.786656
 21
29.391495
 0
LINE
 8
001
 62
3
 10
742.786656
 20
29.391495
 11
742.231610
 21
28.988345
 0
LINE
 8
001
 62
3
 10
742.231610
 20
28.988345
 11
742.231610
 21
27.930077
 0
LINE
 8
001
 62
3
 10
742.231610
 20
27.930077
 11
742.055005
 21
27.728502
 0
LINE
 8
001
 62
3
 10
742.055005
 20
27.728502
 11
741.802711
 21
27.930077
 0
LINE
 8
001
 62
3
 10
741.197206
 20
28.635589
 11
743.139867
 21
28.635589
 0
LINE
 8
001
 62
3
 10
742.534362
 20
29.593069
 11
742.887573
 21
30.147400
 0
LINE
 8
001
 62
3
 10
742.837115
 20
30.550550
 11
741.424271
 21
30.248187
 0
LINE
 8
001
 62
3
 10
741.247665
 20
30.298581
 11
740.970142
 21
30.550550
 0
LINE
 8
001
 62
3
 10
740.717849
 20
29.794644
 11
740.970142
 21
29.542676
 0
LINE
 8
001
 62
3
 10
741.928858
 20
30.147400
 11
742.282069
 21
29.593069
 0
LINE
 8
001
 62
3
 10
744.649500
 20
27.980471
 11
744.952252
 21
27.778896
 0
LINE
 8
001
 62
3
 10
744.952252
 20
27.778896
 11
745.078399
 21
27.930077
 0
LINE
 8
001
 62
3
 10
745.078399
 20
27.930077
 11
745.078399
 21
29.189920
 0
LINE
 8
001
 62
3
 10
745.078399
 20
29.189920
 11
745.835280
 21
29.643463
 0
LINE
 8
001
 62
3
 10
745.835280
 20
29.643463
 11
744.321518
 21
29.643463
 0
LINE
 8
001
 62
3
 10
743.917849
 20
29.744250
 11
744.144913
 21
30.197794
 0
LINE
 8
001
 62
3
 10
744.144913
 20
30.197794
 11
746.213720
 21
30.197794
 0
LINE
 8
001
 62
3
 10
746.213720
 20
30.197794
 11
745.910968
 21
29.794644
 0
LINE
 8
001
 62
3
 10
745.078399
 20
30.197794
 11
745.078399
 21
30.600943
 0
LINE
 8
001
 62
3
 10
746.264179
 20
28.786770
 11
743.917849
 21
28.786770
 0
LINE
 8
001
 62
3
 10
747.344913
 20
27.829290
 11
747.344913
 21
29.089132
 0
LINE
 8
001
 62
3
 10
747.344913
 20
29.089132
 11
749.287574
 21
29.089132
 0
LINE
 8
001
 62
3
 10
749.287574
 20
29.089132
 11
749.287574
 21
27.930077
 0
LINE
 8
001
 62
3
 10
749.287574
 20
27.930077
 11
749.161427
 21
27.778896
 0
LINE
 8
001
 62
3
 10
749.161427
 20
27.778896
 11
748.858674
 21
27.930077
 0
LINE
 8
001
 62
3
 10
748.757757
 20
28.282833
 11
748.757757
 21
28.736376
 0
LINE
 8
001
 62
3
 10
748.757757
 20
28.736376
 11
747.849500
 21
28.736376
 0
LINE
 8
001
 62
3
 10
747.849500
 20
28.736376
 11
747.849500
 21
28.282833
 0
LINE
 8
001
 62
3
 10
747.849500
 20
28.282833
 11
748.757757
 21
28.282833
 0
LINE
 8
001
 62
3
 10
748.858674
 20
29.441888
 11
748.858674
 21
29.945825
 0
LINE
 8
001
 62
3
 10
748.858674
 20
29.945825
 11
747.773812
 21
29.945825
 0
LINE
 8
001
 62
3
 10
747.773812
 20
29.945825
 11
747.773812
 21
29.441888
 0
LINE
 8
001
 62
3
 10
747.773812
 20
29.441888
 11
748.858674
 21
29.441888
 0
LINE
 8
001
 62
3
 10
748.278399
 20
30.298581
 11
748.278399
 21
30.600943
 0
LINE
 8
001
 62
3
 10
747.168307
 20
30.298581
 11
749.489408
 21
30.298581
 0
LINE
 8
001
 62
3
 10
751.099959
 20
28.131652
 11
751.352252
 21
27.829290
 0
LINE
 8
001
 62
3
 10
751.352252
 20
27.829290
 11
751.655005
 21
27.829290
 0
LINE
 8
001
 62
3
 10
751.655005
 20
27.829290
 11
751.882069
 21
28.081258
 0
LINE
 8
001
 62
3
 10
751.882069
 20
28.081258
 11
752.008216
 21
28.484408
 0
LINE
 8
001
 62
3
 10
752.008216
 20
28.484408
 11
752.008216
 21
29.744250
 0
LINE
 8
001
 62
3
 10
752.008216
 20
29.744250
 11
751.882069
 21
30.197794
 0
LINE
 8
001
 62
3
 10
751.882069
 20
30.197794
 11
751.655005
 21
30.449762
 0
LINE
 8
001
 62
3
 10
751.655005
 20
30.449762
 11
751.352252
 21
30.449762
 0
LINE
 8
001
 62
3
 10
751.352252
 20
30.449762
 11
751.150418
 21
30.197794
 0
LINE
 8
001
 62
3
 10
751.150418
 20
30.197794
 11
751.024271
 21
29.794644
 0
LINE
 8
001
 62
3
 10
751.024271
 20
29.794644
 11
751.024271
 21
28.534802
 0
LINE
 8
001
 62
3
 10
751.024271
 20
28.534802
 11
751.099959
 21
28.131652
 0
LINE
 8
001
 62
3
 10
754.602711
 20
28.988345
 11
754.829775
 21
29.341101
 0
LINE
 8
001
 62
3
 10
754.779317
 20
29.391495
 11
754.905464
 21
29.240313
 0
LINE
 8
001
 62
3
 10
754.905464
 20
29.240313
 11
754.905464
 21
29.089132
 0
LINE
 8
001
 62
3
 10
754.905464
 20
29.089132
 11
754.779317
 21
28.937951
 0
LINE
 8
001
 62
3
 10
754.779317
 20
28.937951
 11
754.653170
 21
28.937951
 0
LINE
 8
001
 62
3
 10
754.653170
 20
28.937951
 11
754.527023
 21
29.089132
 0
LINE
 8
001
 62
3
 10
754.527023
 20
29.089132
 11
754.527023
 21
29.240313
 0
LINE
 8
001
 62
3
 10
754.527023
 20
29.240313
 11
754.653170
 21
29.391495
 0
LINE
 8
001
 62
3
 10
754.653170
 20
29.391495
 11
754.779317
 21
29.391495
 0
LINE
 8
001
 62
3
 10
754.602711
 20
29.341101
 11
754.829775
 21
28.988345
 0
LINE
 8
001
 62
3
 10
757.499959
 20
28.131652
 11
757.550418
 21
28.030865
 0
LINE
 8
001
 62
3
 10
757.550418
 20
28.030865
 11
757.626106
 21
27.930077
 0
LINE
 8
001
 62
3
 10
757.626106
 20
27.930077
 11
757.752253
 21
27.879684
 0
LINE
 8
001
 62
3
 10
757.752253
 20
27.879684
 11
757.928858
 21
27.879684
 0
LINE
 8
001
 62
3
 10
757.928858
 20
27.879684
 11
758.055005
 21
27.930077
 0
LINE
 8
001
 62
3
 10
758.055005
 20
27.930077
 11
758.181152
 21
28.030865
 0
LINE
 8
001
 62
3
 10
758.181152
 20
28.030865
 11
758.332528
 21
28.182046
 0
LINE
 8
001
 62
3
 10
758.332528
 20
28.182046
 11
758.408216
 21
28.434014
 0
LINE
 8
001
 62
3
 10
758.408216
 20
28.434014
 11
758.408216
 21
28.887558
 0
LINE
 8
001
 62
3
 10
758.408216
 20
28.887558
 11
758.332528
 21
29.189920
 0
LINE
 8
001
 62
3
 10
758.332528
 20
29.189920
 11
758.181152
 21
29.391495
 0
LINE
 8
001
 62
3
 10
758.181152
 20
29.391495
 11
758.055005
 21
29.492282
 0
LINE
 8
001
 62
3
 10
758.055005
 20
29.492282
 11
757.853170
 21
29.492282
 0
LINE
 8
001
 62
3
 10
757.853170
 20
29.492282
 11
757.676565
 21
29.441888
 0
LINE
 8
001
 62
3
 10
757.676565
 20
29.441888
 11
757.550418
 21
29.290707
 0
LINE
 8
001
 62
3
 10
757.550418
 20
29.290707
 11
757.449500
 21
29.139526
 0
LINE
 8
001
 62
3
 10
757.449500
 20
29.139526
 11
757.449500
 21
30.399369
 0
LINE
 8
001
 62
3
 10
757.449500
 20
30.399369
 11
758.408216
 21
30.399369
 0
LINE
 8
001
 62
3
 10
757.449500
 20
28.434014
 11
757.449500
 21
28.282833
 0
LINE
 8
001
 62
3
 10
757.449500
 20
28.282833
 11
757.499959
 21
28.131652
 0
LINE
 8
001
 62
3
 10
759.766473
 20
29.618266
 11
759.892620
 21
29.618266
 0
LINE
 8
001
 62
3
 10
759.892620
 20
29.618266
 11
759.892620
 21
28.005668
 0
LINE
 8
001
 62
3
 10
759.766473
 20
28.005668
 11
760.018766
 21
28.005668
 0
LINE
 8
001
 62
3
 10
760.296289
 20
28.005668
 11
760.548583
 21
28.005668
 0
LINE
 8
001
 62
3
 10
760.851335
 20
28.005668
 11
761.053170
 21
28.005668
 0
LINE
 8
001
 62
3
 10
761.128858
 20
28.005668
 11
761.330693
 21
28.005668
 0
LINE
 8
001
 62
3
 10
761.608216
 20
28.005668
 11
761.860510
 21
28.005668
 0
LINE
 8
001
 62
3
 10
762.163262
 20
28.005668
 11
762.415555
 21
28.005668
 0
LINE
 8
001
 62
3
 10
762.289409
 20
28.005668
 11
762.289409
 21
29.492282
 0
LINE
 8
001
 62
3
 10
762.289409
 20
29.492282
 11
762.238950
 21
29.567873
 0
LINE
 8
001
 62
3
 10
762.238950
 20
29.567873
 11
762.138032
 21
29.618266
 0
LINE
 8
001
 62
3
 10
762.138032
 20
29.618266
 11
761.961427
 21
29.618266
 0
LINE
 8
001
 62
3
 10
761.961427
 20
29.618266
 11
761.860510
 21
29.567873
 0
LINE
 8
001
 62
3
 10
761.860510
 20
29.567873
 11
761.784821
 21
29.492282
 0
LINE
 8
001
 62
3
 10
761.784821
 20
29.492282
 11
761.734363
 21
29.315904
 0
LINE
 8
001
 62
3
 10
761.734363
 20
28.005668
 11
761.734363
 21
29.492282
 0
LINE
 8
001
 62
3
 10
761.734363
 20
29.492282
 11
761.683904
 21
29.567873
 0
LINE
 8
001
 62
3
 10
761.683904
 20
29.567873
 11
761.582987
 21
29.618266
 0
LINE
 8
001
 62
3
 10
761.582987
 20
29.618266
 11
761.431610
 21
29.618266
 0
LINE
 8
001
 62
3
 10
761.431610
 20
29.618266
 11
761.330693
 21
29.567873
 0
LINE
 8
001
 62
3
 10
761.330693
 20
29.567873
 11
761.255005
 21
29.492282
 0
LINE
 8
001
 62
3
 10
761.255005
 20
29.492282
 11
761.204546
 21
29.315904
 0
LINE
 8
001
 62
3
 10
761.078399
 20
29.618266
 11
761.204546
 21
29.618266
 0
LINE
 8
001
 62
3
 10
761.204546
 20
29.618266
 11
761.204546
 21
28.005668
 0
LINE
 8
001
 62
3
 10
760.977482
 20
28.005668
 11
760.977482
 21
29.492282
 0
LINE
 8
001
 62
3
 10
760.977482
 20
29.492282
 11
760.927023
 21
29.567873
 0
LINE
 8
001
 62
3
 10
760.927023
 20
29.567873
 11
760.826106
 21
29.618266
 0
LINE
 8
001
 62
3
 10
760.826106
 20
29.618266
 11
760.649500
 21
29.618266
 0
LINE
 8
001
 62
3
 10
760.649500
 20
29.618266
 11
760.548583
 21
29.567873
 0
LINE
 8
001
 62
3
 10
760.548583
 20
29.567873
 11
760.472895
 21
29.492282
 0
LINE
 8
001
 62
3
 10
760.472895
 20
29.492282
 11
760.422436
 21
29.315904
 0
LINE
 8
001
 62
3
 10
760.422436
 20
28.005668
 11
760.422436
 21
29.492282
 0
LINE
 8
001
 62
3
 10
760.422436
 20
29.492282
 11
760.371977
 21
29.567873
 0
LINE
 8
001
 62
3
 10
760.371977
 20
29.567873
 11
760.271060
 21
29.618266
 0
LINE
 8
001
 62
3
 10
760.271060
 20
29.618266
 11
760.119684
 21
29.618266
 0
LINE
 8
001
 62
3
 10
760.119684
 20
29.618266
 11
760.018766
 21
29.567873
 0
LINE
 8
001
 62
3
 10
760.018766
 20
29.567873
 11
759.943078
 21
29.492282
 0
LINE
 8
001
 62
3
 10
759.943078
 20
29.492282
 11
759.892620
 21
29.315904
 0
TEXT
 8
001
 62
3
 10
721.859352
 20
23.212663
 40
3.200000
 1
（ロゴマーク清刷り見本使用のこと）
 41
0.833333
 7
STANDARD
 0
LINE
 8
001
 6
CENTER
 10
833.013830
 20
-63.481293
 11
833.013830
 21
-62.452158
 0
LINE
 8
001
 6
HIDDEN
 10
833.013830
 20
-2.029423
 11
833.013830
 21
-9.029423
 0
LINE
 8
001
 6
CENTER
 10
738.507552
 20
-5.529423
 11
849.452161
 21
-5.529423
 0
ARC
 8
001
 6
DASHED
 10
846.416309
 20
-78.252158
 40
2.700000
 50
180.000000
 51
201.217606
 0
LINE
 8
001
 10
739.016309
 20
-3.908968
 11
739.016309
 21
-3.029423
 0
LINE
 8
001
 62
3
 10
739.016309
 20
-3.849227
 11
739.016309
 21
-7.209619
 0
LINE
 8
001
 10
739.016309
 20
-3.908968
 11
739.016309
 21
-3.029423
 0
ARC
 8
001
 62
3
 10
740.016309
 20
-7.209619
 40
1.000000
 50
180.000000
 51
258.690068
 0
ARC
 8
001
 62
3
 10
740.016309
 20
-3.849227
 40
1.000000
 50
101.309932
 51
180.000000
 0
LINE
 8
001
 62
3
 10
749.016309
 20
-61.952158
 11
739.016309
 21
-62.752158
 0
LINE
 8
001
 10
851.564231
 20
-11.375183
 11
850.272843
 21
-12.279423
 0
LINE
 8
001
 10
848.696349
 20
-12.279423
 11
850.272843
 21
-12.279423
 0
LINE
 8
001
 10
739.016309
 20
-7.149879
 11
739.016309
 21
-8.029423
 0
LINE
 8
001
 62
3
 10
739.820193
 20
-2.868646
 11
749.016309
 21
-1.029423
 0
LINE
 8
001
 62
3
 10
739.820193
 20
-8.190200
 11
749.016309
 21
-10.029423
 0
LINE
 8
001
 10
739.820193
 20
-8.190200
 11
739.016309
 21
-8.029423
 0
LINE
 8
001
 10
739.820193
 20
-2.868646
 11
739.016309
 21
-3.029423
 0
LINE
 8
001
 62
3
 10
875.095140
 20
-36.585656
 11
873.947987
 21
-34.947351
 0
LINE
 8
001
 10
840.057525
 20
-9.255890
 11
840.057525
 21
-1.762436
 0
LINE
 8
001
 6
DASHED
 10
833.016309
 20
-62.652158
 11
788.013830
 21
-62.652158
 0
LINE
 8
001
 6
CENTER
 10
910.519457
 20
-22.739114
 11
922.140352
 21
-14.602076
 0
LINE
 8
001
 6
CENTER
 10
920.047768
 20
-21.601652
 11
907.707454
 21
-3.977858
 0
LINE
 8
001
 6
DASHED
 10
788.013830
 20
-2.029423
 11
788.013830
 21
-9.029423
 0
LINE
 8
001
 6
DASHED
 10
749.016309
 20
-2.029423
 11
749.016309
 21
-9.029423
 0
TEXT
 8
001
 62
3
 10
955.501841
 20
-87.223766
 40
3.200000
 1
1999.3.19
 41
1.268179
 7
STANDARD
 0
TEXT
 8
001
 62
3
 10
940.894372
 20
-96.199393
 40
5.103000
 1
K-DS-01-3
 41
1.058824
 7
STANDARD
 0
TEXT
 8
001
 62
3
 10
939.585841
 20
22.154336
 40
5.040000
 1
※１袋３本入り
 41
0.833333
 7
STANDARD
 0
TEXT
 8
001
 62
3
 10
907.018992
 20
-72.765468
 40
3.200000
 1
DS-01-3
 41
1.076923
 7
STANDARD
 0
TEXT
 8
001
 62
3
 10
894.304493
 20
-79.834295
 40
3.200000
 1
ＰＡ６樹脂
 41
0.833333
 7
STANDARD
 0
ARC
 8
001
 62
3
 10
804.283050
 20
56.442805
 40
2.000000
 50
0.000000
 51
90.000000
 0
LINE
 8
001
 62
3
 10
786.283050
 20
58.442805
 11
804.283050
 21
58.442805
 0
ARC
 8
001
 62
3
 10
786.283050
 20
56.442805
 40
2.000000
 50
90.000000
 51
180.000000
 0
LINE
 8
001
 62
3
 10
784.283050
 20
56.442805
 11
784.283050
 21
41.607957
 0
LINE
 8
001
 62
3
 10
804.283050
 20
39.607957
 11
786.283050
 21
39.607957
 0
ARC
 8
001
 62
3
 10
786.283050
 20
41.607957
 40
2.000000
 50
180.000000
 51
270.000000
 0
ARC
 8
001
 62
3
 10
804.283050
 20
41.607957
 40
2.000000
 50
270.000000
 51
0.000000
 0
LINE
 8
001
 62
3
 10
806.283050
 20
56.442805
 11
806.283050
 21
41.607957
 0
LINE
 8
001
 62
3
 10
780.283050
 20
24.412872
 11
780.283050
 21
65.073910
 0
LINE
 8
001
 62
3
 10
810.283050
 20
24.047013
 11
810.283050
 21
64.026989
 0
LINE
 8
001
 62
3
 10
906.588138
 20
-8.481372
 11
908.694554
 21
-6.404593
 0
ARC
 8
001
 62
3
 10
908.694376
 20
-10.617668
 40
3.000000
 50
134.594068
 51
215.000000
 0
LINE
 8
001
 62
3
 10
907.229529
 20
-5.040406
 11
905.183979
 21
-7.057175
 0
ARC
 8
001
 62
3
 10
906.842780
 20
-5.000423
 40
0.300000
 50
314.594068
 51
27.807162
 0
ARC
 8
001
 62
3
 10
907.997161
 20
-4.391603
 40
1.005090
 50
29.757470
 51
220.204510
 0
ARC
 8
001
 62
3
 10
904.187757
 20
-13.407004
 40
0.300000
 50
305.000000
 51
31.755108
 0
ARC
 8
001
 62
3
 10
904.598615
 20
-13.485550
 40
2.000000
 50
305.000000
 51
35.000000
 0
ARC
 8
001
 62
3
 10
911.151832
 20
-8.896939
 40
3.500000
 50
299.076307
 51
134.594068
 0
ARC
 8
001
 62
3
 10
908.694376
 20
-10.617668
 40
5.000000
 50
134.594068
 51
211.755108
 0
ARC
 8
001
 62
3
 10
891.854685
 20
-22.164791
 40
1.000000
 50
35.000000
 51
215.000000
 0
LINE
 8
001
 62
3
 10
893.444554
 20
-26.178806
 11
891.035533
 21
-22.738368
 0
ARC
 8
001
 62
3
 10
893.748352
 20
-18.641437
 40
2.000000
 50
241.743684
 51
305.000000
 0
ARC
 8
001
 62
3
 10
894.643397
 20
-18.014720
 40
4.000000
 50
236.100196
 51
305.000000
 0
ARC
 8
001
 62
3
 10
873.151406
 20
-33.063574
 40
2.000000
 50
305.000000
 51
8.256316
 0
ARC
 8
001
 62
3
 10
872.256362
 20
-33.690291
 40
4.000000
 50
305.000000
 51
13.899804
 0
LINE
 8
001
 62
3
 10
877.929101
 20
-31.915591
 11
880.338122
 21
-35.356029
 0
ARC
 8
001
 62
3
 10
881.976426
 20
-34.208877
 40
1.000000
 50
215.000000
 51
35.000000
 0
LINE
 8
001
 62
3
 10
881.157274
 20
-34.782453
 11
878.748253
 21
-31.342014
 0
ARC
 8
001
 62
3
 10
885.907336
 20
-24.131776
 40
2.000000
 50
35.000000
 51
215.000000
 0
ARC
 8
001
 62
3
 10
885.907336
 20
-24.131776
 40
1.000000
 50
35.000000
 51
215.000000
 0
LINE
 8
001
 62
3
 10
887.710490
 20
-30.193841
 11
884.269031
 21
-25.278929
 0
LINE
 8
001
 62
3
 10
888.529642
 20
-29.620265
 11
885.088183
 21
-24.705353
 0
ARC
 8
001
 62
3
 10
891.806250
 20
-27.325959
 40
2.000000
 50
215.000000
 51
35.000000
 0
ARC
 8
001
 62
3
 10
891.806250
 20
-27.325959
 40
1.000000
 50
215.000000
 51
35.000000
 0
LINE
 8
001
 62
3
 10
890.987098
 20
-27.899536
 11
887.545640
 21
-22.984623
 0
LINE
 8
001
 62
3
 10
890.167946
 20
-28.473112
 11
886.726488
 21
-23.558200
 0
LINE
 8
001
 62
3
 10
892.625402
 20
-26.752383
 11
890.216381
 21
-23.311944
 0
LINE
 8
001
 62
3
 10
882.795578
 20
-33.635300
 11
879.354119
 21
-28.720388
 0
ARC
 8
001
 62
3
 10
880.992423
 20
-27.573235
 40
1.000000
 50
35.000000
 51
215.000000
 0
ARC
 8
001
 62
3
 10
886.891338
 20
-30.767418
 40
1.000000
 50
215.000000
 51
35.000000
 0
ARC
 8
001
 62
3
 10
886.891338
 20
-30.767418
 40
2.000000
 50
215.000000
 51
35.000000
 0
LINE
 8
001
 62
3
 10
885.253034
 20
-31.914571
 11
881.811575
 21
-26.999658
 0
LINE
 8
001
 62
3
 10
886.072186
 20
-31.340994
 11
882.630727
 21
-26.426082
 0
LINE
 8
001
 62
3
 10
883.614730
 20
-33.061724
 11
880.173271
 21
-28.146811
 0
ARC
 8
001
 62
3
 10
881.976426
 20
-34.208877
 40
2.000000
 50
215.000000
 51
35.000000
 0
ARC
 8
001
 62
3
 10
880.992423
 20
-27.573235
 40
2.000000
 50
35.000000
 51
215.000000
 0
ARC
 8
001
 62
3
 10
877.109949
 20
-32.489167
 40
1.000000
 50
35.000000
 51
193.899804
 0
ARC
 8
001
 62
3
 10
891.854685
 20
-22.164791
 40
2.000000
 50
61.743684
 51
215.000000
 0
ARC
 8
001
 62
3
 10
877.109949
 20
-32.489167
 40
2.000000
 50
35.000000
 51
188.256316
 0
LINE
 8
001
 62
3
 10
749.016309
 20
-1.029423
 11
835.016309
 21
-1.029423
 0
LINE
 8
001
 62
3
 10
833.016309
 20
-63.452158
 11
739.016309
 21
-63.452158
 0
LINE
 8
001
 62
3
 10
898.238452
 20
19.475296
 11
889.634805
 21
31.762576
 0
LINE
 8
001
 62
3
 10
739.016309
 20
-62.752158
 11
739.016309
 21
-63.452158
 0
ARC
 8
001
 62
3
 10
844.016309
 20
-10.279423
 40
2.000000
 50
270.000000
 51
0.000000
 0
LINE
 8
001
 62
3
 10
837.016309
 20
1.220577
 11
846.016309
 21
1.220577
 0
ARC
 8
001
 62
3
 10
837.016309
 20
-0.779423
 40
2.000000
 50
90.000000
 51
180.000000
 0
LINE
 8
001
 62
3
 10
835.016309
 20
-0.779423
 11
835.016309
 21
-10.279423
 0
ARC
 8
001
 62
3
 10
837.016309
 20
-10.279423
 40
2.000000
 50
180.000000
 51
270.000000
 0
LINE
 8
001
 62
3
 10
833.016309
 20
-61.952158
 11
749.016309
 21
-61.952158
 0
LINE
 8
001
 62
3
 10
749.016309
 20
-10.029423
 11
835.016309
 21
-10.029423
 0
LINE
 8
001
 62
3
 10
836.016309
 20
-54.952158
 11
845.016309
 21
-54.952158
 0
ARC
 8
001
 62
3
 10
836.016309
 20
-55.952158
 40
1.000000
 50
90.000000
 51
180.000000
 0
ARC
 8
001
 62
3
 10
833.016309
 20
-59.952158
 40
2.000000
 50
270.000000
 51
0.000000
 0
LINE
 8
001
 62
3
 10
835.016309
 20
-63.918388
 11
835.016309
 21
-55.952158
 0
ARC
 8
001
 62
3
 10
832.333830
 20
-71.402158
 40
7.950000
 50
20.211559
 51
70.280311
 0
ARC
 8
001
 62
3
 10
832.333830
 20
-71.402158
 40
7.950000
 50
70.280311
 51
90.000000
 0
LINE
 8
001
 62
3
 10
860.625031
 20
-6.861905
 11
898.238452
 21
19.475296
 0
LINE
 8
001
 62
3
 10
846.016309
 20
1.220577
 11
889.634805
 21
31.762576
 0
ARC
 8
001
 62
3
 10
844.016309
 20
-0.779423
 40
2.000000
 50
0.000000
 51
90.000000
 0
ARC
 8
001
 62
3
 10
846.416309
 20
-78.252158
 40
2.700000
 50
201.217606
 51
270.000000
 0
LINE
 8
001
 62
3
 10
843.899335
 20
-79.229317
 11
839.693261
 21
-68.395285
 0
ARC
 8
001
 62
3
 10
848.016309
 20
-76.952158
 40
2.000000
 50
180.000000
 51
270.000000
 0
LINE
 8
001
 62
3
 10
846.016309
 20
-80.952158
 11
846.016309
 21
-55.952158
 0
ARC
 8
001
 62
3
 10
845.016309
 20
-55.952158
 40
1.000000
 50
0.000000
 51
90.000000
 0
LINE
 8
001
 62
3
 10
855.668906
 20
-8.501059
 11
860.625031
 21
-6.861905
 0
LINE
 8
001
 62
3
 10
846.016309
 20
-0.779423
 11
846.016309
 21
-10.279423
 0
LINE
 8
001
 62
3
 10
851.564231
 20
-11.375183
 11
855.668906
 21
-8.501059
 0
ARC
 8
001
 62
3
 10
848.696349
 20
-7.279423
 40
5.000000
 50
270.000000
 51
305.000000
 0
LINE
 8
001
 62
3
 10
848.696349
 20
-12.279423
 11
837.016309
 21
-12.279423
 0
LINE
 8
001
 62
3
 10
868.551924
 20
-38.725716
 11
874.298559
 21
-34.701878
 0
LINE
 8
001
 62
3
 10
868.551924
 20
-38.725716
 11
865.821446
 21
-40.637617
 0
LINE
 8
001
 62
3
 10
869.699077
 20
-40.364020
 11
874.550668
 21
-36.966899
 0
LINE
 8
001
 62
3
 10
869.699077
 20
-40.364020
 11
867.271046
 21
-42.064145
 0
LINE
 8
001
 62
3
 10
850.316309
 20
-80.952158
 11
850.316309
 21
-78.952158
 0
LINE
 8
001
 62
3
 10
852.455658
 20
-78.952158
 11
848.016309
 21
-78.952158
 0
LINE
 8
001
 62
3
 10
852.723650
 20
-80.952158
 11
846.416309
 21
-80.952158
 0
LINE
 8
001
 62
3
 10
918.119140
 20
-12.534660
 11
922.935120
 21
-9.162475
 0
ARC
 8
001
 62
3
 10
923.221908
 20
-9.572051
 40
0.500000
 50
35.000000
 51
125.000000
 0
LINE
 8
001
 62
3
 10
924.205061
 20
-10.104414
 11
923.631484
 21
-9.285262
 0
ARC
 8
001
 62
3
 10
918.193131
 20
-18.952957
 40
6.200000
 50
242.964217
 51
35.000000
 0
LINE
 8
001
 62
3
 10
921.952648
 20
-13.512733
 11
923.271874
 21
-15.396783
 0
ARC
 8
001
 62
3
 10
916.701832
 20
-16.823161
 40
6.200000
 50
163.189829
 51
215.000000
 0
ARC
 8
001
 62
3
 10
916.701832
 20
-16.823161
 40
6.200000
 50
125.000000
 51
144.687227
 0
ARC
 8
001
 62
3
 10
914.417129
 20
-23.672258
 40
1.250000
 50
142.653847
 51
320.018239
 0
ARC
 8
001
 62
3
 10
918.193131
 20
-18.952957
 40
6.200000
 50
215.000000
 51
219.707869
 0
LINE
 8
001
 62
3
 10
911.623090
 20
-20.379335
 11
913.114388
 21
-22.509130
 0
ARC
 8
001
 62
3
 10
911.151832
 20
-8.896939
 40
5.500000
 50
305.000000
 51
114.514941
 0
LINE
 8
001
 62
3
 10
896.937702
 20
-21.291329
 11
905.745768
 21
-15.123855
 0
LINE
 8
001
 62
3
 10
894.895505
 20
-20.279741
 11
904.359830
 21
-13.652750
 0
LINE
 8
001
 62
3
 10
907.307414
 20
77.393306
 11
990.907414
 21
77.393306
 0
TEXT
 8
001
 62
3
 10
980.182414
 20
73.248306
 40
3.040000
 1
担
 41
0.859375
 7
STANDARD
 0
TEXT
 8
001
 62
3
 10
987.069914
 20
73.248306
 40
3.040000
 1
当
 41
0.859375
 7
STANDARD
 0
TEXT
 8
001
 62
3
 10
939.986637
 20
73.231143
 40
3.040000
 1
変更・追記内容
 41
1.182726
 7
STANDARD
 0
LINE
 8
001
 62
3
 10
907.307414
 20
81.898695
 11
907.307414
 21
62.543306
 0
TEXT
 8
001
 62
3
 10
911.080118
 20
68.294130
 40
2.432000
 1
1
 41
1.499999
 7
STANDARD
 0
TEXT
 8
001
 62
3
 10
911.080118
 20
63.137919
 40
2.432000
 1
2
 41
1.000000
 7
STANDARD
 0
TEXT
 8
001
 62
3
 10
920.266363
 20
73.807671
 40
3.200000
 1
日
 41
0.859375
 7
STANDARD
 0
TEXT
 8
001
 62
3
 10
929.143237
 20
73.807671
 40
3.200000
 1
付
 41
0.859375
 7
STANDARD
 0
TEXT
 8
001
 62
3
 10
920.092204
 20
78.043306
 40
3.200000
 1
図
 41
0.859375
 7
STANDARD
 0
TEXT
 8
001
 62
3
 10
938.748100
 20
78.043306
 40
3.200000
 1
面
 41
0.859375
 7
STANDARD
 0
TEXT
 8
001
 62
3
 10
957.403995
 20
78.043306
 40
3.200000
 1
略
 41
0.859375
 7
STANDARD
 0
TEXT
 8
001
 62
3
 10
976.059890
 20
78.043306
 40
3.200000
 1
歴
 41
0.859375
 7
STANDARD
 0
TEXT
 8
001
 62
3
 10
907.909778
 20
73.168306
 40
3.200000
 1
記
 41
0.859375
 7
STANDARD
 0
TEXT
 8
001
 62
3
 10
914.162686
 20
73.168306
 40
3.200000
 1
号
 41
0.859375
 7
STANDARD
 0
LINE
 8
001
 62
3
 10
852.398004
 20
90.371312
 11
852.398004
 21
89.122753
 0
LINE
 8
001
 62
3
 10
981.308770
 20
62.543306
 11
907.307414
 21
62.543306
 0
LINE
 8
001
 62
3
 10
989.459105
 20
62.543306
 11
981.308770
 21
62.543306
 0
LINE
 8
001
 62
3
 10
989.459105
 20
62.543306
 11
990.907414
 21
62.543306
 0
LINE
 8
001
 62
2
 10
840.484666
 20
83.732022
 11
840.920414
 21
83.504554
 0
LINE
 8
001
 62
2
 10
840.484666
 20
80.001392
 11
840.920414
 21
80.228860
 0
LINE
 8
001
 62
2
 10
840.920414
 20
83.504554
 11
840.920414
 21
80.228860
 0
LINE
 8
001
 62
2
 10
842.023931
 20
80.001392
 11
841.588183
 21
80.228860
 0
LINE
 8
001
 62
2
 10
841.588183
 20
82.225719
 11
841.588183
 21
80.228860
 0
LINE
 8
001
 62
2
 10
844.565794
 20
83.732022
 11
844.130046
 21
83.504554
 0
LINE
 8
001
 62
2
 10
843.026529
 20
83.732022
 11
843.462276
 21
83.504554
 0
LINE
 8
001
 62
2
 10
843.462276
 20
83.504554
 11
843.462276
 21
82.062217
 0
LINE
 8
001
 62
2
 10
844.130046
 20
83.504554
 11
844.130046
 21
79.789831
 0
LINE
 8
001
 62
2
 10
844.781091
 20
83.732020
 11
845.216837
 21
83.504549
 0
LINE
 8
001
 62
2
 10
844.781013
 20
80.001442
 11
845.216769
 21
80.228895
 0
LINE
 8
001
 62
2
 10
845.216837
 20
83.504549
 11
845.216837
 21
80.228895
 0
LINE
 8
001
 62
2
 10
846.710627
 20
83.731996
 11
846.274876
 21
83.504534
 0
LINE
 8
001
 62
2
 10
846.274876
 20
83.504534
 11
846.274876
 21
80.228880
 0
LINE
 8
001
 62
2
 10
846.710627
 20
80.001418
 11
846.274876
 21
80.228880
 0
LINE
 8
001
 62
2
 10
850.400881
 20
83.731955
 11
850.836628
 21
83.504486
 0
LINE
 8
001
 62
2
 10
850.836628
 20
83.504486
 11
850.836571
 21
80.228832
 0
LINE
 8
001
 62
2
 10
850.400816
 20
80.001377
 11
850.836571
 21
80.228832
 0
LINE
 8
001
 62
2
 10
852.353142
 20
83.731955
 11
851.917395
 21
83.504486
 0
LINE
 8
001
 62
2
 10
852.353207
 20
80.001377
 11
851.917452
 21
80.228832
 0
LINE
 8
001
 62
2
 10
852.556870
 20
83.731955
 11
852.992617
 21
83.504486
 0
LINE
 8
001
 62
2
 10
852.556805
 20
80.001377
 11
852.992560
 21
80.228832
 0
LINE
 8
001
 62
2
 10
854.509131
 20
83.731955
 11
854.073384
 21
83.504486
 0
LINE
 8
001
 62
2
 10
854.073384
 20
83.504486
 11
854.073441
 21
80.228832
 0
LINE
 8
001
 62
2
 10
854.509196
 20
80.001377
 11
854.073441
 21
80.228832
 0
LINE
 8
001
 62
2
 10
852.992592
 20
82.077352
 11
851.917420
 21
82.077352
 0
LINE
 8
001
 62
2
 10
852.992585
 20
81.656062
 11
851.917427
 21
81.656062
 0
LINE
 8
001
 62
2
 10
852.992617
 20
83.504486
 11
852.992592
 21
82.077352
 0
LINE
 8
001
 62
2
 10
852.992585
 20
81.656062
 11
852.992560
 21
80.228832
 0
LINE
 8
001
 62
2
 10
851.917395
 20
83.504486
 11
851.917420
 21
82.077352
 0
LINE
 8
001
 62
2
 10
851.917427
 20
81.656062
 11
851.917452
 21
80.228832
 0
LINE
 8
001
 62
2
 10
854.716090
 20
83.731955
 11
855.151837
 21
83.504486
 0
LINE
 8
001
 62
2
 10
855.151837
 20
83.504486
 11
855.151780
 21
80.228832
 0
LINE
 8
001
 62
2
 10
854.716025
 20
80.001377
 11
855.151780
 21
80.228832
 0
LINE
 8
001
 62
2
 10
856.645600
 20
83.731955
 11
856.209853
 21
83.504486
 0
LINE
 8
001
 62
2
 10
856.209853
 20
83.504486
 11
856.209910
 21
80.228832
 0
LINE
 8
001
 62
2
 10
856.645665
 20
80.001377
 11
856.209910
 21
80.228832
 0
LINE
 8
001
 62
2
 10
856.859960
 20
83.731955
 11
857.295707
 21
83.504486
 0
LINE
 8
001
 62
2
 10
857.295707
 20
83.504486
 11
857.295650
 21
80.228832
 0
LINE
 8
001
 62
2
 10
856.859895
 20
80.001377
 11
857.295650
 21
80.228832
 0
ARC
 8
001
 62
2
 10
849.008970
 20
81.876097
 40
2.086286
 50
97.701524
 51
270.000000
 0
ARC
 8
001
 62
2
 10
861.889570
 20
81.855140
 40
2.108943
 50
0.314250
 51
69.005582
 0
ARC
 8
001
 62
2
 10
862.350246
 20
81.855140
 40
2.108943
 50
110.994418
 51
148.116611
 0
ARC
 8
001
 62
2
 10
861.889570
 20
81.878274
 40
2.108943
 50
290.994418
 51
359.685750
 0
ARC
 8
001
 62
2
 10
862.350246
 20
81.878274
 40
2.108943
 50
211.883389
 51
249.005582
 0
ARC
 8
001
 62
2
 10
862.119908
 20
82.729513
 40
1.214071
 50
64.365172
 51
115.634828
 0
ARC
 8
001
 62
2
 10
862.119908
 20
81.003902
 40
1.214071
 50
244.365172
 51
295.634828
 0
ARC
 8
001
 62
2
 10
862.119908
 20
82.752574
 40
0.595856
 50
19.486606
 51
160.513394
 0
ARC
 8
001
 62
2
 10
862.119908
 20
80.980840
 40
0.595856
 50
199.486606
 51
340.513394
 0
ARC
 8
001
 62
3
 10
857.377436
 20
59.638647
 40
26.040000
 50
69.505715
 51
81.689988
 0
ARC
 8
001
 62
3
 10
857.377436
 20
104.094767
 40
26.040000
 50
278.310012
 51
290.494285
 0
ARC
 8
001
 62
3
 10
865.685640
 20
81.866707
 40
2.310000
 50
290.494285
 51
69.505715
 0
ARC
 8
001
 62
3
 10
838.385640
 20
81.866707
 40
2.310000
 50
110.494285
 51
249.505715
 0
ARC
 8
001
 62
3
 10
846.693844
 20
59.638647
 40
26.040000
 50
98.310012
 51
110.494285
 0
ARC
 8
001
 62
3
 10
846.693844
 20
104.094767
 40
26.040000
 50
249.505715
 51
261.689988
 0
ARC
 8
001
 62
3
 10
852.035640
 20
23.066707
 40
63.000000
 50
81.689988
 51
98.310012
 0
ARC
 8
001
 62
3
 10
852.035640
 20
140.666707
 40
63.000000
 50
261.689988
 51
278.310012
 0
ARC
 8
001
 62
3
 10
852.035640
 20
23.066707
 40
62.370000
 50
81.689988
 51
98.310012
 0
ARC
 8
001
 62
3
 10
852.035640
 20
140.666707
 40
62.370000
 50
261.689988
 51
278.310012
 0
ARC
 8
001
 62
3
 10
857.377436
 20
104.094767
 40
25.410000
 50
278.310012
 51
290.494285
 0
ARC
 8
001
 62
3
 10
857.377436
 20
59.638647
 40
25.410000
 50
69.505715
 51
81.689988
 0
ARC
 8
001
 62
3
 10
865.685640
 20
81.866707
 40
1.680000
 50
290.494285
 51
69.505715
 0
ARC
 8
001
 62
3
 10
838.385640
 20
81.866707
 40
1.680000
 50
110.494285
 51
249.505715
 0
ARC
 8
001
 62
3
 10
846.693844
 20
59.638647
 40
25.410000
 50
98.310012
 51
110.494285
 0
ARC
 8
001
 62
3
 10
846.693844
 20
104.094767
 40
25.410000
 50
249.505715
 51
261.689988
 0
LINE
 8
001
 62
2
 10
856.645601
 20
79.789831
 11
854.716089
 21
79.789831
 0
LINE
 8
001
 62
2
 10
856.645601
 20
80.001392
 11
856.645601
 21
79.789831
 0
LINE
 8
001
 62
2
 10
854.509131
 20
83.943485
 11
852.556869
 21
83.943485
 0
LINE
 8
001
 62
2
 10
854.509131
 20
83.943485
 11
854.509131
 21
83.732022
 0
LINE
 8
001
 62
2
 10
854.509131
 20
80.001392
 11
854.509131
 21
79.789732
 0
LINE
 8
001
 62
2
 10
854.509131
 20
79.789732
 11
852.556869
 21
79.789732
 0
LINE
 8
001
 62
2
 10
856.645601
 20
83.943584
 11
856.645601
 21
83.732022
 0
LINE
 8
001
 62
2
 10
856.645601
 20
83.943584
 11
854.716089
 21
83.943584
 0
LINE
 8
001
 62
2
 10
854.716089
 20
83.943584
 11
854.716089
 21
83.732022
 0
LINE
 8
001
 62
2
 10
856.859959
 20
80.001392
 11
856.859959
 21
79.789831
 0
LINE
 8
001
 62
2
 10
858.844259
 20
79.789831
 11
856.859959
 21
79.789831
 0
LINE
 8
001
 62
2
 10
858.353723
 20
83.275814
 11
858.353723
 21
80.457600
 0
LINE
 8
001
 62
2
 10
858.353723
 20
80.457600
 11
858.543772
 21
80.457600
 0
ARC
 8
001
 62
2
 10
857.571986
 20
81.866707
 40
1.711710
 50
304.591955
 51
55.408045
 0
LINE
 8
001
 62
2
 10
858.844259
 20
83.943584
 11
856.859959
 21
83.943584
 0
LINE
 8
001
 62
2
 10
856.859959
 20
83.943584
 11
856.859959
 21
83.732022
 0
LINE
 8
001
 62
2
 10
854.716089
 20
80.001392
 11
854.716089
 21
79.789831
 0
LINE
 8
001
 62
2
 10
858.353723
 20
83.275814
 11
858.543772
 21
83.275814
 0
LINE
 8
001
 62
2
 10
846.710563
 20
80.001392
 11
846.710559
 21
79.789811
 0
LINE
 8
001
 62
2
 10
844.781048
 20
79.789851
 11
846.710559
 21
79.789817
 0
LINE
 8
001
 62
2
 10
840.484666
 20
79.789831
 11
842.023931
 21
79.789831
 0
ARC
 8
001
 62
2
 10
835.502723
 20
81.915614
 40
14.713566
 50
353.866006
 51
357.694034
 0
LINE
 8
001
 62
2
 10
849.219303
 20
81.327246
 11
850.204374
 21
81.323601
 0
POLYLINE
 8
001
 62
2
 66
1
 0
VERTEX
 8
001
 62
2
 10
849.223281
 20
82.402461
 0
VERTEX
 8
001
 62
2
 10
849.204654
 20
82.521729
 0
VERTEX
 8
001
 62
2
 10
849.182283
 20
82.635934
 0
VERTEX
 8
001
 62
2
 10
849.156341
 20
82.744193
 0
VERTEX
 8
001
 62
2
 10
849.127029
 20
82.845669
 0
VERTEX
 8
001
 62
2
 10
849.094573
 20
82.939579
 0
VERTEX
 8
001
 62
2
 10
849.059224
 20
83.025196
 0
VERTEX
 8
001
 62
2
 10
849.021256
 20
83.101858
 0
VERTEX
 8
001
 62
2
 10
848.980962
 20
83.168973
 0
VERTEX
 8
001
 62
2
 10
848.938653
 20
83.226023
 0
VERTEX
 8
001
 62
2
 10
848.894656
 20
83.272566
 0
VERTEX
 8
001
 62
2
 10
848.849312
 20
83.308242
 0
VERTEX
 8
001
 62
2
 10
848.802971
 20
83.332776
 0
VERTEX
 8
001
 62
2
 10
848.755991
 20
83.345977
 0
VERTEX
 8
001
 62
2
 10
848.708736
 20
83.347745
 0
VERTEX
 8
001
 62
2
 10
848.661570
 20
83.338065
 0
VERTEX
 8
001
 62
2
 10
848.614858
 20
83.317013
 0
VERTEX
 8
001
 62
2
 10
848.568961
 20
83.284750
 0
VERTEX
 8
001
 62
2
 10
848.524234
 20
83.241526
 0
VERTEX
 8
001
 62
2
 10
848.481022
 20
83.187676
 0
VERTEX
 8
001
 62
2
 10
848.439661
 20
83.123616
 0
VERTEX
 8
001
 62
2
 10
848.400468
 20
83.049840
 0
VERTEX
 8
001
 62
2
 10
848.363748
 20
82.966919
 0
VERTEX
 8
001
 62
2
 10
848.329784
 20
82.875494
 0
VERTEX
 8
001
 62
2
 10
848.298839
 20
82.776272
 0
VERTEX
 8
001
 62
2
 10
848.271152
 20
82.670019
 0
VERTEX
 8
001
 62
2
 10
848.246936
 20
82.557557
 0
VERTEX
 8
001
 62
2
 10
848.226379
 20
82.439755
 0
VERTEX
 8
001
 62
2
 10
848.209641
 20
82.317524
 0
VERTEX
 8
001
 62
2
 10
848.196849
 20
82.191808
 0
VERTEX
 8
001
 62
2
 10
848.188104
 20
82.063580
 0
VERTEX
 8
001
 62
2
 10
848.183472
 20
81.933829
 0
VERTEX
 8
001
 62
2
 10
848.182990
 20
81.803560
 0
VERTEX
 8
001
 62
2
 10
848.186662
 20
81.673779
 0
VERTEX
 8
001
 62
2
 10
848.194458
 20
81.545489
 0
VERTEX
 8
001
 62
2
 10
848.206319
 20
81.419682
 0
VERTEX
 8
001
 62
2
 10
848.222152
 20
81.297330
 0
VERTEX
 8
001
 62
2
 10
848.241837
 20
81.179379
 0
VERTEX
 8
001
 62
2
 10
848.265219
 20
81.066741
 0
VERTEX
 8
001
 62
2
 10
848.292120
 20
80.960287
 0
VERTEX
 8
001
 62
2
 10
848.322330
 20
80.860838
 0
VERTEX
 8
001
 62
2
 10
848.355616
 20
80.769164
 0
VERTEX
 8
001
 62
2
 10
848.391722
 20
80.685974
 0
VERTEX
 8
001
 62
2
 10
848.430367
 20
80.611910
 0
VERTEX
 8
001
 62
2
 10
848.471254
 20
80.547545
 0
VERTEX
 8
001
 62
2
 10
848.514065
 20
80.493377
 0
VERTEX
 8
001
 62
2
 10
848.558471
 20
80.449823
 0
VERTEX
 8
001
 62
2
 10
848.604128
 20
80.417222
 0
VERTEX
 8
001
 62
2
 10
848.650683
 20
80.395824
 0
VERTEX
 8
001
 62
2
 10
848.697776
 20
80.385796
 0
VERTEX
 8
001
 62
2
 10
848.745044
 20
80.387214
 0
VERTEX
 8
001
 62
2
 10
848.792120
 20
80.400067
 0
VERTEX
 8
001
 62
2
 10
848.838641
 20
80.424258
 0
VERTEX
 8
001
 62
2
 10
848.884248
 20
80.459597
 0
VERTEX
 8
001
 62
2
 10
848.928588
 20
80.505813
 0
VERTEX
 8
001
 62
2
 10
848.971318
 20
80.562548
 0
VERTEX
 8
001
 62
2
 10
849.012107
 20
80.629363
 0
VERTEX
 8
001
 62
2
 10
849.050642
 20
80.705743
 0
VERTEX
 8
001
 62
2
 10
849.086623
 20
80.791096
 0
VERTEX
 8
001
 62
2
 10
849.119773
 20
80.884762
 0
VERTEX
 8
001
 62
2
 10
849.149835
 20
80.986019
 0
VERTEX
 8
001
 62
2
 10
849.176578
 20
81.094083
 0
VERTEX
 8
001
 62
2
 10
849.199793
 20
81.208120
 0
VERTEX
 8
001
 62
2
 10
849.219303
 20
81.327246
 0
SEQEND
 8
001
 0
LINE
 8
001
 62
2
 10
849.223281
 20
82.402461
 11
850.208352
 21
82.398816
 0
ARC
 8
001
 62
2
 10
835.502723
 20
81.915614
 40
14.713566
 50
1.881966
 51
5.709994
 0
LINE
 8
001
 62
2
 10
846.710632
 20
83.943564
 11
846.710628
 21
83.732022
 0
LINE
 8
001
 62
2
 10
844.781120
 20
83.943603
 11
846.710632
 21
83.943570
 0
LINE
 8
001
 62
2
 10
844.781051
 20
80.001392
 11
844.781048
 21
79.789851
 0
LINE
 8
001
 62
2
 10
844.781120
 20
83.943603
 11
844.781116
 21
83.732022
 0
LINE
 8
001
 62
2
 10
842.023931
 20
80.001392
 11
842.023931
 21
79.789831
 0
LINE
 8
001
 62
2
 10
841.588183
 20
82.225719
 11
843.110613
 21
79.789831
 0
LINE
 8
001
 62
2
 10
843.110613
 20
79.789831
 11
844.130046
 21
79.789831
 0
LINE
 8
001
 62
2
 10
844.565794
 20
83.943584
 11
844.565794
 21
83.732022
 0
LINE
 8
001
 62
2
 10
843.026529
 20
83.943584
 11
844.565794
 21
83.943584
 0
LINE
 8
001
 62
2
 10
843.026529
 20
83.943584
 11
843.026529
 21
83.732022
 0
LINE
 8
001
 62
2
 10
843.462276
 20
82.062217
 11
842.227630
 21
83.943584
 0
LINE
 8
001
 62
2
 10
840.484666
 20
83.943584
 11
842.227630
 21
83.943584
 0
LINE
 8
001
 62
2
 10
850.400880
 20
83.943485
 11
852.353143
 21
83.943485
 0
LINE
 8
001
 62
2
 10
850.400880
 20
83.732022
 11
850.400880
 21
83.943485
 0
LINE
 8
001
 62
2
 10
850.400880
 20
79.789732
 11
850.400880
 21
80.001392
 0
LINE
 8
001
 62
2
 10
850.400880
 20
79.789732
 11
852.353143
 21
79.789732
 0
LINE
 8
001
 62
2
 10
852.556869
 20
80.001392
 11
852.556869
 21
79.789732
 0
LINE
 8
001
 62
2
 10
852.353143
 20
80.001392
 11
852.353143
 21
79.789732
 0
LINE
 8
001
 62
2
 10
852.353143
 20
83.732022
 11
852.353143
 21
83.943485
 0
LINE
 8
001
 62
2
 10
852.556869
 20
83.732022
 11
852.556869
 21
83.943485
 0
LINE
 8
001
 62
2
 10
840.484666
 20
80.001392
 11
840.484666
 21
79.789831
 0
LINE
 8
001
 62
2
 10
840.484666
 20
83.943584
 11
840.484666
 21
83.732022
 0
ARC
 8
001
 62
2
 10
859.054259
 20
82.302455
 40
1.641128
 50
17.308749
 51
23.765071
 0
ARC
 8
001
 62
2
 10
857.655986
 20
81.866707
 40
3.105726
 50
342.691251
 51
17.308566
 0
ARC
 8
001
 62
2
 10
859.054259
 20
81.430959
 40
1.641128
 50
336.234929
 51
342.691251
 0
ARC
 8
001
 62
2
 10
858.844259
 20
82.302455
 40
1.641128
 50
17.308749
 51
90.000000
 0
ARC
 8
001
 62
2
 10
857.445986
 20
81.866707
 40
3.105726
 50
342.691251
 51
17.308566
 0
ARC
 8
001
 62
2
 10
858.844259
 20
81.430959
 40
1.641128
 50
270.000000
 51
342.691251
 0
ARC
 8
001
 62
2
 10
848.720319
 20
81.866707
 40
2.076876
 50
46.752880
 51
89.749998
 0
ARC
 8
001
 62
2
 10
848.720319
 20
81.866707
 40
2.076876
 50
273.976333
 51
312.823120
 0
ARC
 8
001
 62
2
 10
860.162127
 20
81.834646
 40
2.755889
 50
0.666584
 51
23.903928
 0
ARC
 8
001
 62
2
 10
864.077689
 20
81.834646
 40
2.755889
 50
156.096072
 51
179.333416
 0
ARC
 8
001
 62
2
 10
860.162127
 20
81.898769
 40
2.755889
 50
336.096072
 51
359.333416
 0
ARC
 8
001
 62
2
 10
864.077689
 20
81.898769
 40
2.755889
 50
180.666584
 51
203.903928
 0
LINE
 8
001
 62
3
 10
939.098605
 20
-81.372438
 11
939.098605
 21
-60.372438
 0
LINE
 8
001
 62
3
 10
952.098605
 20
-81.372438
 11
952.098605
 21
-60.372438
 0
LINE
 8
001
 62
3
 10
965.098605
 20
-81.372438
 11
965.098605
 21
-60.372438
 0
LINE
 8
001
 62
3
 10
939.098605
 20
-81.372438
 11
939.098605
 21
-88.372438
 0
LINE
 8
001
 62
3
 10
912.044995
 20
-88.372438
 11
912.044995
 21
-74.372438
 0
LINE
 8
001
 62
3
 10
922.376930
 20
-74.762462
 11
922.376930
 21
-88.372438
 0
TEXT
 8
001
 62
3
 10
941.108923
 20
-62.167322
 40
2.000000
 1
A
 41
0.700000
 7
STANDARD
 0
TEXT
 8
001
 62
3
 10
943.644209
 20
-62.167322
 40
2.000000
 1
P
 41
0.700000
 7
STANDARD
 0
TEXT
 8
001
 62
3
 10
946.179495
 20
-62.167322
 40
2.000000
 1
P
 41
0.700000
 7
STANDARD
 0
TEXT
 8
001
 62
3
 10
948.714781
 20
-62.167322
 40
2.000000
 1
D
 41
0.700000
 7
STANDARD
 0
TEXT
 8
001
 62
3
 10
954.083465
 20
-62.167322
 40
2.000000
 1
C
 41
0.700000
 7
STANDARD
 0
TEXT
 8
001
 62
3
 10
956.618751
 20
-62.167322
 40
2.000000
 1
H
 41
0.700000
 7
STANDARD
 0
TEXT
 8
001
 62
3
 10
959.154037
 20
-62.167322
 40
2.000000
 1
C
 41
0.700000
 7
STANDARD
 0
TEXT
 8
001
 62
3
 10
961.689323
 20
-62.167322
 40
2.000000
 1
K
 41
0.700000
 7
STANDARD
 0
TEXT
 8
001
 62
3
 10
967.363290
 20
-62.167322
 40
2.000000
 1
DESN
 41
1.216763
 7
STANDARD
 0
TEXT
 8
001
 62
3
 10
882.356931
 20
-91.513820
 40
2.000000
 1
NICHIDO IND.CO.LTD
 41
1.274876
 7
STANDARD
 0
LINE
 8
001
 62
3
 10
892.739960
 20
-60.731763
 11
892.739960
 21
-81.372438
 0
LINE
 8
001
 62
3
 10
939.098605
 20
-88.372438
 11
939.098605
 21
-98.038161
 0
LINE
 8
001
 62
3
 10
892.739960
 20
-60.372438
 11
892.739960
 21
-58.372438
 0
LINE
 8
001
 62
3
 10
939.098605
 20
-60.372438
 11
939.098605
 21
-58.372438
 0
LINE
 8
001
 62
3
 10
952.098605
 20
-60.372438
 11
952.098605
 21
-58.372438
 0
LINE
 8
001
 62
3
 10
965.098605
 20
-60.372438
 11
965.098605
 21
-58.372438
 0
LINE
 8
001
 62
3
 10
952.098605
 20
-81.372438
 11
952.098605
 21
-88.372438
 0
TEXT
 8
001
 62
3
 10
940.211050
 20
-87.507752
 40
3.200000
 1
作成日
 41
1.017226
 7
STANDARD
 0
LINE
 8
001
 62
3
 10
990.797968
 20
-58.372438
 11
879.494526
 21
-58.372438
 0
LINE
 8
001
 62
3
 10
978.098605
 20
-81.372438
 11
978.098605
 21
-58.372438
 0
TEXT
 8
001
 62
3
 10
981.422408
 20
-62.081504
 40
1.800000
 1
D
 41
0.666667
 7
STANDARD
 0
TEXT
 8
001
 62
3
 10
984.239036
 20
-62.081504
 40
1.800000
 1
E
 41
0.666667
 7
STANDARD
 0
TEXT
 8
001
 62
3
 10
987.055665
 20
-62.081504
 40
1.800000
 1
F
 41
0.666667
 7
STANDARD
 0
TEXT
 8
001
 62
3
 10
981.422408
 20
-66.074057
 40
3.200000
 1
製図
 41
1.076369
 7
STANDARD
 0
LINE
 8
001
 62
3
 10
879.494526
 20
-58.372438
 11
879.494526
 21
-98.038161
 0
TEXT
 8
001
 62
3
 10
880.871179
 20
-97.705696
 40
5.000000
 1
日動工業株式会社
 41
0.833333
 7
STANDARD
 0
LINE
 8
001
 62
3
 10
922.376930
 20
-88.372438
 11
922.376930
 21
-98.038161
 0
LINE
 8
001
 62
3
 10
922.376930
 20
-93.205300
 11
939.098605
 21
-93.205300
 0
TEXT
 8
001
 62
3
 10
922.963532
 20
-92.388869
 40
3.200000
 1
出図コード
 41
0.835686
 7
STANDARD
 0
LINE
 8
001
 62
3
 10
987.161701
 20
-88.372438
 11
955.682154
 21
-88.372438
 0
LINE
 8
001
 62
3
 10
987.161701
 20
-88.372438
 11
990.797968
 21
-88.372438
 0
LINE
 8
001
 62
3
 10
894.640897
 20
-67.372438
 11
879.494526
 21
-67.372438
 0
LINE
 8
001
 62
3
 10
936.912752
 20
-67.372438
 11
990.797968
 21
-67.372438
 0
LINE
 8
001
 62
3
 10
898.226421
 20
-67.372438
 11
894.640897
 21
-67.372438
 0
LINE
 8
001
 62
3
 10
933.331199
 20
-67.372438
 11
898.226421
 21
-67.372438
 0
LINE
 8
001
 62
3
 10
933.331199
 20
-67.372438
 11
936.912752
 21
-67.372438
 0
LINE
 8
001
 62
3
 10
898.226421
 20
-74.372438
 11
879.494526
 21
-74.372438
 0
LINE
 8
001
 62
3
 10
933.243844
 20
-74.372438
 11
898.226421
 21
-74.372438
 0
LINE
 8
001
 62
3
 10
933.243844
 20
-74.372438
 11
939.098605
 21
-74.372438
 0
LINE
 8
001
 62
3
 10
925.695582
 20
-88.372438
 11
879.494526
 21
-88.372438
 0
LINE
 8
001
 62
3
 10
935.463453
 20
-88.372438
 11
925.695582
 21
-88.372438
 0
LINE
 8
001
 62
3
 10
935.463453
 20
-88.372438
 11
955.682154
 21
-88.372438
 0
LINE
 8
001
 62
3
 10
894.898991
 20
-81.372438
 11
879.494526
 21
-81.372438
 0
LINE
 8
001
 62
3
 10
909.356235
 20
-81.372438
 11
894.898991
 21
-81.372438
 0
LINE
 8
001
 62
3
 10
909.356235
 20
-81.372438
 11
990.797968
 21
-81.372438
 0
TEXT
 8
001
 62
3
 10
922.830983
 20
-97.435967
 40
3.200000
 1
ZK-A4X
 41
0.811285
 7
STANDARD
 0
LINE
 8
001
 62
3
 10
834.654449
 20
81.898695
 11
713.898004
 21
81.898695
 0
LINE
 8
001
 62
3
 10
990.898004
 20
81.898695
 11
869.459543
 21
81.898695
 0
LINE
 8
001
 62
3
 10
990.898004
 20
-98.101305
 11
990.898004
 21
81.898695
 0
LINE
 8
001
 62
3
 10
944.437001
 20
-98.101305
 11
713.898004
 21
-98.101305
 0
LINE
 8
001
 62
3
 10
989.519109
 20
-98.101305
 11
990.898004
 21
-98.101305
 0
LINE
 8
001
 62
3
 10
985.389999
 20
-98.101305
 11
989.519109
 21
-98.101305
 0
LINE
 8
001
 62
3
 10
948.566111
 20
-98.101305
 11
985.389999
 21
-98.101305
 0
LINE
 8
001
 62
3
 10
948.566111
 20
-98.101305
 11
944.437001
 21
-98.101305
 0
LINE
 8
001
 62
3
 10
713.898004
 20
81.898695
 11
713.898004
 21
-98.101305
 0
TEXT
 8
001
 62
3
 10
881.311923
 20
-62.202913
 40
2.000000
 1
CONPONENTS
 41
0.533160
 7
STANDARD
 0
TEXT
 8
001
 62
3
 10
880.962196
 20
-81.135089
 40
3.000000
 1
材
 41
0.833333
 7
STANDARD
 0
TEXT
 8
001
 62
3
 10
888.497839
 20
-81.135089
 40
3.000000
 1
質
 41
0.833333
 7
STANDARD
 0
TEXT
 8
001
 62
3
 10
881.050267
 20
-70.510565
 40
2.000000
 1
MODEL
 41
1.031073
 7
STANDARD
 0
TEXT
 8
001
 62
3
 10
880.962196
 20
-77.452781
 40
2.000000
 1
MATERIAL
 41
0.659278
 7
STANDARD
 0
TEXT
 8
001
 62
3
 10
912.269477
 20
-81.135089
 40
3.000000
 1
備
 41
0.833333
 7
STANDARD
 0
TEXT
 8
001
 62
3
 10
919.002478
 20
-81.135089
 40
3.000000
 1
考
 41
0.833333
 7
STANDARD
 0
TEXT
 8
001
 62
3
 10
912.022467
 20
-77.452781
 40
2.000000
 1
REMARKS
 41
0.675794
 7
STANDARD
 0
TEXT
 8
001
 62
3
 10
882.551925
 20
-84.372902
 40
2.000000
 1
3AD
 41
1.426140
 7
STANDARD
 0
TEXT
 8
001
 62
3
 10
891.862905
 20
-84.207168
 40
2.000000
 1
ANGLE
 41
1.669884
 7
STANDARD
 0
TEXT
 8
001
 62
3
 10
912.796792
 20
-84.584009
 40
2.000000
 1
SCALE
 41
0.771963
 7
STANDARD
 0
TEXT
 8
001
 62
3
 10
882.238055
 20
-88.372438
 40
3.000000
 1
第
 41
0.833333
 7
STANDARD
 0
TEXT
 8
001
 62
3
 10
890.024905
 20
-88.372438
 40
3.000000
 1
三
 41
0.833333
 7
STANDARD
 0
TEXT
 8
001
 62
3
 10
897.811755
 20
-88.372438
 40
3.000000
 1
角
 41
0.833333
 7
STANDARD
 0
TEXT
 8
001
 62
3
 10
905.598605
 20
-88.372438
 40
3.000000
 1
法
 41
0.833333
 7
STANDARD
 0
TEXT
 8
001
 62
3
 10
912.659997
 20
-88.084009
 40
3.000000
 1
尺
 41
0.833333
 7
STANDARD
 0
TEXT
 8
001
 62
3
 10
919.392999
 20
-88.084009
 40
3.000000
 1
度
 41
0.833333
 7
STANDARD
 0
TEXT
 8
001
 62
3
 10
941.976269
 20
-65.914710
 40
3.000000
 1
承認
 41
1.089473
 7
STANDARD
 0
TEXT
 8
001
 62
3
 10
955.219149
 20
-65.972438
 40
3.000000
 1
検図
 41
0.931761
 7
STANDARD
 0
TEXT
 8
001
 62
3
 10
968.219546
 20
-65.972438
 40
3.000000
 1
設
 41
0.833333
 7
STANDARD
 0
TEXT
 8
001
 62
3
 10
972.709414
 20
-65.972438
 40
3.000000
 1
計
 41
0.833333
 7
STANDARD
 0
TEXT
 8
001
 62
3
 10
881.243395
 20
-66.683682
 40
3.000000
 1
品
 41
0.833333
 7
STANDARD
 0
TEXT
 8
001
 62
3
 10
888.779037
 20
-66.683682
 40
3.000000
 1
名
 41
0.833333
 7
STANDARD
 0
TEXT
 8
001
 62
3
 10
881.050267
 20
-74.142825
 40
3.000000
 1
型
 41
0.833333
 7
STANDARD
 0
TEXT
 8
001
 62
3
 10
888.598357
 20
-74.142825
 40
3.000000
 1
式
 41
0.833333
 7
STANDARD
 0
LINE
 8
001
 10
989.222540
 20
67.493306
 11
990.907414
 21
67.493306
 0
LINE
 8
001
 10
917.412847
 20
77.393306
 11
917.412847
 21
62.543306
 0
LINE
 8
001
 10
980.974008
 20
67.493306
 11
907.307414
 21
67.493306
 0
LINE
 8
001
 10
979.309889
 20
77.393306
 11
979.309889
 21
62.543306
 0
LINE
 8
001
 10
935.018174
 20
77.393306
 11
935.018174
 21
62.543306
 0
LINE
 8
001
 10
989.222540
 20
67.493306
 11
980.974008
 21
67.493306
 0
LINE
 8
001
 10
907.307414
 20
72.443306
 11
990.907414
 21
72.443306
 0
LINE
 8
001
 10
912.125118
 20
71.704061
 11
910.225118
 21
68.413164
 0
LINE
 8
001
 10
912.125118
 20
71.704061
 11
914.025118
 21
68.413164
 0
LINE
 8
001
 10
910.225118
 20
68.413164
 11
914.025118
 21
68.413164
 0
LINE
 8
001
 10
912.125118
 20
66.547850
 11
910.225118
 21
63.256954
 0
LINE
 8
001
 10
912.125118
 20
66.547850
 11
914.025118
 21
63.256954
 0
LINE
 8
001
 10
910.225118
 20
63.256954
 11
914.025118
 21
63.256954
 0
TEXT
 8
001
 62
3
 10
926.326550
 20
-86.895710
 40
3.200000
 1
1:1
 41
1.800000
 7
STANDARD
 0
LINE
 8
001
 62
3
 10
965.198641
 20
-58.372438
 11
965.198641
 21
-52.372438
 0
LINE
 8
001
 62
3
 10
939.198641
 20
-58.372438
 11
939.198641
 21
-52.372438
 0
LINE
 8
001
 62
3
 10
990.898004
 20
-52.372438
 11
939.198641
 21
-52.372438
 0
TEXT
 8
001
 62
3
 10
945.194239
 20
-57.576089
 40
4.500000
 1
コード
 41
0.833333
 7
STANDARD
 0
ARC
 8
001
 10
883.008209
 20
12.473289
 40
1.000000
 50
305.000000
 51
35.000000
 0
LINE
 8
001
 10
878.658678
 20
20.414686
 11
883.820866
 21
13.042317
 0
ARC
 8
001
 10
877.846021
 20
19.845657
 40
1.000000
 50
35.000000
 51
125.000000
 0
LINE
 8
001
 10
871.189951
 20
16.405801
 11
877.272444
 21
20.664809
 0
ARC
 8
001
 10
871.763527
 20
15.586649
 40
1.000000
 50
125.000000
 51
215.000000
 0
LINE
 8
001
 10
874.373003
 20
16.662501
 11
873.066723
 21
17.271629
 0
ARC
 8
001
 10
877.382621
 20
14.027695
 40
4.000000
 50
138.799090
 51
311.777392
 0
LINE
 8
001
 10
874.689725
 20
16.985450
 11
873.066723
 21
17.271629
 0
ARC
 8
001
 10
877.382621
 20
14.027695
 40
4.000000
 50
318.799090
 51
132.316377
 0
ARC
 8
001
 10
877.382621
 20
14.027695
 40
3.000000
 50
44.594068
 51
115.405932
 0
LINE
 8
001
 10
879.518917
 20
16.133933
 11
876.095535
 21
16.737568
 0
LINE
 8
001
 10
876.850257
 20
13.044543
 11
880.092493
 21
15.314781
 0
ARC
 8
001
 10
877.382621
 20
14.027695
 40
3.000000
 50
313.160462
 51
25.405932
 0
LINE
 8
001
 10
876.850257
 20
13.044543
 11
879.434752
 21
11.839372
 0
LINE
 8
001
 10
875.211953
 20
11.897390
 11
878.622686
 21
11.295985
 0
ARC
 8
001
 10
877.382621
 20
14.027695
 40
3.000000
 50
225.584224
 51
294.415776
 0
LINE
 8
001
 10
874.672748
 20
12.740609
 11
877.914984
 21
15.010847
 0
ARC
 8
001
 10
877.382621
 20
14.027695
 40
3.000000
 50
133.160462
 51
205.405932
 0
LINE
 8
001
 10
877.914984
 20
15.010847
 11
875.330489
 21
16.216018
 0
LINE
 8
001
 10
880.392238
 20
11.392889
 11
881.802415
 21
10.735313
 0
LINE
 8
001
 10
880.047574
 20
11.044739
 11
881.802415
 21
10.735313
 0
LINE
 8
001
 10
877.499292
 20
7.395129
 11
883.581785
 21
11.654137
 0
ARC
 8
001
 10
876.925715
 20
8.214281
 40
1.000000
 50
215.000000
 51
305.000000
 0
LINE
 8
001
 10
876.106563
 20
7.640704
 11
870.944375
 21
15.013073
 0
LINE
 8
001
 10
870.950870
 20
15.017621
 11
876.113058
 21
7.645252
 0
ARC
 8
001
 10
795.283050
 20
49.009523
 40
8.000000
 50
13.799090
 51
187.316377
 0
ARC
 8
001
 10
795.283050
 20
49.009523
 40
6.000000
 50
99.594068
 51
170.405932
 0
LINE
 8
001
 10
794.283050
 20
54.925603
 11
789.366970
 21
50.009523
 0
LINE
 8
001
 10
794.283050
 20
51.009523
 11
789.343803
 21
48.157848
 0
LINE
 8
001
 10
794.283050
 20
43.093443
 11
794.283050
 21
51.009523
 0
ARC
 8
001
 10
795.283050
 20
49.009523
 40
6.000000
 50
188.160462
 51
260.405932
 0
ARC
 8
001
 10
795.283050
 20
49.009523
 40
8.000000
 50
193.799090
 51
6.777392
 0
LINE
 8
001
 10
787.348185
 20
47.990738
 11
785.017506
 21
45.660058
 0
LINE
 8
001
 10
787.513945
 20
47.101379
 11
785.017506
 21
45.660058
 0
ARC
 8
001
 10
795.283050
 20
49.009523
 40
6.000000
 50
280.584224
 51
349.415776
 0
LINE
 8
001
 10
796.283050
 20
43.009523
 11
801.180966
 21
47.907439
 0
LINE
 8
001
 10
796.283050
 20
47.009523
 11
801.222297
 21
49.861198
 0
LINE
 8
001
 10
796.283050
 20
47.009523
 11
796.283050
 21
54.925603
 0
ARC
 8
001
 10
795.283050
 20
49.009523
 40
6.000000
 50
8.160462
 51
80.405932
 0
LINE
 8
001
 10
803.052155
 20
50.917667
 11
805.747152
 21
52.473625
 0
LINE
 8
001
 10
803.227147
 20
49.953620
 11
805.747152
 21
52.473625
 0
LINE
 8
001
 10
837.848529
 20
-9.529423
 11
841.816309
 21
-9.529423
 0
LINE
 8
001
 10
837.848529
 20
-9.029423
 11
842.545167
 21
-9.029423
 0
LINE
 8
001
 10
843.516309
 20
-10.129423
 11
841.816309
 21
-10.129423
 0
LINE
 8
001
 10
841.816309
 20
-9.529423
 11
841.816309
 21
-10.129423
 0
LINE
 8
001
 10
843.516309
 20
-0.929423
 11
843.516309
 21
-10.129423
 0
LINE
 8
001
 10
842.545167
 20
-9.029423
 11
842.545167
 21
-2.029423
 0
LINE
 8
001
 10
837.848529
 20
-2.029423
 11
842.545167
 21
-2.029423
 0
LINE
 8
001
 10
837.848529
 20
-1.529423
 11
841.816309
 21
-1.529423
 0
LINE
 8
001
 10
843.516309
 20
-0.929423
 11
841.816309
 21
-0.929423
 0
LINE
 8
001
 10
841.816309
 20
-1.529423
 11
841.816309
 21
-0.929423
 0
LINE
 8
001
 10
837.848529
 20
-5.529423
 11
837.848529
 21
-1.529423
 0
LINE
 8
001
 10
840.307525
 20
-9.029423
 11
840.307525
 21
-2.029423
 0
LINE
 8
001
 10
839.807525
 20
-9.029423
 11
839.807525
 21
-2.029423
 0
LINE
 8
001
 10
839.308412
 20
-9.029423
 11
839.308412
 21
-2.029423
 0
LINE
 8
001
 10
837.848529
 20
-5.529423
 11
837.848529
 21
-9.529423
 0
TEXT
 8
001
 10
967.185788
 20
-57.728301
 40
4.500000
 1
8047
 41
1.043478
 7
STANDARD
 0
LINE
 8
002
 62
3
 10
798.361727
 20
-63.452158
 11
798.561727
 21
-63.452158
 0
LINE
 8
002
 6
DASHED
 10
778.013830
 20
-63.452158
 11
778.013830
 21
-62.652158
 0
LINE
 8
002
 6
DASHED
 10
777.013830
 20
-63.452158
 11
777.013830
 21
-62.652158
 0
LINE
 8
002
 6
DASHED
 10
767.013830
 20
-63.452158
 11
767.013830
 21
-62.652158
 0
LINE
 8
002
 6
DASHED
 10
775.013830
 20
-63.452158
 11
775.013830
 21
-62.652158
 0
LINE
 8
002
 6
DASHED
 10
776.013830
 20
-63.452158
 11
776.013830
 21
-62.652158
 0
LINE
 8
002
 6
DASHED
 10
770.013830
 20
-63.452158
 11
770.013830
 21
-62.652158
 0
LINE
 8
002
 6
DASHED
 10
769.013830
 20
-63.452158
 11
769.013830
 21
-62.652158
 0
LINE
 8
002
 6
DASHED
 10
768.013830
 20
-63.452158
 11
768.013830
 21
-62.652158
 0
LINE
 8
002
 6
DASHED
 10
759.013830
 20
-63.452158
 11
759.013830
 21
-62.652158
 0
LINE
 8
002
 6
DASHED
 10
753.016309
 20
-63.452158
 11
753.016309
 21
-62.652158
 0
LINE
 8
002
 6
DASHED
 10
774.013830
 20
-63.452158
 11
774.013830
 21
-62.652158
 0
LINE
 8
002
 6
DASHED
 10
773.013830
 20
-63.452158
 11
773.013830
 21
-62.652158
 0
LINE
 8
002
 6
DASHED
 10
772.013830
 20
-62.652158
 11
772.013830
 21
-63.452158
 0
LINE
 8
002
 6
DASHED
 10
771.013830
 20
-63.452158
 11
771.013830
 21
-62.652158
 0
LINE
 8
002
 62
3
 10
798.561727
 20
-63.452158
 11
798.361727
 21
-63.452158
 0
LINE
 8
002
 62
3
 10
797.561727
 20
-63.452158
 11
797.361727
 21
-63.452158
 0
LINE
 8
002
 62
3
 10
794.361727
 20
-63.452158
 11
794.561727
 21
-63.452158
 0
LINE
 8
002
 62
3
 10
796.561727
 20
-63.452158
 11
796.361727
 21
-63.452158
 0
LINE
 8
002
 62
3
 10
795.561727
 20
-63.452158
 11
795.361727
 21
-63.452158
 0
LINE
 8
002
 62
3
 10
793.561727
 20
-63.452158
 11
793.361727
 21
-63.452158
 0
LINE
 8
002
 62
3
 10
799.561727
 20
-63.452158
 11
799.361727
 21
-63.452158
 0
LINE
 8
002
 62
3
 10
792.361727
 20
-63.452158
 11
792.561727
 21
-63.452158
 0
LINE
 8
004
 10
889.691775
 20
31.340155
 11
915.657168
 21
-5.742269
 0
TEXT
 8
004
 62
4
 10
754.003990
 20
11.736871
 40
6.300000
 1
Ａ詳細　２：１
 41
0.833333
 7
STANDARD
 0
LINE
 8
004
 10
846.016309
 20
-0.610585
 11
846.016309
 21
71.540437
 0
LINE
 8
004
 10
868.551924
 20
-38.725716
 11
841.726166
 21
-0.414564
 0
LINE
 8
004
 10
886.990529
 20
-11.731163
 11
893.607705
 21
-21.181469
 0
LINE
 8
004
 10
868.780526
 20
-24.080412
 11
875.586360
 21
-33.800151
 0
LINE
 8
004
 10
897.389577
 20
-3.189977
 11
905.745768
 21
-15.123855
 0
LINE
 8
004
 6
DASHED
 10
833.013830
 20
-9.029423
 11
749.016309
 21
-9.029423
 0
LINE
 8
004
 6
DASHED
 10
833.013830
 20
-2.029423
 11
749.016309
 21
-2.029423
 0
POLYLINE
 8
004
 66
1
 0
VERTEX
 8
004
 10
789.139669
 20
42.882134
 0
VERTEX
 8
004
 10
790.814804
 20
44.099144
 0
VERTEX
 8
004
 10
788.755590
 20
43.882750
 0
SEQEND
 8
004
 0
LINE
 8
004
 10
790.814804
 20
44.099144
 11
761.206582
 21
32.734240
 0
LINE
 8
004
 10
761.206582
 20
32.734240
 11
733.706582
 21
32.734240
 0
TEXT
 8
004
 62
4
 10
736.456582
 20
33.734240
 40
3.200000
 1
ロゴマーク　８号
 41
0.716146
 7
STANDARD
 0
LINE
 8
004
 62
3
 10
868.551924
 20
-38.725716
 11
869.699077
 21
-40.364020
 0
POLYLINE
 8
004
 66
1
 70
1
 40
0.500000
 41
0.500000
 0
VERTEX
 8
004
 10
877.566902
 20
15.249359
 42
1
 0
VERTEX
 8
004
 10
877.066902
 20
15.249359
 42
1
 0
SEQEND
 8
004
 0
LINE
 8
004
 10
877.316902
 20
15.249359
 11
863.021204
 21
27.857301
 0
CIRCLE
 8
004
 10
859.271246
 20
31.164538
 40
5.000000
 0
TEXT
 8
004
 62
4
 10
856.271245
 20
27.673630
 40
6.981818
 1
A
 41
0.859375
 7
STANDARD
 0
ARC
 8
005
 62
3
 10
921.379071
 20
-12.693581
 40
1.000000
 50
305.000000
 51
35.000000
 0
LINE
 8
005
 62
3
 10
924.082273
 20
-10.800779
 11
922.198223
 21
-12.120004
 0
ARC
 8
005
 62
3
 10
923.795485
 20
-10.391203
 40
0.500000
 50
305.000000
 51
35.000000
 0
ARC
 8
005
 62
3
 10
916.701832
 20
-16.823161
 40
4.200000
 50
35.000000
 51
69.623535
 0
ARC
 8
005
 62
3
 10
918.233855
 20
-12.698491
 40
0.200000
 50
125.000000
 51
249.623535
 0
LINE
 8
005
 62
3
 10
920.142271
 20
-14.414140
 11
921.633570
 21
-16.543935
 0
ARC
 8
005
 62
3
 10
918.193131
 20
-18.952957
 40
4.200000
 50
213.635686
 51
35.000000
 0
ARC
 8
005
 62
3
 10
916.701832
 20
-16.823161
 40
4.200000
 50
125.000000
 51
215.000000
 0
ARC
 8
005
 62
3
 10
911.132228
 20
-14.099283
 40
1.000000
 50
59.312877
 51
248.564178
 0
LINE
 8
005
 62
3
 10
913.261394
 20
-19.232182
 11
914.752692
 21
-21.361978
 0
LINE
 8
010
 6
DASHED
 10
786.013830
 20
-62.652158
 11
786.013830
 21
-63.452158
 0
LINE
 8
010
 6
DASHED
 10
788.013830
 20
-63.452158
 11
788.013830
 21
-62.652158
 0
LINE
 8
010
 6
DASHED
 10
787.013830
 20
-63.452158
 11
787.013830
 21
-62.652158
 0
LINE
 8
010
 6
DASHED
 10
783.013830
 20
-63.452158
 11
783.013830
 21
-62.652158
 0
LINE
 8
010
 6
DASHED
 10
782.013830
 20
-63.452158
 11
782.013830
 21
-62.652158
 0
LINE
 8
010
 6
DASHED
 10
785.013830
 20
-63.452158
 11
785.013830
 21
-62.652158
 0
LINE
 8
010
 6
DASHED
 10
784.013830
 20
-63.452158
 11
784.013830
 21
-62.652158
 0
LINE
 8
010
 6
DASHED
 10
786.013830
 20
-62.652158
 11
786.813830
 21
-63.452158
 0
LINE
 8
010
 6
DASHED
 10
787.813830
 20
-63.452158
 11
787.013830
 21
-62.652158
 0
LINE
 8
010
 6
DASHED
 10
785.013830
 20
-62.652158
 11
785.813830
 21
-63.452158
 0
LINE
 8
010
 6
DASHED
 10
784.013830
 20
-62.652158
 11
784.813830
 21
-63.452158
 0
LINE
 8
010
 6
DASHED
 10
782.013830
 20
-62.652158
 11
782.813830
 21
-63.452158
 0
LINE
 8
010
 6
DASHED
 10
783.013830
 20
-62.652158
 11
783.813830
 21
-63.452158
 0
LINE
 8
010
 6
DASHED
 10
777.013830
 20
-62.652158
 11
777.813830
 21
-63.452158
 0
LINE
 8
010
 6
DASHED
 10
778.013830
 20
-62.652158
 11
778.813830
 21
-63.452158
 0
LINE
 8
010
 6
DASHED
 10
780.013830
 20
-63.452158
 11
780.013830
 21
-62.652158
 0
LINE
 8
010
 6
DASHED
 10
779.013830
 20
-62.652158
 11
779.013830
 21
-63.452158
 0
LINE
 8
010
 6
DASHED
 10
779.013830
 20
-62.652158
 11
779.813830
 21
-63.452158
 0
LINE
 8
010
 6
DASHED
 10
780.813830
 20
-63.452158
 11
780.013830
 21
-62.652158
 0
LINE
 8
010
 6
DASHED
 10
781.013830
 20
-63.452158
 11
781.013830
 21
-62.652158
 0
LINE
 8
010
 6
DASHED
 10
781.013830
 20
-62.652158
 11
781.813830
 21
-63.452158
 0
LINE
 8
010
 6
DASHED
 10
776.662122
 20
-63.300450
 11
776.813830
 21
-63.452158
 0
LINE
 8
010
 6
DASHED
 10
767.013830
 20
-62.652158
 11
767.813830
 21
-63.452158
 0
LINE
 8
010
 6
DASHED
 10
766.013830
 20
-63.452158
 11
766.013830
 21
-62.652158
 0
LINE
 8
010
 6
DASHED
 10
765.013830
 20
-62.652158
 11
765.013830
 21
-63.452158
 0
LINE
 8
010
 6
DASHED
 10
765.013830
 20
-62.652158
 11
765.813830
 21
-63.452158
 0
LINE
 8
010
 6
DASHED
 10
766.813830
 20
-63.452158
 11
766.013830
 21
-62.652158
 0
LINE
 8
010
 6
DASHED
 10
764.013830
 20
-63.452158
 11
764.013830
 21
-62.652158
 0
LINE
 8
010
 6
DASHED
 10
763.013830
 20
-62.652158
 11
763.013830
 21
-63.452158
 0
LINE
 8
010
 6
DASHED
 10
764.013830
 20
-62.652158
 11
764.813830
 21
-63.452158
 0
LINE
 8
010
 6
DASHED
 10
763.013830
 20
-62.652158
 11
763.813830
 21
-63.452158
 0
LINE
 8
010
 6
DASHED
 10
775.013830
 20
-62.652158
 11
775.813830
 21
-63.452158
 0
LINE
 8
010
 6
DASHED
 10
776.662122
 20
-63.300450
 11
776.013830
 21
-62.652158
 0
LINE
 8
010
 6
DASHED
 10
770.013830
 20
-62.652158
 11
770.813830
 21
-63.452158
 0
LINE
 8
010
 6
DASHED
 10
769.013830
 20
-62.652158
 11
769.813830
 21
-63.452158
 0
LINE
 8
010
 6
DASHED
 10
768.013830
 20
-62.652158
 11
768.813830
 21
-63.452158
 0
LINE
 8
010
 6
DASHED
 10
759.013830
 20
-62.652158
 11
759.813830
 21
-63.452158
 0
LINE
 8
010
 6
DASHED
 10
758.013830
 20
-63.452158
 11
758.013830
 21
-62.652158
 0
LINE
 8
010
 6
DASHED
 10
757.013830
 20
-62.652158
 11
757.013830
 21
-63.452158
 0
LINE
 8
010
 6
DASHED
 10
757.013830
 20
-62.652158
 11
757.813830
 21
-63.452158
 0
LINE
 8
010
 6
DASHED
 10
758.813830
 20
-63.452158
 11
758.013830
 21
-62.652158
 0
LINE
 8
010
 6
DASHED
 10
756.013830
 20
-63.452158
 11
756.013830
 21
-62.652158
 0
LINE
 8
010
 6
DASHED
 10
755.013830
 20
-62.652158
 11
755.013830
 21
-63.452158
 0
LINE
 8
010
 6
DASHED
 10
756.013830
 20
-62.652158
 11
756.813830
 21
-63.452158
 0
LINE
 8
010
 6
DASHED
 10
755.013830
 20
-62.652158
 11
755.813830
 21
-63.452158
 0
LINE
 8
010
 6
DASHED
 10
763.013830
 20
-63.452158
 11
763.013830
 21
-62.652158
 0
LINE
 8
010
 6
DASHED
 10
762.013830
 20
-62.652158
 11
762.013830
 21
-63.452158
 0
LINE
 8
010
 6
DASHED
 10
762.013830
 20
-62.652158
 11
762.813830
 21
-63.452158
 0
LINE
 8
010
 6
DASHED
 10
763.813830
 20
-63.452158
 11
763.013830
 21
-62.652158
 0
LINE
 8
010
 6
DASHED
 10
761.013830
 20
-63.452158
 11
761.013830
 21
-62.652158
 0
LINE
 8
010
 6
DASHED
 10
760.013830
 20
-62.652158
 11
760.013830
 21
-63.452158
 0
LINE
 8
010
 6
DASHED
 10
761.013830
 20
-62.652158
 11
761.813830
 21
-63.452158
 0
LINE
 8
010
 6
DASHED
 10
760.013830
 20
-62.652158
 11
760.813830
 21
-63.452158
 0
LINE
 8
010
 6
DASHED
 10
752.016309
 20
-63.452158
 11
752.016309
 21
-62.652158
 0
LINE
 8
010
 6
DASHED
 10
751.016309
 20
-62.652158
 11
751.016309
 21
-63.452158
 0
LINE
 8
010
 6
DASHED
 10
751.016309
 20
-62.652158
 11
751.816309
 21
-63.452158
 0
LINE
 8
010
 6
DASHED
 10
752.816309
 20
-63.452158
 11
752.016309
 21
-62.652158
 0
LINE
 8
010
 6
DASHED
 10
750.016309
 20
-63.452158
 11
750.016309
 21
-62.652158
 0
LINE
 8
010
 6
DASHED
 10
749.016309
 20
-62.652158
 11
749.016309
 21
-63.452158
 0
LINE
 8
010
 6
DASHED
 10
750.016309
 20
-62.652158
 11
750.816309
 21
-63.452158
 0
LINE
 8
010
 6
DASHED
 10
749.016309
 20
-62.652158
 11
749.816309
 21
-63.452158
 0
LINE
 8
010
 6
DASHED
 10
755.016309
 20
-62.652158
 11
755.016309
 21
-63.452158
 0
LINE
 8
010
 6
DASHED
 10
754.016309
 20
-63.452158
 11
754.016309
 21
-62.652158
 0
LINE
 8
010
 6
DASHED
 10
754.016309
 20
-62.652158
 11
754.816309
 21
-63.452158
 0
LINE
 8
010
 6
DASHED
 10
753.016309
 20
-62.652158
 11
753.816309
 21
-63.452158
 0
LINE
 8
010
 6
DASHED
 10
772.013830
 20
-62.652158
 11
772.813830
 21
-63.452158
 0
LINE
 8
010
 6
DASHED
 10
773.813830
 20
-63.452158
 11
773.013830
 21
-62.652158
 0
LINE
 8
010
 6
DASHED
 10
774.013830
 20
-62.652158
 11
774.813830
 21
-63.452158
 0
LINE
 8
010
 6
DASHED
 10
771.013830
 20
-62.652158
 11
771.813830
 21
-63.452158
 0
ENDSEC
 0
EOF
