  0
SECTION
  2
HEADER
  9
$ACADVER
  1
AC1015
  9
$ACADMAINTVER
 70
     6
  9
$DWGCODEPAGE
  3
ANSI_932
  9
$INSBASE
 10
0.0
 20
0.0
 30
0.0
  9
$EXTMIN
 10
-138.5
 20
-90.0
 30
0.0
  9
$EXTMAX
 10
138.5
 20
98.472617
 30
0.0
  9
$LIMMIN
 10
-138.501
 20
-90.001
  9
$LIMMAX
 10
138.510415
 20
98.47361800000002
  9
$ORTHOMODE
 70
     1
  9
$REGENMODE
 70
     1
  9
$FILLMODE
 70
     1
  9
$QTEXTMODE
 70
     0
  9
$MIRRTEXT
 70
     0
  9
$LTSCALE
 40
4.616823999999998
  9
$ATTMODE
 70
     1
  9
$TEXTSIZE
 40
3.5
  9
$TRACEWID
 40
0.05
  9
$TEXTSTYLE
  7
高2.5
  9
$CLAYER
  8
0
  9
$CELTYPE
  6
CONTINUOUS
  9
$CECOLOR
 62
   256
  9
$CELTSCALE
 40
1.0
  9
$DISPSILH
 70
     0
  9
$DIMSCALE
 40
1.0
  9
$DIMASZ
 40
2.5
  9
$DIMEXO
 40
0.25
  9
$DIMDLI
 40
0.2
  9
$DIMRND
 40
0.0
  9
$DIMDLE
 40
0.0
  9
$DIMEXE
 40
1.25
  9
$DIMTP
 40
0.0
  9
$DIMTM
 40
0.0
  9
$DIMTXT
 40
3.0
  9
$DIMCEN
 40
0.0
  9
$DIMTSZ
 40
0.0
  9
$DIMTOL
 70
     0
  9
$DIMLIM
 70
     0
  9
$DIMTIH
 70
     0
  9
$DIMTOH
 70
     0
  9
$DIMSE1
 70
     0
  9
$DIMSE2
 70
     0
  9
$DIMTAD
 70
     3
  9
$DIMZIN
 70
     8
  9
$DIMBLK
  1
Open30
  9
$DIMASO
 70
     1
  9
$DIMSHO
 70
     1
  9
$DIMPOST
  1

  9
$DIMAPOST
  1

  9
$DIMALT
 70
     0
  9
$DIMALTD
 70
     3
  9
$DIMALTF
 40
0.03937007874016
  9
$DIMLFAC
 40
1.0
  9
$DIMTOFL
 70
     1
  9
$DIMTVP
 40
0.0
  9
$DIMTIX
 70
     0
  9
$DIMSOXD
 70
     0
  9
$DIMSAH
 70
     0
  9
$DIMBLK1
  1

  9
$DIMBLK2
  1

  9
$DIMSTYLE
  2
FREE
  9
$DIMCLRD
 70
     0
  9
$DIMCLRE
 70
     0
  9
$DIMCLRT
 70
     4
  9
$DIMTFAC
 40
1.0
  9
$DIMGAP
 40
0.625
  9
$DIMJUST
 70
     0
  9
$DIMSD1
 70
     0
  9
$DIMSD2
 70
     0
  9
$DIMTOLJ
 70
     0
  9
$DIMTZIN
 70
     8
  9
$DIMALTZ
 70
     0
  9
$DIMALTTZ
 70
     0
  9
$DIMUPT
 70
     1
  9
$DIMDEC
 70
     2
  9
$DIMTDEC
 70
     2
  9
$DIMALTU
 70
     2
  9
$DIMALTTD
 70
     3
  9
$DIMTXSTY
  7
STANDARD
  9
$DIMAUNIT
 70
     0
  9
$DIMADEC
 70
     1
  9
$DIMALTRND
 40
0.0
  9
$DIMAZIN
 70
     2
  9
$DIMDSEP
 70
    46
  9
$DIMATFIT
 70
     0
  9
$DIMFRAC
 70
     0
  9
$DIMLDRBLK
  1
Open30
  9
$DIMLUNIT
 70
     2
  9
$DIMLWD
 70
    -2
  9
$DIMLWE
 70
    -2
  9
$DIMTMOVE
 70
     0
  9
$LUNITS
 70
     2
  9
$LUPREC
 70
     4
  9
$SKETCHINC
 40
0.1
  9
$FILLETRAD
 40
0.0
  9
$AUNITS
 70
     0
  9
$AUPREC
 70
     0
  9
$MENU
  1
.
  9
$ELEVATION
 40
0.0
  9
$PELEVATION
 40
0.0
  9
$THICKNESS
 40
0.0
  9
$LIMCHECK
 70
     0
  9
$CHAMFERA
 40
0.0
  9
$CHAMFERB
 40
0.0
  9
$CHAMFERC
 40
0.0
  9
$CHAMFERD
 40
0.0
  9
$SKPOLY
 70
     0
  9
$TDCREATE
 40
2455670.588283079
  9
$TDUCREATE
 40
2455670.213283079
  9
$TDUPDATE
 40
2460074.758922708
  9
$TDUUPDATE
 40
2460074.383922708
  9
$TDINDWG
 40
0.125451956
  9
$TDUSRTIMER
 40
0.1254463773
  9
$USRTIMER
 70
     1
  9
$ANGBASE
 50
0.0
  9
$ANGDIR
 70
     0
  9
$PDMODE
 70
     0
  9
$PDSIZE
 40
0.0
  9
$PLINEWID
 40
0.0
  9
$SPLFRAME
 70
     0
  9
$SPLINETYPE
 70
     6
  9
$SPLINESEGS
 70
     8
  9
$HANDSEED
  5
C8A
  9
$SURFTAB1
 70
     6
  9
$SURFTAB2
 70
     6
  9
$SURFTYPE
 70
     6
  9
$SURFU
 70
     6
  9
$SURFV
 70
     6
  9
$UCSBASE
  2

  9
$UCSNAME
  2

  9
$UCSORG
 10
0.0
 20
0.0
 30
0.0
  9
$UCSXDIR
 10
1.0
 20
0.0
 30
0.0
  9
$UCSYDIR
 10
0.0
 20
1.0
 30
0.0
  9
$UCSORTHOREF
  2

  9
$UCSORTHOVIEW
 70
     0
  9
$UCSORGTOP
 10
0.0
 20
0.0
 30
0.0
  9
$UCSORGBOTTOM
 10
0.0
 20
0.0
 30
0.0
  9
$UCSORGLEFT
 10
0.0
 20
0.0
 30
0.0
  9
$UCSORGRIGHT
 10
0.0
 20
0.0
 30
0.0
  9
$UCSORGFRONT
 10
0.0
 20
0.0
 30
0.0
  9
$UCSORGBACK
 10
0.0
 20
0.0
 30
0.0
  9
$PUCSBASE
  2

  9
$PUCSNAME
  2

  9
$PUCSORG
 10
0.0
 20
0.0
 30
0.0
  9
$PUCSXDIR
 10
1.0
 20
0.0
 30
0.0
  9
$PUCSYDIR
 10
0.0
 20
1.0
 30
0.0
  9
$PUCSORTHOREF
  2

  9
$PUCSORTHOVIEW
 70
     0
  9
$PUCSORGTOP
 10
0.0
 20
0.0
 30
0.0
  9
$PUCSORGBOTTOM
 10
0.0
 20
0.0
 30
0.0
  9
$PUCSORGLEFT
 10
0.0
 20
0.0
 30
0.0
  9
$PUCSORGRIGHT
 10
0.0
 20
0.0
 30
0.0
  9
$PUCSORGFRONT
 10
0.0
 20
0.0
 30
0.0
  9
$PUCSORGBACK
 10
0.0
 20
0.0
 30
0.0
  9
$USERI1
 70
     0
  9
$USERI2
 70
     0
  9
$USERI3
 70
     0
  9
$USERI4
 70
     0
  9
$USERI5
 70
     0
  9
$USERR1
 40
0.0
  9
$USERR2
 40
0.0
  9
$USERR3
 40
0.0
  9
$USERR4
 40
0.0
  9
$USERR5
 40
0.0
  9
$WORLDVIEW
 70
     1
  9
$SHADEDGE
 70
     3
  9
$SHADEDIF
 70
    70
  9
$TILEMODE
 70
     1
  9
$MAXACTVP
 70
    64
  9
$PINSBASE
 10
0.0
 20
0.0
 30
0.0
  9
$PLIMCHECK
 70
     0
  9
$PEXTMIN
 10
1.000000000000000E+20
 20
1.000000000000000E+20
 30
1.000000000000000E+20
  9
$PEXTMAX
 10
-1.000000000000000E+20
 20
-1.000000000000000E+20
 30
-1.000000000000000E+20
  9
$PLIMMIN
 10
0.0
 20
0.0
  9
$PLIMMAX
 10
12.0
 20
9.0
  9
$UNITMODE
 70
     0
  9
$VISRETAIN
 70
     1
  9
$PLINEGEN
 70
     0
  9
$PSLTSCALE
 70
     1
  9
$TREEDEPTH
 70
  3020
  9
$CMLSTYLE
  2
Standard
  9
$CMLJUST
 70
     0
  9
$CMLSCALE
 40
1.0
  9
$PROXYGRAPHICS
 70
     1
  9
$MEASUREMENT
 70
     0
  9
$CELWEIGHT
370
    -1
  9
$ENDCAPS
280
     0
  9
$JOINSTYLE
280
     0
  9
$LWDISPLAY
290
     0
  9
$INSUNITS
 70
     0
  9
$HYPERLINKBASE
  1

  9
$STYLESHEET
  1

  9
$XEDIT
290
     1
  9
$CEPSNTYPE
380
     0
  9
$PSTYLEMODE
290
     1
  9
$FINGERPRINTGUID
  2
{1BC93EAA-F0E9-453A-BD26-195FA8E725E9}
  9
$VERSIONGUID
  2
{D5F2503B-3427-49A8-B908-8B3FDB904099}
  9
$EXTNAMES
290
     1
  9
$PSVPSCALE
 40
0.0
  9
$OLESTARTUP
290
     0
  0
ENDSEC
  0
SECTION
  2
CLASSES
  0
CLASS
  1
ACDBDICTIONARYWDFLT
  2
AcDbDictionaryWithDefault
  3
ObjectDBX Classes
 90
        0
280
     0
281
     0
  0
CLASS
  1
MATERIAL
  2
AcDbMaterial
  3
ObjectDBX Classes
 90
     1153
280
     0
281
     0
  0
CLASS
  1
VISUALSTYLE
  2
AcDbVisualStyle
  3
ObjectDBX Classes
 90
     4095
280
     0
281
     0
  0
CLASS
  1
SCALE
  2
AcDbScale
  3
ObjectDBX Classes
 90
     1153
280
     0
281
     0
  0
CLASS
  1
TABLESTYLE
  2
AcDbTableStyle
  3
ObjectDBX Classes
 90
     4095
280
     0
281
     0
  0
CLASS
  1
MLEADERSTYLE
  2
AcDbMLeaderStyle
  3
ACDB_MLEADERSTYLE_CLASS
 90
     4095
280
     0
281
     0
  0
CLASS
  1
DICTIONARYVAR
  2
AcDbDictionaryVar
  3
ObjectDBX Classes
 90
        0
280
     0
281
     0
  0
CLASS
  1
CELLSTYLEMAP
  2
AcDbCellStyleMap
  3
ObjectDBX Classes
 90
     1152
280
     0
281
     0
  0
CLASS
  1
ACDBPLACEHOLDER
  2
AcDbPlaceHolder
  3
ObjectDBX Classes
 90
        0
280
     0
281
     0
  0
CLASS
  1
LAYOUT
  2
AcDbLayout
  3
ObjectDBX Classes
 90
        0
280
     0
281
     0
  0
CLASS
  1
SORTENTSTABLE
  2
AcDbSortentsTable
  3
ObjectDBX Classes
 90
        0
280
     0
281
     0
  0
ENDSEC
  0
SECTION
  2
TABLES
  0
TABLE
  2
VPORT
  5
8
102
{ACAD_XDICTIONARY
360
C4B
102
}
330
0
100
AcDbSymbolTable
 70
     1
  0
VPORT
  5
8C
330
8
100
AcDbSymbolTableRecord
100
AcDbViewportTableRecord
  2
*Active
 70
     0
 10
0.0
 20
0.0
 11
1.0
 21
1.0
 12
0.000000000000032
 22
4.236308500000005
 13
0.0
 23
0.0
 14
1.0
 24
1.0
 15
0.0
 25
0.0
 16
0.0
 26
0.0
 36
1.0
 17
0.0
 27
0.0
 37
0.0
 40
267.1880108991825
 41
1.048022598870056
 42
50.0
 43
0.0
 44
0.0
 50
0.0
 51
0.0
 71
     0
 72
   100
 73
     1
 74
     1
 75
     0
 76
     0
 77
     0
 78
     0
281
     0
 65
     1
110
0.0
120
0.0
130
0.0
111
1.0
121
0.0
131
0.0
112
0.0
122
1.0
132
0.0
 79
     0
146
0.0
  0
ENDTAB
  0
TABLE
  2
LTYPE
  5
5
330
0
100
AcDbSymbolTable
 70
     2
  0
LTYPE
  5
5A
330
5
100
AcDbSymbolTableRecord
100
AcDbLinetypeTableRecord
  2
ByBlock
 70
     0
  3

 72
    65
 73
     0
 40
0.0
  0
LTYPE
  5
5B
330
5
100
AcDbSymbolTableRecord
100
AcDbLinetypeTableRecord
  2
ByLayer
 70
     0
  3

 72
    65
 73
     0
 40
0.0
  0
LTYPE
  5
5C
330
5
100
AcDbSymbolTableRecord
100
AcDbLinetypeTableRecord
  2
CONTINUOUS
 70
     0
  3
Solid-line
 72
    65
 73
     0
 40
0.0
  0
LTYPE
  5
78
330
5
100
AcDbSymbolTableRecord
100
AcDbLinetypeTableRecord
  2
DASHED
 70
     0
  3
DASHED
 72
    65
 73
     2
 40
0.75
 49
0.5
 74
     0
 49
-0.25
 74
     0
  0
ENDTAB
  0
TABLE
  2
LAYER
  5
2
102
{ACAD_XDICTIONARY
360
4D9
102
}
330
0
100
AcDbSymbolTable
 70
     2
  0
LAYER
  5
54
102
{ACAD_XDICTIONARY
360
6C3
102
}
330
2
100
AcDbSymbolTableRecord
100
AcDbLayerTableRecord
  2
0
 70
     0
 62
     7
  6
CONTINUOUS
370
    -3
390
F
  0
LAYER
  5
4C4
330
2
100
AcDbSymbolTableRecord
100
AcDbLayerTableRecord
  2
Defpoints
 70
     0
 62
     7
  6
CONTINUOUS
290
     0
370
    -3
390
F
  0
ENDTAB
  0
TABLE
  2
STYLE
  5
3
330
0
100
AcDbSymbolTable
 70
     6
  0
STYLE
  5
55
330
3
100
AcDbSymbolTableRecord
100
AcDbTextStyleTableRecord
  2
STANDARD
 70
     0
 40
0.0
 41
1.0
 50
0.0
 71
     0
 42
0.2
  3
TXT
  4
BIGFONT
  0
STYLE
  5
4C5
330
3
100
AcDbSymbolTableRecord
100
AcDbTextStyleTableRecord
  2
高3.2
 70
     0
 40
3.2
 41
1.0
 50
0.0
 71
     0
 42
3.2
  3
txt.shx
  4
bigfont.shx
  0
STYLE
  5
4C6
330
3
100
AcDbSymbolTableRecord
100
AcDbTextStyleTableRecord
  2
高6.3
 70
     0
 40
6.299999999999998
 41
1.0
 50
0.0
 71
     0
 42
6.299999999999998
  3
txt.shx
  4
bigfont.shx
  0
STYLE
  5
4C7
330
3
100
AcDbSymbolTableRecord
100
AcDbTextStyleTableRecord
  2
高2.5
 70
     0
 40
3.5
 41
0.5
 50
0.0
 71
     0
 42
3.5
  3
txt.shx
  4
bigfont.shx
  0
STYLE
  5
4C8
330
3
100
AcDbSymbolTableRecord
100
AcDbTextStyleTableRecord
  2
高4.5
 70
     0
 40
4.5
 41
1.0
 50
0.0
 71
     0
 42
6.299999999999998
  3
txt.shx
  4
bigfont.shx
  0
STYLE
  5
4C9
330
3
100
AcDbSymbolTableRecord
100
AcDbTextStyleTableRecord
  2
高2
 70
     0
 40
2.0
 41
1.0
 50
0.0
 71
     0
 42
6.299999999999998
  3
txt.shx
  4
bigfont.shx
  0
ENDTAB
  0
TABLE
  2
VIEW
  5
6
330
0
100
AcDbSymbolTable
 70
     0
  0
ENDTAB
  0
TABLE
  2
UCS
  5
7
330
0
100
AcDbSymbolTable
 70
     0
  0
ENDTAB
  0
TABLE
  2
APPID
  5
9
330
0
100
AcDbSymbolTable
 70
    11
  0
APPID
  5
56
330
9
100
AcDbSymbolTableRecord
100
AcDbRegAppTableRecord
  2
ACAD
 70
     0
  0
APPID
  5
5D
330
9
100
AcDbSymbolTableRecord
100
AcDbRegAppTableRecord
  2
AcadAnnotative
 70
     0
  0
APPID
  5
4D4
330
9
100
AcDbSymbolTableRecord
100
AcDbRegAppTableRecord
  2
ACAD_DSTYLE_DIMJOGGED_JOGANGLE_SYMBOL
 70
     0
  0
APPID
  5
4D5
330
9
100
AcDbSymbolTableRecord
100
AcDbRegAppTableRecord
  2
ACAD_DSTYLE_DIMJAG
 70
     0
  0
APPID
  5
4D6
330
9
100
AcDbSymbolTableRecord
100
AcDbRegAppTableRecord
  2
ACAD_DSTYLE_DIMBREAK
 70
     0
  0
APPID
  5
4D7
330
9
100
AcDbSymbolTableRecord
100
AcDbRegAppTableRecord
  2
ACAD_DSTYLE_DIMTALN
 70
     0
  0
APPID
  5
620
330
9
100
AcDbSymbolTableRecord
100
AcDbRegAppTableRecord
  2
ACAD_EXEMPT_FROM_CAD_STANDARDS
 70
     0
  0
APPID
  5
70D
330
9
100
AcDbSymbolTableRecord
100
AcDbRegAppTableRecord
  2
ACAD_MLEADERVER
 70
     0
  0
APPID
  5
712
330
9
100
AcDbSymbolTableRecord
100
AcDbRegAppTableRecord
  2
ACAD_DSTYLE_DIMARC_LENGTH_SYMBOL
 70
     0
  0
APPID
  5
713
330
9
100
AcDbSymbolTableRecord
100
AcDbRegAppTableRecord
  2
ACAD_DSTYLE_DIMEXT_LENGTH
 70
     0
  0
APPID
  5
BD4
330
9
100
AcDbSymbolTableRecord
100
AcDbRegAppTableRecord
  2
ACAD_PSEXT
 70
     0
  0
ENDTAB
  0
TABLE
  2
DIMSTYLE
  5
A
330
0
100
AcDbSymbolTable
 70
    11
100
AcDbDimStyleTable
  0
DIMSTYLE
105
57
330
A
100
AcDbSymbolTableRecord
100
AcDbDimStyleTableRecord
  2
Standard
 70
     0
178
     0
340
55
  0
DIMSTYLE
105
4CA
330
A
100
AcDbSymbolTableRecord
100
AcDbDimStyleTableRecord
  2
1：1
 70
     0
 41
2.5
 42
0.25
 43
0.2
 44
1.25
 73
     0
 74
     0
 77
     3
 78
     8
 79
     2
140
3.0
141
0.0
143
0.03937007874016
147
0.625
171
     3
172
     1
271
     2
178
     4
179
     1
271
     2
272
     2
274
     3
283
     0
284
     8
288
     1
289
     0
340
55
341
434
342
434
1001
ACAD_DSTYLE_DIMJOGGED_JOGANGLE_SYMBOL
1070
   384
1040
1.570796326794896
1001
ACAD_DSTYLE_DIMARC_LENGTH_SYMBOL
1070
   379
1070
     2
  0
DIMSTYLE
105
4CB
330
A
100
AcDbSymbolTableRecord
100
AcDbDimStyleTableRecord
  2
2：1
 70
     0
 41
2.5
 42
0.25
 43
0.2
 44
1.25
 73
     0
 74
     0
 77
     3
 78
     8
 79
     2
140
3.0
141
0.0
143
0.03937007874016
144
0.5
147
0.625
171
     3
172
     1
271
     2
178
     4
179
     1
271
     2
272
     2
274
     3
283
     0
284
     8
288
     1
289
     0
340
55
341
434
342
434
1001
ACAD_DSTYLE_DIMJOGGED_JOGANGLE_SYMBOL
1070
   384
1040
1.570796326794896
1001
ACAD_DSTYLE_DIMARC_LENGTH_SYMBOL
1070
   379
1070
     2
  0
DIMSTYLE
105
4CC
330
A
100
AcDbSymbolTableRecord
100
AcDbDimStyleTableRecord
  2
5：1
 70
     0
 41
2.5
 42
0.25
 43
0.2
 44
1.25
 73
     0
 74
     0
 77
     3
 78
     8
 79
     2
140
3.0
141
0.0
143
0.03937007874016
144
0.2
147
0.625
171
     3
172
     1
271
     2
178
     4
179
     1
271
     2
272
     2
274
     3
283
     0
284
     8
288
     1
289
     0
340
55
341
434
342
434
1001
ACAD_DSTYLE_DIMJOGGED_JOGANGLE_SYMBOL
1070
   384
1040
1.570796326794896
1001
ACAD_DSTYLE_DIMARC_LENGTH_SYMBOL
1070
   379
1070
     2
  0
DIMSTYLE
105
4CD
330
A
100
AcDbSymbolTableRecord
100
AcDbDimStyleTableRecord
  2
10：1
 70
     0
 41
2.5
 42
0.25
 43
0.2
 44
1.25
 73
     0
 74
     0
 77
     3
 78
     8
 79
     2
140
3.0
141
0.0
143
0.03937007874016
144
0.1
147
0.625
171
     3
172
     1
271
     2
178
     4
179
     1
271
     2
272
     2
274
     3
283
     0
284
     8
288
     1
289
     0
340
55
341
434
342
434
1001
ACAD_DSTYLE_DIMJOGGED_JOGANGLE_SYMBOL
1070
   384
1040
1.570796326794896
1001
ACAD_DSTYLE_DIMARC_LENGTH_SYMBOL
1070
   379
1070
     2
  0
DIMSTYLE
105
4CE
330
A
100
AcDbSymbolTableRecord
100
AcDbDimStyleTableRecord
  2
1／2
 70
     0
 41
2.5
 42
0.25
 43
0.2
 44
1.25
 73
     0
 74
     0
 77
     3
 78
     8
 79
     2
140
3.0
141
0.0
143
0.03937007874016
144
2.0
147
0.625
171
     3
172
     1
271
     2
178
     4
179
     1
271
     2
272
     2
274
     3
283
     0
284
     8
288
     1
289
     0
340
55
341
434
342
434
1001
ACAD_DSTYLE_DIMJOGGED_JOGANGLE_SYMBOL
1070
   384
1040
1.570796326794896
1001
ACAD_DSTYLE_DIMARC_LENGTH_SYMBOL
1070
   379
1070
     2
  0
DIMSTYLE
105
4CF
330
A
100
AcDbSymbolTableRecord
100
AcDbDimStyleTableRecord
  2
1／5
 70
     0
 41
2.5
 42
0.25
 43
0.2
 44
1.25
 73
     0
 74
     0
 77
     3
 78
     8
 79
     2
140
3.0
141
0.0
143
0.03937007874016
144
5.0
147
0.625
171
     3
172
     1
271
     2
178
     4
179
     1
271
     2
272
     2
274
     3
283
     0
284
     8
288
     1
289
     0
340
55
341
434
342
434
1001
ACAD_DSTYLE_DIMJOGGED_JOGANGLE_SYMBOL
1070
   384
1040
1.570796326794896
1001
ACAD_DSTYLE_DIMARC_LENGTH_SYMBOL
1070
   379
1070
     2
  0
DIMSTYLE
105
4D0
330
A
100
AcDbSymbolTableRecord
100
AcDbDimStyleTableRecord
  2
1／10
 70
     0
 41
2.5
 42
0.25
 43
0.2
 44
1.25
 73
     0
 74
     0
 77
     3
 78
     8
 79
     2
140
3.0
141
0.0
143
0.03937007874016
144
10.0
147
0.625
171
     3
172
     1
271
     2
178
     4
179
     1
271
     2
272
     2
274
     3
283
     0
284
     8
288
     1
289
     0
340
55
341
434
342
434
1001
ACAD_DSTYLE_DIMJOGGED_JOGANGLE_SYMBOL
1070
   384
1040
1.570796326794896
1001
ACAD_DSTYLE_DIMARC_LENGTH_SYMBOL
1070
   379
1070
     2
  0
DIMSTYLE
105
4D1
330
A
100
AcDbSymbolTableRecord
100
AcDbDimStyleTableRecord
  2
1／4
 70
     0
 41
2.5
 42
0.25
 43
0.2
 44
1.25
 73
     0
 74
     0
 77
     3
 78
     8
 79
     2
140
3.0
141
0.0
143
0.03937007874016
144
4.0
147
0.625
171
     3
172
     1
271
     2
178
     4
179
     1
271
     2
272
     2
274
     3
283
     0
284
     8
288
     1
289
     0
340
55
341
434
342
434
1001
ACAD_DSTYLE_DIMJOGGED_JOGANGLE_SYMBOL
1070
   384
1040
1.570796326794896
1001
ACAD_DSTYLE_DIMARC_LENGTH_SYMBOL
1070
   379
1070
     2
  0
DIMSTYLE
105
4D2
330
A
100
AcDbSymbolTableRecord
100
AcDbDimStyleTableRecord
  2
1／3
 70
     0
 41
2.5
 42
0.25
 43
0.2
 44
1.25
 73
     0
 74
     0
 77
     3
 78
     8
 79
     2
140
3.0
141
0.0
143
0.03937007874016
144
3.0
147
0.625
171
     3
172
     1
271
     2
178
     4
179
     1
271
     2
272
     2
274
     3
283
     0
284
     8
288
     1
289
     0
340
55
341
434
342
434
1001
ACAD_DSTYLE_DIMJOGGED_JOGANGLE_SYMBOL
1070
   384
1040
1.570796326794896
1001
ACAD_DSTYLE_DIMARC_LENGTH_SYMBOL
1070
   379
1070
     2
  0
DIMSTYLE
105
4D3
102
{ACAD_REACTORS
330
EE
330
EB
330
EA
330
EF
330
ED
330
EC
330
E9
102
}
330
A
100
AcDbSymbolTableRecord
100
AcDbDimStyleTableRecord
  2
FREE
 70
     0
 41
2.5
 42
0.25
 43
0.2
 44
1.25
 73
     0
 74
     0
 77
     3
 78
     8
 79
     2
140
3.0
141
0.0
143
0.03937007874016
147
0.625
171
     3
172
     1
271
     2
178
     4
179
     1
271
     2
272
     2
274
     3
283
     0
284
     8
288
     1
289
     0
340
55
341
434
342
434
1001
ACAD_DSTYLE_DIMBREAK
1070
   391
1040
3.75
1001
ACAD_DSTYLE_DIMJAG
1070
   388
1040
1.5
1001
ACAD_DSTYLE_DIMTALN
1070
   392
1070
     0
1001
ACAD_DSTYLE_DIMJOGGED_JOGANGLE_SYMBOL
1070
   384
1040
1.570796326794896
1001
ACAD_DSTYLE_DIMARC_LENGTH_SYMBOL
1070
   379
1070
     2
  0
ENDTAB
  0
TABLE
  2
BLOCK_RECORD
  5
1
330
0
100
AcDbSymbolTable
 70
    18
  0
BLOCK_RECORD
  5
6B
102
{ACAD_XDICTIONARY
360
75C
102
}
330
1
100
AcDbSymbolTableRecord
100
AcDbBlockTableRecord
  2
*Model_Space
340
6E
  0
BLOCK_RECORD
  5
67
330
1
100
AcDbSymbolTableRecord
100
AcDbBlockTableRecord
  2
*Paper_Space
340
6A
  0
BLOCK_RECORD
  5
434
330
1
100
AcDbSymbolTableRecord
100
AcDbBlockTableRecord
  2
_Open30
340
0
102
{BLKREFS
331
B50
331
B51
331
B74
331
B75
331
B62
331
B63
331
B7D
331
B7E
331
B6B
331
B6C
331
B59
331
B5A
331
B47
331
B48
331
A59
331
A5A
331
A64
331
A65
331
A6F
331
A70
331
A7A
331
A7B
331
A85
331
A86
331
A90
331
A91
331
A9B
331
A9C
331
AA6
331
AA7
331
AB1
331
AB2
331
ABA
331
ABB
331
B50
331
B51
331
B74
331
B75
331
B62
331
B63
331
B7D
331
B7E
331
B6B
331
B6C
331
B59
331
B5A
331
B47
331
B48
331
A59
331
A5A
331
A64
331
A65
331
A6F
331
A70
331
A7A
331
A7B
331
A85
331
A86
331
A90
331
A91
331
A9B
331
A9C
331
AA6
331
AA7
331
AB1
331
AB2
331
ABA
331
ABB
102
}
  0
BLOCK_RECORD
  5
622
330
1
100
AcDbSymbolTableRecord
100
AcDbBlockTableRecord
  2
*D1
340
0
  0
BLOCK_RECORD
  5
62F
330
1
100
AcDbSymbolTableRecord
100
AcDbBlockTableRecord
  2
*D2
340
0
  0
BLOCK_RECORD
  5
63C
330
1
100
AcDbSymbolTableRecord
100
AcDbBlockTableRecord
  2
*D3
340
0
  0
BLOCK_RECORD
  5
649
330
1
100
AcDbSymbolTableRecord
100
AcDbBlockTableRecord
  2
*D4
340
0
  0
BLOCK_RECORD
  5
656
330
1
100
AcDbSymbolTableRecord
100
AcDbBlockTableRecord
  2
*D5
340
0
  0
BLOCK_RECORD
  5
663
330
1
100
AcDbSymbolTableRecord
100
AcDbBlockTableRecord
  2
*D6
340
0
  0
BLOCK_RECORD
  5
670
330
1
100
AcDbSymbolTableRecord
100
AcDbBlockTableRecord
  2
*D7
340
0
  0
BLOCK_RECORD
  5
9CA
330
1
100
AcDbSymbolTableRecord
100
AcDbBlockTableRecord
  2
*D8
340
0
  0
BLOCK_RECORD
  5
9D8
330
1
100
AcDbSymbolTableRecord
100
AcDbBlockTableRecord
  2
*D9
340
0
  0
BLOCK_RECORD
  5
9E6
330
1
100
AcDbSymbolTableRecord
100
AcDbBlockTableRecord
  2
*D10
340
0
  0
BLOCK_RECORD
  5
9F4
330
1
100
AcDbSymbolTableRecord
100
AcDbBlockTableRecord
  2
*D11
340
0
  0
BLOCK_RECORD
  5
A02
330
1
100
AcDbSymbolTableRecord
100
AcDbBlockTableRecord
  2
*D12
340
0
  0
BLOCK_RECORD
  5
A10
330
1
100
AcDbSymbolTableRecord
100
AcDbBlockTableRecord
  2
*D13
340
0
  0
BLOCK_RECORD
  5
A1E
330
1
100
AcDbSymbolTableRecord
100
AcDbBlockTableRecord
  2
*D14
340
0
  0
BLOCK_RECORD
  5
A2C
330
1
100
AcDbSymbolTableRecord
100
AcDbBlockTableRecord
  2
*D15
340
0
  0
BLOCK_RECORD
  5
A3A
330
1
100
AcDbSymbolTableRecord
100
AcDbBlockTableRecord
  2
*D16
340
0
  0
BLOCK_RECORD
  5
A48
330
1
100
AcDbSymbolTableRecord
100
AcDbBlockTableRecord
  2
*D17
340
0
  0
ENDTAB
  0
ENDSEC
  0
SECTION
  2
BLOCKS
  0
BLOCK
  5
6C
330
6B
100
AcDbEntity
  8
0
  6
Continuous
100
AcDbBlockBegin
  2
*Model_Space
 70
     0
 10
0.0
 20
0.0
 30
0.0
  3
*Model_Space
  1

  0
ENDBLK
  5
6D
330
6B
100
AcDbEntity
  8
0
  6
Continuous
100
AcDbBlockEnd
  0
BLOCK
  5
68
330
67
100
AcDbEntity
 67
     1
  8
0
  6
Continuous
100
AcDbBlockBegin
  2
*Paper_Space
 70
     0
 10
0.0
 20
0.0
 30
0.0
  3
*Paper_Space
  1

  0
ENDBLK
  5
69
330
67
100
AcDbEntity
 67
     1
  8
0
  6
Continuous
100
AcDbBlockEnd
  0
BLOCK
  5
435
330
434
100
AcDbEntity
  8
0
  6
Continuous
100
AcDbBlockBegin
  2
_Open30
 70
     0
 10
0.0
 20
0.0
 30
0.0
  3
_Open30
  1

  0
LINE
  5
436
330
434
100
AcDbEntity
  8
0
  6
ByBlock
 62
     0
370
    -2
100
AcDbLine
 10
-1.0
 20
0.267949
 30
0.0
 11
0.0
 21
0.0
 31
0.0
  0
LINE
  5
437
330
434
100
AcDbEntity
  8
0
  6
ByBlock
 62
     0
370
    -2
100
AcDbLine
 10
0.0
 20
0.0
 30
0.0
 11
-1.0
 21
-0.267949
 31
0.0
  0
LINE
  5
438
330
434
100
AcDbEntity
  8
0
  6
ByBlock
 62
     0
370
    -2
100
AcDbLine
 10
0.0
 20
0.0
 30
0.0
 11
-1.0
 21
0.0
 31
0.0
  0
ENDBLK
  5
439
330
434
100
AcDbEntity
  8
0
  6
Continuous
100
AcDbBlockEnd
  0
BLOCK
  5
623
330
622
100
AcDbEntity
  8
0
100
AcDbBlockBegin
  2
*D1
 70
     1
 10
0.0
 20
0.0
 30
0.0
  3
*D1
  1

  0
LINE
  5
B4D
330
622
100
AcDbEntity
  8
0
 62
     0
370
    -2
100
AcDbLine
 10
-57.880979
 20
-18.735068
 30
0.0
 11
-48.512204
 21
-18.735068
 31
0.0
  0
LINE
  5
B4E
330
622
100
AcDbEntity
  8
0
 62
     0
370
    -2
100
AcDbLine
 10
-90.461712
 20
51.359849
 30
0.0
 11
-48.51220399999998
 21
51.35984899999999
 31
0.0
  0
LINE
  5
B4F
330
622
100
AcDbEntity
  8
0
 62
     0
370
    -2
100
AcDbLine
 10
-49.762204
 20
-16.235068
 30
0.0
 11
-49.76220399999998
 21
48.85984899999999
 31
0.0
  0
INSERT
  5
B50
330
622
100
AcDbEntity
  8
0
 62
     0
370
    -2
100
AcDbBlockReference
  2
_Open30
 10
-49.762204
 20
-18.735068
 30
0.0
 41
2.5
 42
2.5
 43
2.5
 50
270.0
  0
INSERT
  5
B51
330
622
100
AcDbEntity
  8
0
 62
     0
370
    -2
100
AcDbBlockReference
  2
_Open30
 10
-49.76220399999998
 20
51.35984899999999
 30
0.0
 41
2.5
 42
2.5
 43
2.5
 50
90.0
  0
MTEXT
  5
B52
330
622
100
AcDbEntity
  8
0
 62
     4
100
AcDbMText
 10
-51.887204
 20
16.31239049999998
 30
0.0
 40
3.0
 41
0.0
 71
     5
 72
     1
  1
420
 11
1.000000000000000E-16
 21
1.0
 31
0.0
 73
     1
 44
1.0
  0
POINT
  5
B53
330
622
100
AcDbEntity
  8
Defpoints
 62
     0
100
AcDbPoint
 10
-58.130979
 20
-18.735068
 30
0.0
  0
POINT
  5
B54
330
622
100
AcDbEntity
  8
Defpoints
 62
     0
100
AcDbPoint
 10
-90.711712
 20
51.359849
 30
0.0
  0
POINT
  5
B55
330
622
100
AcDbEntity
  8
Defpoints
 62
     0
100
AcDbPoint
 10
-49.76220399999998
 20
51.35984899999999
 30
0.0
  0
ENDBLK
  5
624
330
622
100
AcDbEntity
  8
0
100
AcDbBlockEnd
  0
BLOCK
  5
630
330
62F
100
AcDbEntity
  8
0
100
AcDbBlockBegin
  2
*D2
 70
     1
 10
0.0
 20
0.0
 30
0.0
  3
*D2
  1

  0
LINE
  5
B71
330
62F
100
AcDbEntity
  8
0
 62
     0
370
    -2
100
AcDbLine
 10
-114.527392
 20
-17.90026099999999
 30
0.0
 11
-114.527392
 21
-28.19898
 31
0.0
  0
LINE
  5
B72
330
62F
100
AcDbEntity
  8
0
 62
     0
370
    -2
100
AcDbLine
 10
-58.130979
 20
-17.768848
 30
0.0
 11
-58.130979
 21
-28.19898
 31
0.0
  0
LINE
  5
B73
330
62F
100
AcDbEntity
  8
0
 62
     0
370
    -2
100
AcDbLine
 10
-112.027392
 20
-26.94898
 30
0.0
 11
-60.630979
 21
-26.94898
 31
0.0
  0
INSERT
  5
B74
330
62F
100
AcDbEntity
  8
0
 62
     0
370
    -2
100
AcDbBlockReference
  2
_Open30
 10
-114.527392
 20
-26.94898
 30
0.0
 41
2.5
 42
2.5
 43
2.5
 50
180.0
  0
INSERT
  5
B75
330
62F
100
AcDbEntity
  8
0
 62
     0
370
    -2
100
AcDbBlockReference
  2
_Open30
 10
-58.130979
 20
-26.94898
 30
0.0
 41
2.5
 42
2.5
 43
2.5
  0
MTEXT
  5
B76
330
62F
100
AcDbEntity
  8
0
 62
     4
100
AcDbMText
 10
-86.3291855
 20
-24.82398
 30
0.0
 40
3.0
 41
0.0
 71
     5
 72
     1
  1
322
 73
     1
 44
1.0
  0
POINT
  5
B77
330
62F
100
AcDbEntity
  8
Defpoints
 62
     0
100
AcDbPoint
 10
-114.527392
 20
-17.650261
 30
0.0
  0
POINT
  5
B78
330
62F
100
AcDbEntity
  8
Defpoints
 62
     0
100
AcDbPoint
 10
-58.130979
 20
-17.518848
 30
0.0
  0
POINT
  5
B79
330
62F
100
AcDbEntity
  8
Defpoints
 62
     0
100
AcDbPoint
 10
-58.130979
 20
-26.94898
 30
0.0
  0
ENDBLK
  5
631
330
62F
100
AcDbEntity
  8
0
100
AcDbBlockEnd
  0
BLOCK
  5
63D
330
63C
100
AcDbEntity
  8
0
100
AcDbBlockBegin
  2
*D3
 70
     1
 10
0.0
 20
0.0
 30
0.0
  3
*D3
  1

  0
LINE
  5
B5F
330
63C
100
AcDbEntity
  8
0
 62
     0
370
    -2
100
AcDbLine
 10
-23.358595
 20
-13.01191
 30
0.0
 11
-23.358595
 21
-34.374971
 31
0.0
  0
LINE
  5
B60
330
63C
100
AcDbEntity
  8
0
 62
     0
370
    -2
100
AcDbLine
 10
42.625899
 20
-12.016285
 30
0.0
 11
42.625899
 21
-34.374971
 31
0.0
  0
LINE
  5
B61
330
63C
100
AcDbEntity
  8
0
 62
     0
370
    -2
100
AcDbLine
 10
-20.858595
 20
-33.124971
 30
0.0
 11
40.125899
 21
-33.124971
 31
0.0
  0
INSERT
  5
B62
330
63C
100
AcDbEntity
  8
0
 62
     0
370
    -2
100
AcDbBlockReference
  2
_Open30
 10
-23.358595
 20
-33.124971
 30
0.0
 41
2.5
 42
2.5
 43
2.5
 50
180.0
  0
INSERT
  5
B63
330
63C
100
AcDbEntity
  8
0
 62
     0
370
    -2
100
AcDbBlockReference
  2
_Open30
 10
42.625899
 20
-33.124971
 30
0.0
 41
2.5
 42
2.5
 43
2.5
  0
MTEXT
  5
B64
330
63C
100
AcDbEntity
  8
0
 62
     4
100
AcDbMText
 10
9.633651999999998
 20
-30.999971
 30
0.0
 40
3.0
 41
0.0
 71
     5
 72
     1
  1
391
 73
     1
 44
1.0
  0
POINT
  5
B65
330
63C
100
AcDbEntity
  8
Defpoints
 62
     0
100
AcDbPoint
 10
-23.358595
 20
-12.76191
 30
0.0
  0
POINT
  5
B66
330
63C
100
AcDbEntity
  8
Defpoints
 62
     0
100
AcDbPoint
 10
42.625899
 20
-11.766285
 30
0.0
  0
POINT
  5
B67
330
63C
100
AcDbEntity
  8
Defpoints
 62
     0
100
AcDbPoint
 10
42.625899
 20
-33.124971
 30
0.0
  0
ENDBLK
  5
63E
330
63C
100
AcDbEntity
  8
0
100
AcDbBlockEnd
  0
BLOCK
  5
64A
330
649
100
AcDbEntity
  8
0
100
AcDbBlockBegin
  2
*D4
 70
     1
 10
0.0
 20
0.0
 30
0.0
  3
*D4
  1

  0
LINE
  5
B7A
330
649
100
AcDbEntity
  8
0
 62
     0
370
    -2
100
AcDbLine
 10
42.625899
 20
-12.016285
 30
0.0
 11
42.625899
 21
-34.374971
 31
0.0
  0
LINE
  5
B7B
330
649
100
AcDbEntity
  8
0
 62
     0
370
    -2
100
AcDbLine
 10
56.581524
 20
-4.312212999999998
 30
0.0
 11
56.581524
 21
-34.374971
 31
0.0
  0
LINE
  5
B7C
330
649
100
AcDbEntity
  8
0
 62
     0
370
    -2
100
AcDbLine
 10
45.125899
 20
-33.124971
 30
0.0
 11
54.081524
 21
-33.124971
 31
0.0
  0
INSERT
  5
B7D
330
649
100
AcDbEntity
  8
0
 62
     0
370
    -2
100
AcDbBlockReference
  2
_Open30
 10
42.625899
 20
-33.124971
 30
0.0
 41
2.5
 42
2.5
 43
2.5
 50
180.0
  0
INSERT
  5
B7E
330
649
100
AcDbEntity
  8
0
 62
     0
370
    -2
100
AcDbBlockReference
  2
_Open30
 10
56.581524
 20
-33.124971
 30
0.0
 41
2.5
 42
2.5
 43
2.5
  0
MTEXT
  5
B7F
330
649
100
AcDbEntity
  8
0
 62
     4
100
AcDbMText
 10
49.6037115
 20
-30.999971
 30
0.0
 40
3.0
 41
0.0
 71
     5
 72
     1
  1
100
 73
     1
 44
1.0
  0
POINT
  5
B80
330
649
100
AcDbEntity
  8
Defpoints
 62
     0
100
AcDbPoint
 10
42.625899
 20
-11.766285
 30
0.0
  0
POINT
  5
B81
330
649
100
AcDbEntity
  8
Defpoints
 62
     0
100
AcDbPoint
 10
56.581524
 20
-4.062212999999998
 30
0.0
  0
POINT
  5
B82
330
649
100
AcDbEntity
  8
Defpoints
 62
     0
100
AcDbPoint
 10
56.581524
 20
-33.124971
 30
0.0
  0
ENDBLK
  5
64B
330
649
100
AcDbEntity
  8
0
100
AcDbBlockEnd
  0
BLOCK
  5
657
330
656
100
AcDbEntity
  8
0
100
AcDbBlockBegin
  2
*D5
 70
     1
 10
0.0
 20
0.0
 30
0.0
  3
*D5
  1

  0
LINE
  5
B68
330
656
100
AcDbEntity
  8
0
 62
     0
370
    -2
100
AcDbLine
 10
-15.356601
 20
-1.562114999999999
 30
0.0
 11
-15.356601
 21
-28.19898
 31
0.0
  0
LINE
  5
B69
330
656
100
AcDbEntity
  8
0
 62
     0
370
    -2
100
AcDbLine
 10
34.593399
 20
-1.562114999999999
 30
0.0
 11
34.593399
 21
-28.19898
 31
0.0
  0
LINE
  5
B6A
330
656
100
AcDbEntity
  8
0
 62
     0
370
    -2
100
AcDbLine
 10
-12.856601
 20
-26.94898
 30
0.0
 11
32.093399
 21
-26.94898
 31
0.0
  0
INSERT
  5
B6B
330
656
100
AcDbEntity
  8
0
 62
     0
370
    -2
100
AcDbBlockReference
  2
_Open30
 10
-15.356601
 20
-26.94898
 30
0.0
 41
2.5
 42
2.5
 43
2.5
 50
180.0
  0
INSERT
  5
B6C
330
656
100
AcDbEntity
  8
0
 62
     0
370
    -2
100
AcDbBlockReference
  2
_Open30
 10
34.593399
 20
-26.94898
 30
0.0
 41
2.5
 42
2.5
 43
2.5
  0
MTEXT
  5
B6D
330
656
100
AcDbEntity
  8
0
 62
     4
100
AcDbMText
 10
9.618398999999997
 20
-24.82398
 30
0.0
 40
3.0
 41
0.0
 71
     5
 72
     1
  1
296
 73
     1
 44
1.0
  0
POINT
  5
B6E
330
656
100
AcDbEntity
  8
Defpoints
 62
     0
100
AcDbPoint
 10
-15.356601
 20
-1.312114999999999
 30
0.0
  0
POINT
  5
B6F
330
656
100
AcDbEntity
  8
Defpoints
 62
     0
100
AcDbPoint
 10
34.593399
 20
-1.312114999999999
 30
0.0
  0
POINT
  5
B70
330
656
100
AcDbEntity
  8
Defpoints
 62
     0
100
AcDbPoint
 10
34.593399
 20
-26.94898
 30
0.0
  0
ENDBLK
  5
658
330
656
100
AcDbEntity
  8
0
100
AcDbBlockEnd
  0
BLOCK
  5
664
330
663
100
AcDbEntity
  8
0
100
AcDbBlockBegin
  2
*D6
 70
     1
 10
0.0
 20
0.0
 30
0.0
  3
*D6
  1

  0
LINE
  5
B56
330
663
100
AcDbEntity
  8
0
 62
     0
370
    -2
100
AcDbLine
 10
-18.812851
 20
-12.76191
 30
0.0
 11
-38.52202400000001
 21
-12.76190999999999
 31
0.0
  0
LINE
  5
B57
330
663
100
AcDbEntity
  8
0
 62
     0
370
    -2
100
AcDbLine
 10
-18.812851
 20
41.23809
 30
0.0
 11
-38.522024
 21
41.23809
 31
0.0
  0
LINE
  5
B58
330
663
100
AcDbEntity
  8
0
 62
     0
370
    -2
100
AcDbLine
 10
-37.27202400000001
 20
-10.26190999999999
 30
0.0
 11
-37.272024
 21
38.73809
 31
0.0
  0
INSERT
  5
B59
330
663
100
AcDbEntity
  8
0
 62
     0
370
    -2
100
AcDbBlockReference
  2
_Open30
 10
-37.27202400000001
 20
-12.76190999999999
 30
0.0
 41
2.5
 42
2.5
 43
2.5
 50
270.0
  0
INSERT
  5
B5A
330
663
100
AcDbEntity
  8
0
 62
     0
370
    -2
100
AcDbBlockReference
  2
_Open30
 10
-37.272024
 20
41.23809
 30
0.0
 41
2.5
 42
2.5
 43
2.5
 50
90.0
  0
MTEXT
  5
B5B
330
663
100
AcDbEntity
  8
0
 62
     4
100
AcDbMText
 10
-39.39702400000001
 20
14.23809
 30
0.0
 40
3.0
 41
0.0
 71
     5
 72
     1
  1
φ320
 11
1.000000000000000E-16
 21
1.0
 31
0.0
 73
     1
 44
1.0
  0
POINT
  5
B5C
330
663
100
AcDbEntity
  8
Defpoints
 62
     0
100
AcDbPoint
 10
-18.562851
 20
-12.76191
 30
0.0
  0
POINT
  5
B5D
330
663
100
AcDbEntity
  8
Defpoints
 62
     0
100
AcDbPoint
 10
-18.562851
 20
41.23809
 30
0.0
  0
POINT
  5
B5E
330
663
100
AcDbEntity
  8
Defpoints
 62
     0
100
AcDbPoint
 10
-37.272024
 20
41.23809
 30
0.0
  0
ENDBLK
  5
665
330
663
100
AcDbEntity
  8
0
100
AcDbBlockEnd
  0
BLOCK
  5
671
330
670
100
AcDbEntity
  8
0
100
AcDbBlockBegin
  2
*D7
 70
     1
 10
0.0
 20
0.0
 30
0.0
  3
*D7
  1

  0
LINE
  5
B44
330
670
100
AcDbEntity
  8
0
 62
     0
370
    -2
100
AcDbLine
 10
-15.606601
 20
-0.8650349999999999
 30
0.0
 11
-31.97123700000001
 21
-0.8650349999999951
 31
0.0
  0
LINE
  5
B45
330
670
100
AcDbEntity
  8
0
 62
     0
370
    -2
100
AcDbLine
 10
-15.606601
 20
29.341215
 30
0.0
 11
-31.971237
 21
29.34121500000001
 31
0.0
  0
LINE
  5
B46
330
670
100
AcDbEntity
  8
0
 62
     0
370
    -2
100
AcDbLine
 10
-30.72123700000001
 20
1.634965000000004
 30
0.0
 11
-30.721237
 21
26.84121500000001
 31
0.0
  0
INSERT
  5
B47
330
670
100
AcDbEntity
  8
0
 62
     0
370
    -2
100
AcDbBlockReference
  2
_Open30
 10
-30.72123700000001
 20
-0.8650349999999956
 30
0.0
 41
2.5
 42
2.5
 43
2.5
 50
270.0
  0
INSERT
  5
B48
330
670
100
AcDbEntity
  8
0
 62
     0
370
    -2
100
AcDbBlockReference
  2
_Open30
 10
-30.721237
 20
29.34121500000001
 30
0.0
 41
2.5
 42
2.5
 43
2.5
 50
90.0
  0
MTEXT
  5
B49
330
670
100
AcDbEntity
  8
0
 62
     4
100
AcDbMText
 10
-32.846237
 20
14.23809
 30
0.0
 40
3.0
 41
0.0
 71
     5
 72
     1
  1
φ179
 11
1.000000000000000E-16
 21
1.0
 31
0.0
 73
     1
 44
1.0
  0
POINT
  5
B4A
330
670
100
AcDbEntity
  8
Defpoints
 62
     0
100
AcDbPoint
 10
-15.356601
 20
-0.8650349999999999
 30
0.0
  0
POINT
  5
B4B
330
670
100
AcDbEntity
  8
Defpoints
 62
     0
100
AcDbPoint
 10
-15.356601
 20
29.341215
 30
0.0
  0
POINT
  5
B4C
330
670
100
AcDbEntity
  8
Defpoints
 62
     0
100
AcDbPoint
 10
-30.721237
 20
29.34121500000001
 30
0.0
  0
ENDBLK
  5
672
330
670
100
AcDbEntity
  8
0
100
AcDbBlockEnd
  0
BLOCK
  5
9CB
330
9CA
100
AcDbEntity
  8
0
100
AcDbBlockBegin
  2
*D8
 70
     1
 10
0.0
 20
0.0
 30
0.0
  3
*D8
  1

  0
LINE
  5
A54
330
9CA
100
AcDbEntity
  8
0
 62
     0
370
    -2
100
AcDbLine
 10
443.7154808219573
 20
59.6836991356173
 30
0.0
 11
443.7154808219573
 21
56.77406771360846
 31
0.0
  0
LINE
  5
A55
330
9CA
100
AcDbEntity
  8
0
 62
     0
370
    -2
100
AcDbLine
 10
441.258293767837
 20
59.6836991356173
 30
0.0
 11
441.258293767837
 21
56.77406771360846
 31
0.0
  0
LINE
  5
A56
330
9CA
100
AcDbEntity
  8
0
 62
     0
370
    -2
100
AcDbLine
 10
446.2154808219572
 20
58.02406771360846
 30
0.0
 11
448.7154808219573
 21
58.02406771360846
 31
0.0
  0
LINE
  5
A57
330
9CA
100
AcDbEntity
  8
0
 62
     0
370
    -2
100
AcDbLine
 10
438.758293767837
 20
58.02406771360846
 30
0.0
 11
426.008293767837
 21
58.02406771360846
 31
0.0
  0
LINE
  5
A58
330
9CA
100
AcDbEntity
  8
0
 62
     0
370
    -2
100
AcDbLine
 10
443.7154808219573
 20
58.02406771360846
 30
0.0
 11
441.258293767837
 21
58.02406771360846
 31
0.0
  0
INSERT
  5
A59
330
9CA
100
AcDbEntity
  8
0
 62
     0
370
    -2
100
AcDbBlockReference
  2
_Open30
 10
443.7154808219573
 20
58.02406771360846
 30
0.0
 41
2.5
 42
2.5
 43
2.5
 50
180.0
  0
INSERT
  5
A5A
330
9CA
100
AcDbEntity
  8
0
 62
     0
370
    -2
100
AcDbBlockReference
  2
_Open30
 10
441.258293767837
 20
58.02406771360846
 30
0.0
 41
2.5
 42
2.5
 43
2.5
  0
MTEXT
  5
A5B
330
9CA
100
AcDbEntity
  8
0
 62
     4
100
AcDbMText
 10
431.133293767837
 20
60.14906771360847
 30
0.0
 40
3.0
 41
0.0
 71
     5
 72
     1
  1
2.46
 73
     1
 44
1.0
  0
POINT
  5
A5C
330
9CA
100
AcDbEntity
  8
Defpoints
 62
     0
100
AcDbPoint
 10
443.7154808219573
 20
59.93369913561729
 30
0.0
  0
POINT
  5
A5D
330
9CA
100
AcDbEntity
  8
Defpoints
 62
     0
100
AcDbPoint
 10
441.258293767837
 20
59.93369913561729
 30
0.0
  0
POINT
  5
A5E
330
9CA
100
AcDbEntity
  8
Defpoints
 62
     0
100
AcDbPoint
 10
441.258293767837
 20
58.02406771360846
 30
0.0
  0
ENDBLK
  5
9CC
330
9CA
100
AcDbEntity
  8
0
100
AcDbBlockEnd
  0
BLOCK
  5
9D9
330
9D8
100
AcDbEntity
  8
0
100
AcDbBlockBegin
  2
*D9
 70
     1
 10
0.0
 20
0.0
 30
0.0
  3
*D9
  1

  0
LINE
  5
A5F
330
9D8
100
AcDbEntity
  8
0
 62
     0
370
    -2
100
AcDbLine
 10
445.3536057280304
 20
54.22760956285492
 30
0.0
 11
445.3536057280304
 21
51.6817174933916
 31
0.0
  0
LINE
  5
A60
330
9D8
100
AcDbEntity
  8
0
 62
     0
370
    -2
100
AcDbLine
 10
442.2593699298876
 20
54.22760956285492
 30
0.0
 11
442.2593699298876
 21
51.6817174933916
 31
0.0
  0
LINE
  5
A61
330
9D8
100
AcDbEntity
  8
0
 62
     0
370
    -2
100
AcDbLine
 10
447.8536057280305
 20
52.9317174933916
 30
0.0
 11
450.3536057280304
 21
52.9317174933916
 31
0.0
  0
LINE
  5
A62
330
9D8
100
AcDbEntity
  8
0
 62
     0
370
    -2
100
AcDbLine
 10
439.7593699298876
 20
52.9317174933916
 30
0.0
 11
427.3010365965541
 21
52.9317174933916
 31
0.0
  0
LINE
  5
A63
330
9D8
100
AcDbEntity
  8
0
 62
     0
370
    -2
100
AcDbLine
 10
445.3536057280304
 20
52.9317174933916
 30
0.0
 11
442.2593699298876
 21
52.9317174933916
 31
0.0
  0
INSERT
  5
A64
330
9D8
100
AcDbEntity
  8
0
 62
     0
370
    -2
100
AcDbBlockReference
  2
_Open30
 10
445.3536057280304
 20
52.9317174933916
 30
0.0
 41
2.5
 42
2.5
 43
2.5
 50
180.0
  0
INSERT
  5
A65
330
9D8
100
AcDbEntity
  8
0
 62
     0
370
    -2
100
AcDbBlockReference
  2
_Open30
 10
442.2593699298876
 20
52.9317174933916
 30
0.0
 41
2.5
 42
2.5
 43
2.5
  0
MTEXT
  5
A66
330
9D8
100
AcDbEntity
  8
0
 62
     4
100
AcDbMText
 10
431.1343699298876
 20
55.3067174933916
 30
0.0
 40
3.5
 41
0.0
 71
     5
 72
     1
  1
15.47
  7
高2.5
 73
     1
 44
1.0
  0
POINT
  5
A67
330
9D8
100
AcDbEntity
  8
Defpoints
 62
     0
100
AcDbPoint
 10
445.3536057280304
 20
54.47760956285492
 30
0.0
  0
POINT
  5
A68
330
9D8
100
AcDbEntity
  8
Defpoints
 62
     0
100
AcDbPoint
 10
442.2593699298876
 20
54.47760956285492
 30
0.0
  0
POINT
  5
A69
330
9D8
100
AcDbEntity
  8
Defpoints
 62
     0
100
AcDbPoint
 10
442.2593699298876
 20
52.9317174933916
 30
0.0
  0
ENDBLK
  5
9DA
330
9D8
100
AcDbEntity
  8
0
100
AcDbBlockEnd
  0
BLOCK
  5
9E7
330
9E6
100
AcDbEntity
  8
0
100
AcDbBlockBegin
  2
*D10
 70
     1
 10
0.0
 20
0.0
 30
0.0
  3
*D10
  1

  0
LINE
  5
A6A
330
9E6
100
AcDbEntity
  8
0
 62
     0
370
    -2
100
AcDbLine
 10
447.0827373361158
 20
48.77151984700843
 30
0.0
 11
447.0827373361158
 21
46.49843218464115
 31
0.0
  0
LINE
  5
A6B
330
9E6
100
AcDbEntity
  8
0
 62
     0
370
    -2
100
AcDbLine
 10
443.0784323829241
 20
48.77151984700843
 30
0.0
 11
443.0784323829241
 21
46.49843218464115
 31
0.0
  0
LINE
  5
A6C
330
9E6
100
AcDbEntity
  8
0
 62
     0
370
    -2
100
AcDbLine
 10
449.582737336116
 20
47.74843218464115
 30
0.0
 11
452.082737336116
 21
47.74843218464115
 31
0.0
  0
LINE
  5
A6D
330
9E6
100
AcDbEntity
  8
0
 62
     0
370
    -2
100
AcDbLine
 10
440.5784323829242
 20
47.74843218464115
 30
0.0
 11
428.8284323829241
 21
47.74843218464115
 31
0.0
  0
LINE
  5
A6E
330
9E6
100
AcDbEntity
  8
0
 62
     0
370
    -2
100
AcDbLine
 10
447.0827373361158
 20
47.74843218464115
 30
0.0
 11
443.0784323829241
 21
47.74843218464115
 31
0.0
  0
INSERT
  5
A6F
330
9E6
100
AcDbEntity
  8
0
 62
     0
370
    -2
100
AcDbBlockReference
  2
_Open30
 10
447.0827373361158
 20
47.74843218464115
 30
0.0
 41
2.5
 42
2.5
 43
2.5
 50
180.0
  0
INSERT
  5
A70
330
9E6
100
AcDbEntity
  8
0
 62
     0
370
    -2
100
AcDbBlockReference
  2
_Open30
 10
443.0784323829241
 20
47.74843218464115
 30
0.0
 41
2.5
 42
2.5
 43
2.5
  0
MTEXT
  5
A71
330
9E6
100
AcDbEntity
  8
0
 62
     4
100
AcDbMText
 10
433.4534323829242
 20
49.97343218464116
 30
0.0
 40
3.2
 41
0.0
 71
     5
 72
     1
  1
8.01
  7
高3.2
 73
     1
 44
1.0
  0
POINT
  5
A72
330
9E6
100
AcDbEntity
  8
Defpoints
 62
     0
100
AcDbPoint
 10
447.0827373361158
 20
49.02151984700846
 30
0.0
  0
POINT
  5
A73
330
9E6
100
AcDbEntity
  8
Defpoints
 62
     0
100
AcDbPoint
 10
443.0784323829241
 20
49.02151984700846
 30
0.0
  0
POINT
  5
A74
330
9E6
100
AcDbEntity
  8
Defpoints
 62
     0
100
AcDbPoint
 10
443.0784323829241
 20
47.74843218464115
 30
0.0
  0
ENDBLK
  5
9E8
330
9E6
100
AcDbEntity
  8
0
100
AcDbBlockEnd
  0
BLOCK
  5
9F5
330
9F4
100
AcDbEntity
  8
0
100
AcDbBlockBegin
  2
*D11
 70
     1
 10
0.0
 20
0.0
 30
0.0
  3
*D11
  1

  0
LINE
  5
A75
330
9F4
100
AcDbEntity
  8
0
 62
     0
370
    -2
100
AcDbLine
 10
446.9917306341037
 20
43.49729987897683
 30
0.0
 11
446.9917306341037
 21
41.67888637152042
 31
0.0
  0
LINE
  5
A76
330
9F4
100
AcDbEntity
  8
0
 62
     0
370
    -2
100
AcDbLine
 10
442.2593699298876
 20
43.49729987897683
 30
0.0
 11
442.2593699298876
 21
41.67888637152042
 31
0.0
  0
LINE
  5
A77
330
9F4
100
AcDbEntity
  8
0
 62
     0
370
    -2
100
AcDbLine
 10
449.4917306341037
 20
42.92888637152042
 30
0.0
 11
451.9917306341037
 21
42.92888637152042
 31
0.0
  0
LINE
  5
A78
330
9F4
100
AcDbEntity
  8
0
 62
     0
370
    -2
100
AcDbLine
 10
439.7593699298876
 20
42.92888637152042
 30
0.0
 11
418.0093699298874
 21
42.92888637152042
 31
0.0
  0
LINE
  5
A79
330
9F4
100
AcDbEntity
  8
0
 62
     0
370
    -2
100
AcDbLine
 10
446.9917306341037
 20
42.92888637152042
 30
0.0
 11
442.2593699298876
 21
42.92888637152042
 31
0.0
  0
INSERT
  5
A7A
330
9F4
100
AcDbEntity
  8
0
 62
     0
370
    -2
100
AcDbBlockReference
  2
_Open30
 10
446.9917306341037
 20
42.92888637152042
 30
0.0
 41
2.5
 42
2.5
 43
2.5
 50
180.0
  0
INSERT
  5
A7B
330
9F4
100
AcDbEntity
  8
0
 62
     0
370
    -2
100
AcDbBlockReference
  2
_Open30
 10
442.2593699298876
 20
42.92888637152042
 30
0.0
 41
2.5
 42
2.5
 43
2.5
  0
MTEXT
  5
A7C
330
9F4
100
AcDbEntity
  8
0
 62
     4
100
AcDbMText
 10
427.6343699298876
 20
45.80388637152043
 30
0.0
 40
4.5
 41
0.0
 71
     5
 72
     1
  1
47.32
  7
高4.5
 73
     1
 44
1.0
  0
POINT
  5
A7D
330
9F4
100
AcDbEntity
  8
Defpoints
 62
     0
100
AcDbPoint
 10
446.9917306341037
 20
43.74729987897683
 30
0.0
  0
POINT
  5
A7E
330
9F4
100
AcDbEntity
  8
Defpoints
 62
     0
100
AcDbPoint
 10
442.2593699298876
 20
43.74729987897683
 30
0.0
  0
POINT
  5
A7F
330
9F4
100
AcDbEntity
  8
Defpoints
 62
     0
100
AcDbPoint
 10
442.2593699298876
 20
42.92888637152042
 30
0.0
  0
ENDBLK
  5
9F6
330
9F4
100
AcDbEntity
  8
0
100
AcDbBlockEnd
  0
BLOCK
  5
A03
330
A02
100
AcDbEntity
  8
0
100
AcDbBlockBegin
  2
*D12
 70
     1
 10
0.0
 20
0.0
 30
0.0
  3
*D12
  1

  0
LINE
  5
A80
330
A02
100
AcDbEntity
  8
0
 62
     0
370
    -2
100
AcDbLine
 10
468.4693669021111
 20
59.6836991356173
 30
0.0
 11
468.4693669021111
 21
56.77406771360846
 31
0.0
  0
LINE
  5
A81
330
A02
100
AcDbEntity
  8
0
 62
     0
370
    -2
100
AcDbLine
 10
466.0121798479909
 20
59.6836991356173
 30
0.0
 11
466.0121798479909
 21
56.77406771360846
 31
0.0
  0
LINE
  5
A82
330
A02
100
AcDbEntity
  8
0
 62
     0
370
    -2
100
AcDbLine
 10
470.9693669021111
 20
58.02406771360846
 30
0.0
 11
473.4693669021111
 21
58.02406771360846
 31
0.0
  0
LINE
  5
A83
330
A02
100
AcDbEntity
  8
0
 62
     0
370
    -2
100
AcDbLine
 10
463.5121798479907
 20
58.02406771360846
 30
0.0
 11
441.9121798479909
 21
58.02406771360846
 31
0.0
  0
LINE
  5
A84
330
A02
100
AcDbEntity
  8
0
 62
     0
370
    -2
100
AcDbLine
 10
468.4693669021111
 20
58.02406771360846
 30
0.0
 11
466.0121798479909
 21
58.02406771360846
 31
0.0
  0
INSERT
  5
A85
330
A02
100
AcDbEntity
  8
0
 62
     0
370
    -2
100
AcDbBlockReference
  2
_Open30
 10
468.4693669021111
 20
58.02406771360846
 30
0.0
 41
2.5
 42
2.5
 43
2.5
 50
180.0
  0
INSERT
  5
A86
330
A02
100
AcDbEntity
  8
0
 62
     0
370
    -2
100
AcDbBlockReference
  2
_Open30
 10
466.0121798479909
 20
58.02406771360846
 30
0.0
 41
2.5
 42
2.5
 43
2.5
  0
MTEXT
  5
A87
330
A02
100
AcDbEntity
  8
0
 62
     4
100
AcDbMText
 10
451.4621798479907
 20
61.79906771360847
 30
0.0
 40
6.299999999999998
 41
0.0
 71
     5
 72
     1
  1
0.25
  7
高6.3
 73
     1
 44
1.0
  0
POINT
  5
A88
330
A02
100
AcDbEntity
  8
Defpoints
 62
     0
100
AcDbPoint
 10
468.4693669021111
 20
59.93369913561729
 30
0.0
  0
POINT
  5
A89
330
A02
100
AcDbEntity
  8
Defpoints
 62
     0
100
AcDbPoint
 10
466.0121798479909
 20
59.93369913561729
 30
0.0
  0
POINT
  5
A8A
330
A02
100
AcDbEntity
  8
Defpoints
 62
     0
100
AcDbPoint
 10
466.0121798479909
 20
58.02406771360846
 30
0.0
  0
ENDBLK
  5
A04
330
A02
100
AcDbEntity
  8
0
100
AcDbBlockEnd
  0
BLOCK
  5
A11
330
A10
100
AcDbEntity
  8
0
100
AcDbBlockBegin
  2
*D13
 70
     1
 10
0.0
 20
0.0
 30
0.0
  3
*D13
  1

  0
LINE
  5
A8B
330
A10
100
AcDbEntity
  8
0
 62
     0
370
    -2
100
AcDbLine
 10
470.1074918081842
 20
54.22760956285492
 30
0.0
 11
470.1074918081842
 21
51.6817174933916
 31
0.0
  0
LINE
  5
A8C
330
A10
100
AcDbEntity
  8
0
 62
     0
370
    -2
100
AcDbLine
 10
467.0132560100413
 20
54.22760956285492
 30
0.0
 11
467.0132560100413
 21
51.6817174933916
 31
0.0
  0
LINE
  5
A8D
330
A10
100
AcDbEntity
  8
0
 62
     0
370
    -2
100
AcDbLine
 10
472.6074918081843
 20
52.9317174933916
 30
0.0
 11
475.1074918081843
 21
52.9317174933916
 31
0.0
  0
LINE
  5
A8E
330
A10
100
AcDbEntity
  8
0
 62
     0
370
    -2
100
AcDbLine
 10
464.5132560100413
 20
52.9317174933916
 30
0.0
 11
452.5132560100415
 21
52.9317174933916
 31
0.0
  0
LINE
  5
A8F
330
A10
100
AcDbEntity
  8
0
 62
     0
370
    -2
100
AcDbLine
 10
470.1074918081842
 20
52.9317174933916
 30
0.0
 11
467.0132560100413
 21
52.9317174933916
 31
0.0
  0
INSERT
  5
A90
330
A10
100
AcDbEntity
  8
0
 62
     0
370
    -2
100
AcDbBlockReference
  2
_Open30
 10
470.1074918081842
 20
52.9317174933916
 30
0.0
 41
2.5
 42
2.5
 43
2.5
 50
180.0
  0
INSERT
  5
A91
330
A10
100
AcDbEntity
  8
0
 62
     0
370
    -2
100
AcDbBlockReference
  2
_Open30
 10
467.0132560100413
 20
52.9317174933916
 30
0.0
 41
2.5
 42
2.5
 43
2.5
  0
MTEXT
  5
A92
330
A10
100
AcDbEntity
  8
0
 62
     4
100
AcDbMText
 10
457.1382560100413
 20
55.0567174933916
 30
0.0
 40
3.0
 41
0.0
 71
     5
 72
     1
  1
1.55
 73
     1
 44
1.0
  0
POINT
  5
A93
330
A10
100
AcDbEntity
  8
Defpoints
 62
     0
100
AcDbPoint
 10
470.1074918081842
 20
54.47760956285492
 30
0.0
  0
POINT
  5
A94
330
A10
100
AcDbEntity
  8
Defpoints
 62
     0
100
AcDbPoint
 10
467.0132560100413
 20
54.47760956285492
 30
0.0
  0
POINT
  5
A95
330
A10
100
AcDbEntity
  8
Defpoints
 62
     0
100
AcDbPoint
 10
467.0132560100413
 20
52.9317174933916
 30
0.0
  0
ENDBLK
  5
A12
330
A10
100
AcDbEntity
  8
0
100
AcDbBlockEnd
  0
BLOCK
  5
A1F
330
A1E
100
AcDbEntity
  8
0
100
AcDbBlockBegin
  2
*D14
 70
     1
 10
0.0
 20
0.0
 30
0.0
  3
*D14
  1

  0
LINE
  5
A96
330
A1E
100
AcDbEntity
  8
0
 62
     0
370
    -2
100
AcDbLine
 10
471.8366234162698
 20
48.77151984700843
 30
0.0
 11
471.8366234162698
 21
46.49843218464115
 31
0.0
  0
LINE
  5
A97
330
A1E
100
AcDbEntity
  8
0
 62
     0
370
    -2
100
AcDbLine
 10
467.832318463078
 20
48.77151984700843
 30
0.0
 11
467.832318463078
 21
46.49843218464115
 31
0.0
  0
LINE
  5
A98
330
A1E
100
AcDbEntity
  8
0
 62
     0
370
    -2
100
AcDbLine
 10
474.3366234162698
 20
47.74843218464115
 30
0.0
 11
476.8366234162698
 21
47.74843218464115
 31
0.0
  0
LINE
  5
A99
330
A1E
100
AcDbEntity
  8
0
 62
     0
370
    -2
100
AcDbLine
 10
465.332318463078
 20
47.74843218464115
 30
0.0
 11
456.9989851297446
 21
47.74843218464115
 31
0.0
  0
LINE
  5
A9A
330
A1E
100
AcDbEntity
  8
0
 62
     0
370
    -2
100
AcDbLine
 10
471.8366234162698
 20
47.74843218464115
 30
0.0
 11
467.832318463078
 21
47.74843218464115
 31
0.0
  0
INSERT
  5
A9B
330
A1E
100
AcDbEntity
  8
0
 62
     0
370
    -2
100
AcDbBlockReference
  2
_Open30
 10
471.8366234162698
 20
47.74843218464115
 30
0.0
 41
2.5
 42
2.5
 43
2.5
 50
180.0
  0
INSERT
  5
A9C
330
A1E
100
AcDbEntity
  8
0
 62
     0
370
    -2
100
AcDbBlockReference
  2
_Open30
 10
467.832318463078
 20
47.74843218464115
 30
0.0
 41
2.5
 42
2.5
 43
2.5
  0
MTEXT
  5
A9D
330
A1E
100
AcDbEntity
  8
0
 62
     4
100
AcDbMText
 10
459.457318463078
 20
49.37343218464116
 30
0.0
 40
2.0
 41
0.0
 71
     5
 72
     1
  1
0.8
  7
高2
 73
     1
 44
1.0
  0
POINT
  5
A9E
330
A1E
100
AcDbEntity
  8
Defpoints
 62
     0
100
AcDbPoint
 10
471.8366234162698
 20
49.02151984700846
 30
0.0
  0
POINT
  5
A9F
330
A1E
100
AcDbEntity
  8
Defpoints
 62
     0
100
AcDbPoint
 10
467.832318463078
 20
49.02151984700846
 30
0.0
  0
POINT
  5
AA0
330
A1E
100
AcDbEntity
  8
Defpoints
 62
     0
100
AcDbPoint
 10
467.832318463078
 20
47.74843218464115
 30
0.0
  0
ENDBLK
  5
A20
330
A1E
100
AcDbEntity
  8
0
100
AcDbBlockEnd
  0
BLOCK
  5
A2D
330
A2C
100
AcDbEntity
  8
0
100
AcDbBlockBegin
  2
*D15
 70
     1
 10
0.0
 20
0.0
 30
0.0
  3
*D15
  1

  0
LINE
  5
AA1
330
A2C
100
AcDbEntity
  8
0
 62
     0
370
    -2
100
AcDbLine
 10
471.7456167142574
 20
43.49729987897683
 30
0.0
 11
471.7456167142574
 21
41.67888637152042
 31
0.0
  0
LINE
  5
AA2
330
A2C
100
AcDbEntity
  8
0
 62
     0
370
    -2
100
AcDbLine
 10
467.0132560100413
 20
43.49729987897683
 30
0.0
 11
467.0132560100413
 21
41.67888637152042
 31
0.0
  0
LINE
  5
AA3
330
A2C
100
AcDbEntity
  8
0
 62
     0
370
    -2
100
AcDbLine
 10
474.2456167142576
 20
42.92888637152042
 30
0.0
 11
476.7456167142575
 21
42.92888637152042
 31
0.0
  0
LINE
  5
AA4
330
A2C
100
AcDbEntity
  8
0
 62
     0
370
    -2
100
AcDbLine
 10
464.5132560100413
 20
42.92888637152042
 30
0.0
 11
449.7632560100413
 21
42.92888637152042
 31
0.0
  0
LINE
  5
AA5
330
A2C
100
AcDbEntity
  8
0
 62
     0
370
    -2
100
AcDbLine
 10
471.7456167142574
 20
42.92888637152042
 30
0.0
 11
467.0132560100413
 21
42.92888637152042
 31
0.0
  0
INSERT
  5
AA6
330
A2C
100
AcDbEntity
  8
0
 62
     0
370
    -2
100
AcDbBlockReference
  2
_Open30
 10
471.7456167142574
 20
42.92888637152042
 30
0.0
 41
2.5
 42
2.5
 43
2.5
 50
180.0
  0
INSERT
  5
AA7
330
A2C
100
AcDbEntity
  8
0
 62
     0
370
    -2
100
AcDbBlockReference
  2
_Open30
 10
467.0132560100413
 20
42.92888637152042
 30
0.0
 41
2.5
 42
2.5
 43
2.5
  0
MTEXT
  5
AA8
330
A2C
100
AcDbEntity
  8
0
 62
     4
100
AcDbMText
 10
455.8882560100413
 20
45.05388637152043
 30
0.0
 40
3.0
 41
0.0
 71
     5
 72
     1
  1
18.93
 73
     1
 44
1.0
  0
POINT
  5
AA9
330
A2C
100
AcDbEntity
  8
Defpoints
 62
     0
100
AcDbPoint
 10
471.7456167142574
 20
43.74729987897683
 30
0.0
  0
POINT
  5
AAA
330
A2C
100
AcDbEntity
  8
Defpoints
 62
     0
100
AcDbPoint
 10
467.0132560100413
 20
43.74729987897683
 30
0.0
  0
POINT
  5
AAB
330
A2C
100
AcDbEntity
  8
Defpoints
 62
     0
100
AcDbPoint
 10
467.0132560100413
 20
42.92888637152042
 30
0.0
  0
ENDBLK
  5
A2E
330
A2C
100
AcDbEntity
  8
0
100
AcDbBlockEnd
  0
BLOCK
  5
A3B
330
A3A
100
AcDbEntity
  8
0
100
AcDbBlockBegin
  2
*D16
 70
     1
 10
0.0
 20
0.0
 30
0.0
  3
*D16
  1

  0
LINE
  5
AAC
330
A3A
100
AcDbEntity
  8
0
 62
     0
370
    -2
100
AcDbLine
 10
468.9411898631191
 20
38.44145967238706
 30
0.0
 11
468.9411898631191
 21
36.13153859551153
 31
0.0
  0
LINE
  5
AAD
330
A3A
100
AcDbEntity
  8
0
 62
     0
370
    -2
100
AcDbLine
 10
464.3525146609713
 20
38.44145967238706
 30
0.0
 11
464.3525146609713
 21
36.13153859551153
 31
0.0
  0
LINE
  5
AAE
330
A3A
100
AcDbEntity
  8
0
 62
     0
370
    -2
100
AcDbLine
 10
471.4411898631191
 20
37.38153859551153
 30
0.0
 11
473.9411898631192
 21
37.38153859551153
 31
0.0
  0
LINE
  5
AAF
330
A3A
100
AcDbEntity
  8
0
 62
     0
370
    -2
100
AcDbLine
 10
461.8525146609712
 20
37.38153859551153
 30
0.0
 11
447.1025146609712
 21
37.38153859551153
 31
0.0
  0
LINE
  5
AB0
330
A3A
100
AcDbEntity
  8
0
 62
     0
370
    -2
100
AcDbLine
 10
468.9411898631191
 20
37.38153859551153
 30
0.0
 11
464.3525146609713
 21
37.38153859551153
 31
0.0
  0
INSERT
  5
AB1
330
A3A
100
AcDbEntity
  8
0
 62
     0
370
    -2
100
AcDbBlockReference
  2
_Open30
 10
468.9411898631191
 20
37.38153859551153
 30
0.0
 41
2.5
 42
2.5
 43
2.5
 50
180.0
  0
INSERT
  5
AB2
330
A3A
100
AcDbEntity
  8
0
 62
     0
370
    -2
100
AcDbBlockReference
  2
_Open30
 10
464.3525146609713
 20
37.38153859551153
 30
0.0
 41
2.5
 42
2.5
 43
2.5
  0
MTEXT
  5
AB3
330
A3A
100
AcDbEntity
  8
0
 62
     4
100
AcDbMText
 10
453.2275146609713
 20
39.50653859551153
 30
0.0
 40
3.0
 41
0.0
 71
     5
 72
     1
  1
13.77
 73
     1
 44
1.0
  0
POINT
  5
AB4
330
A3A
100
AcDbEntity
  8
Defpoints
 62
     0
100
AcDbPoint
 10
468.9411898631191
 20
38.69145967238706
 30
0.0
  0
POINT
  5
AB5
330
A3A
100
AcDbEntity
  8
Defpoints
 62
     0
100
AcDbPoint
 10
464.3525146609713
 20
38.69145967238706
 30
0.0
  0
POINT
  5
AB6
330
A3A
100
AcDbEntity
  8
Defpoints
 62
     0
100
AcDbPoint
 10
464.3525146609713
 20
37.38153859551153
 30
0.0
  0
ENDBLK
  5
A3C
330
A3A
100
AcDbEntity
  8
0
100
AcDbBlockEnd
  0
BLOCK
  5
A49
330
A48
100
AcDbEntity
  8
0
100
AcDbBlockBegin
  2
*D17
 70
     1
 10
0.0
 20
0.0
 30
0.0
  3
*D17
  1

  0
LINE
  5
AB7
330
A48
100
AcDbEntity
  8
0
 62
     0
370
    -2
100
AcDbLine
 10
461.8449070299687
 20
69.3709509906614
 30
0.0
 11
461.8449070299687
 21
76.76748446859916
 31
0.0
  0
LINE
  5
AB8
330
A48
100
AcDbEntity
  8
0
 62
     0
370
    -2
100
AcDbLine
 10
451.9064326604789
 20
69.3709509906614
 30
0.0
 11
451.9064326604789
 21
76.76748446859916
 31
0.0
  0
LINE
  5
AB9
330
A48
100
AcDbEntity
  8
0
 62
     0
370
    -2
100
AcDbLine
 10
459.3449070299688
 20
75.51748446859916
 30
0.0
 11
454.4064326604789
 21
75.51748446859916
 31
0.0
  0
INSERT
  5
ABA
330
A48
100
AcDbEntity
  8
0
 62
     0
370
    -2
100
AcDbBlockReference
  2
_Open30
 10
461.8449070299687
 20
75.51748446859916
 30
0.0
 41
2.5
 42
2.5
 43
2.5
  0
INSERT
  5
ABB
330
A48
100
AcDbEntity
  8
0
 62
     0
370
    -2
100
AcDbBlockReference
  2
_Open30
 10
451.9064326604789
 20
75.51748446859916
 30
0.0
 41
2.5
 42
2.5
 43
2.5
 50
180.0
  0
MTEXT
  5
ABC
330
A48
100
AcDbEntity
  8
0
 62
     4
100
AcDbMText
 10
456.8756698452238
 20
78.59248446859915
 30
0.0
 40
3.0
 41
0.0
 71
     5
 72
     1
  1
9.94\H0.7X;\S+0^ -0.02;
 73
     1
 44
1.0
  0
POINT
  5
ABD
330
A48
100
AcDbEntity
  8
Defpoints
 62
     0
100
AcDbPoint
 10
461.8449070299687
 20
69.1209509906614
 30
0.0
  0
POINT
  5
ABE
330
A48
100
AcDbEntity
  8
Defpoints
 62
     0
100
AcDbPoint
 10
451.9064326604789
 20
69.1209509906614
 30
0.0
  0
POINT
  5
ABF
330
A48
100
AcDbEntity
  8
Defpoints
 62
     0
100
AcDbPoint
 10
451.9064326604789
 20
75.51748446859916
 30
0.0
  0
ENDBLK
  5
A4A
330
A48
100
AcDbEntity
  8
0
100
AcDbBlockEnd
  0
ENDSEC
  0
SECTION
  2
ENTITIES
  0
DIMENSION
  5
E9
330
6B
100
AcDbEntity
  8
0
100
AcDbDimension
  2
*D4
 10
56.581524
 20
-33.124971
 30
0.0
 11
49.6037115
 21
-30.999971
 31
0.0
 70
    32
  1
100
 71
     5
 42
13.955625
  3
FREE
100
AcDbAlignedDimension
 13
42.625899
 23
-11.766285
 33
0.0
 14
56.581524
 24
-4.062212999999998
 34
0.0
100
AcDbRotatedDimension
  0
DIMENSION
  5
EA
330
6B
100
AcDbEntity
  8
0
100
AcDbDimension
  2
*D6
 10
-37.272024
 20
41.23809
 30
0.0
 11
-39.39702400000001
 21
14.23809
 31
0.0
 70
    32
  1
φ320
 71
     5
 42
54.0
  3
FREE
100
AcDbAlignedDimension
 13
-18.562851
 23
-12.76191
 33
0.0
 14
-18.562851
 24
41.23809
 34
0.0
 50
90.0
100
AcDbRotatedDimension
  0
DIMENSION
  5
EB
330
6B
100
AcDbEntity
  8
0
100
AcDbDimension
  2
*D1
 10
-49.76220399999998
 20
51.35984899999999
 30
0.0
 11
-51.887204
 21
16.31239049999998
 31
0.0
 70
    32
  1
420
 71
     5
 42
70.09491699999998
  3
FREE
100
AcDbAlignedDimension
 13
-58.130979
 23
-18.735068
 33
0.0
 14
-90.711712
 24
51.359849
 34
0.0
 50
90.0
100
AcDbRotatedDimension
  0
DIMENSION
  5
EC
330
6B
100
AcDbEntity
  8
0
100
AcDbDimension
  2
*D2
 10
-58.130979
 20
-26.94898
 30
0.0
 11
-86.3291855
 21
-24.82398
 31
0.0
 70
    32
  1
322
 71
     5
 42
56.39641299999999
  3
FREE
100
AcDbAlignedDimension
 13
-114.527392
 23
-17.650261
 33
0.0
 14
-58.130979
 24
-17.518848
 34
0.0
100
AcDbRotatedDimension
  0
DIMENSION
  5
ED
330
6B
100
AcDbEntity
  8
0
100
AcDbDimension
  2
*D5
 10
34.593399
 20
-26.94898
 30
0.0
 11
9.618398999999997
 21
-24.82398
 31
0.0
 70
    32
  1
296
 71
     5
 42
49.95
  3
FREE
100
AcDbAlignedDimension
 13
-15.356601
 23
-1.312114999999999
 33
0.0
 14
34.593399
 24
-1.312114999999999
 34
0.0
100
AcDbRotatedDimension
  0
DIMENSION
  5
EE
330
6B
100
AcDbEntity
  8
0
100
AcDbDimension
  2
*D7
 10
-30.721237
 20
29.34121500000001
 30
0.0
 11
-32.846237
 21
14.23809
 31
0.0
 70
    32
  1
φ179
 71
     5
 42
30.20625
  3
FREE
100
AcDbAlignedDimension
 13
-15.356601
 23
-0.8650349999999999
 33
0.0
 14
-15.356601
 24
29.341215
 34
0.0
 50
90.0
100
AcDbRotatedDimension
  0
DIMENSION
  5
EF
330
6B
100
AcDbEntity
  8
0
100
AcDbDimension
  2
*D3
 10
42.625899
 20
-33.124971
 30
0.0
 11
9.633651999999998
 21
-30.999971
 31
0.0
 70
    32
  1
391
 71
     5
 42
65.98449399999998
  3
FREE
100
AcDbAlignedDimension
 13
-23.358595
 23
-12.76191
 33
0.0
 14
42.625899
 24
-11.766285
 34
0.0
100
AcDbRotatedDimension
  0
LINE
  5
104
330
6B
100
AcDbEntity
  8
0
 62
     3
100
AcDbLine
 10
0.0
 20
98.472617
 30
0.0
 11
0.0
 21
97.224058
 31
0.0
  0
ARC
  5
105
330
6B
100
AcDbEntity
  8
0
 62
     3
100
AcDbCircle
 10
-74.016522
 20
28.875689
 30
0.0
 40
0.675
100
AcDbArc
 50
320.0
 51
357.475404
  0
CIRCLE
  5
106
330
6B
100
AcDbEntity
  8
0
 62
     3
100
AcDbCircle
 10
-70.9194
 20
-1.172918
 30
0.0
 40
0.430312
  0
ARC
  5
107
330
6B
100
AcDbEntity
  8
0
 62
     3
100
AcDbCircle
 10
-86.29892599999998
 20
14.23809
 30
0.0
 40
25.65
100
AcDbArc
 50
93.930755
 51
216.614616
  0
ARC
  5
108
330
6B
100
AcDbEntity
  8
0
 62
     3
100
AcDbCircle
 10
-86.29892599999998
 20
14.23809
 30
0.0
 40
25.65
100
AcDbArc
 50
223.249844
 51
316.750156
  0
ARC
  5
109
330
6B
100
AcDbEntity
  8
0
 62
     3
100
AcDbCircle
 10
-17.541411
 20
37.562026
 30
0.0
 40
0.4556250000000003
100
AcDbArc
 50
331.9774259999999
 51
18.849805
  0
LINE
  5
10A
330
6B
100
AcDbEntity
  8
0
 62
     3
100
AcDbLine
 10
-17.139202
 20
37.347965
 30
0.0
 11
-17.314101
 21
37.01934
 31
0.0
  0
LINE
  5
10B
330
6B
100
AcDbEntity
  8
0
 62
     3
100
AcDbLine
 10
-17.314101
 20
37.01934
 30
0.0
 11
-17.314101
 21
34.968214
 31
0.0
  0
LINE
  5
10C
330
6B
100
AcDbEntity
  8
0
 62
     3
100
AcDbLine
 10
-20.739726
 20
11.70684
 30
0.0
 11
-19.237851
 21
11.70684
 31
0.0
  0
LINE
  5
10D
330
6B
100
AcDbEntity
  8
0
 62
     3
100
AcDbLine
 10
-20.739726
 20
16.76934
 30
0.0
 11
-19.237851
 21
16.76934
 31
0.0
  0
LINE
  5
10E
330
6B
100
AcDbEntity
  8
0
 62
     3
100
AcDbLine
 10
34.593399
 20
29.341215
 30
0.0
 11
-15.356601
 21
29.341215
 31
0.0
  0
LINE
  5
10F
330
6B
100
AcDbEntity
  8
0
 62
     3
100
AcDbLine
 10
34.593399
 20
-0.8650349999999999
 30
0.0
 11
-15.356601
 21
-0.8650349999999999
 31
0.0
  0
LINE
  5
110
330
6B
100
AcDbEntity
  8
0
 62
     3
100
AcDbLine
 10
36.376
 20
37.347965
 30
0.0
 11
36.550899
 21
37.01934
 31
0.0
  0
ARC
  5
111
330
6B
100
AcDbEntity
  8
0
 62
     3
100
AcDbCircle
 10
36.778209
 20
37.562026
 30
0.0
 40
0.4556250000000003
100
AcDbArc
 50
161.150195
 51
208.022574
  0
LINE
  5
112
330
6B
100
AcDbEntity
  8
0
 62
     3
100
AcDbLine
 10
45.612774
 20
16.09434
 30
0.0
 11
44.85339899999998
 21
16.09434
 31
0.0
  0
LINE
  5
113
330
6B
100
AcDbEntity
  8
0
 62
     3
100
AcDbLine
 10
45.612774
 20
-3.986909999999998
 30
0.0
 11
44.85339899999998
 21
-3.986909999999998
 31
0.0
  0
LINE
  5
114
330
6B
100
AcDbEntity
  8
0
 62
     3
100
AcDbLine
 10
46.11902399999999
 20
-3.839166999999997
 30
0.0
 11
46.11902399999999
 21
-1.434652999999999
 31
0.0
  0
LINE
  5
115
330
6B
100
AcDbEntity
  8
0
 62
     3
100
AcDbLine
 10
46.265471
 20
-1.267384
 30
0.0
 11
48.65027399999998
 21
-0.9494099999999999
 31
0.0
  0
LINE
  5
116
330
6B
100
AcDbEntity
  8
0
 62
     3
100
AcDbLine
 10
46.265471
 20
-4.006435999999998
 30
0.0
 11
48.65027399999998
 21
-4.324409999999998
 31
0.0
  0
ARC
  5
117
330
6B
100
AcDbEntity
  8
0
 62
     3
100
AcDbCircle
 10
46.28777399999999
 20
-3.839166999999997
 30
0.0
 40
0.16875
100
AcDbArc
 50
180.0
 51
262.405357
  0
ARC
  5
118
330
6B
100
AcDbEntity
  8
0
 62
     3
100
AcDbCircle
 10
46.28777399999999
 20
-1.434652999999999
 30
0.0
 40
0.16875
100
AcDbArc
 50
97.59464300000003
 51
180.0
  0
LINE
  5
119
330
6B
100
AcDbEntity
  8
0
 62
     3
100
AcDbLine
 10
56.581524
 20
-1.211606999999998
 30
0.0
 11
56.581524
 21
-4.062212999999998
 31
0.0
  0
ARC
  5
11A
330
6B
100
AcDbEntity
  8
0
 62
     3
100
AcDbCircle
 10
56.159649
 20
-1.211606999999998
 30
0.0
 40
0.421875
100
AcDbArc
 50
0.0
 51
91.218875
  0
ARC
  5
11B
330
6B
100
AcDbEntity
  8
0
 62
     3
100
AcDbCircle
 10
56.159649
 20
-4.062212999999998
 30
0.0
 40
0.421875
100
AcDbArc
 50
268.781125
 51
0.0
  0
ARC
  5
11C
330
6B
100
AcDbEntity
  8
0
 62
     3
100
AcDbCircle
 10
94.960724
 20
14.23809
 30
0.0
 40
25.65
100
AcDbArc
 50
223.249844
 51
316.750156
  0
LINE
  5
11D
330
6B
100
AcDbEntity
  8
0
 62
     3
100
AcDbLine
 10
93.58095699999998
 20
-1.665365999999995
 30
0.0
 11
93.10531
 21
14.182403
 31
0.0
  0
LINE
  5
11E
330
6B
100
AcDbEntity
  8
0
 62
     3
100
AcDbLine
 10
96.34049199999998
 20
-1.665365999999995
 30
0.0
 11
96.81613900000002
 21
14.182403
 31
0.0
  0
ARC
  5
11F
330
6B
100
AcDbEntity
  8
0
 62
     3
100
AcDbCircle
 10
94.960724
 20
14.23809
 30
0.0
 40
1.85625
100
AcDbArc
 50
358.280869
 51
181.719131
  0
LINE
  5
120
330
6B
100
AcDbEntity
  8
0
 62
     3
100
AcDbLine
 10
93.526349
 20
15.066227
 30
0.0
 11
94.960724
 21
15.894364
 31
0.0
  0
ARC
  5
121
330
6B
100
AcDbEntity
  8
0
 62
     3
100
AcDbCircle
 10
93.188849
 20
-2.636909999999998
 30
0.0
 40
0.253125
100
AcDbArc
 50
300.879053
 51
59.12094699999999
  0
ARC
  5
122
330
6B
100
AcDbEntity
  8
0
 62
     3
100
AcDbCircle
 10
93.344742
 20
-2.376215999999998
 30
0.0
 40
0.050625
100
AcDbArc
 50
170.835858
 51
239.120947
  0
ARC
  5
123
330
6B
100
AcDbEntity
  8
0
 62
     3
100
AcDbCircle
 10
93.344742
 20
-2.897604
 30
0.0
 40
0.050625
100
AcDbArc
 50
120.879053
 51
189.164142
  0
ARC
  5
124
330
6B
100
AcDbEntity
  8
0
 62
     3
100
AcDbCircle
 10
93.926965
 20
-3.906043999999998
 30
0.0
 40
0.050625
100
AcDbArc
 50
230.835858
 51
299.120947
  0
ARC
  5
125
330
6B
100
AcDbEntity
  8
0
 62
     3
100
AcDbCircle
 10
94.074787
 20
-4.171399
 30
0.0
 40
0.253125
100
AcDbArc
 50
0.879053
 51
119.120947
  0
ARC
  5
126
330
6B
100
AcDbEntity
  8
0
 62
     3
100
AcDbCircle
 10
94.378501
 20
-4.166738999999997
 30
0.0
 40
0.050625
100
AcDbArc
 50
180.879053
 51
249.164142
  0
ARC
  5
127
330
6B
100
AcDbEntity
  8
0
 62
     3
100
AcDbCircle
 10
95.542948
 20
-4.166738999999997
 30
0.0
 40
0.050625
100
AcDbArc
 50
290.835858
 51
359.120947
  0
ARC
  5
128
330
6B
100
AcDbEntity
  8
0
 62
     3
100
AcDbCircle
 10
95.846662
 20
-4.171399
 30
0.0
 40
0.253125
100
AcDbArc
 50
60.879053
 51
179.120947
  0
ARC
  5
129
330
6B
100
AcDbEntity
  8
0
 62
     3
100
AcDbCircle
 10
95.994483
 20
-3.906043999999998
 30
0.0
 40
0.050625
100
AcDbArc
 50
240.879053
 51
309.1641420000001
  0
ARC
  5
12A
330
6B
100
AcDbEntity
  8
0
 62
     3
100
AcDbCircle
 10
95.994483
 20
-1.367776
 30
0.0
 40
0.050625
100
AcDbArc
 50
50.835858
 51
119.120947
  0
ARC
  5
12B
330
6B
100
AcDbEntity
  8
0
 62
     3
100
AcDbCircle
 10
95.846662
 20
-1.102420999999998
 30
0.0
 40
0.253125
100
AcDbArc
 50
180.879053
 51
299.120947
  0
ARC
  5
12C
330
6B
100
AcDbEntity
  8
0
 62
     3
100
AcDbCircle
 10
95.542948
 20
-1.107080999999997
 30
0.0
 40
0.050625
100
AcDbArc
 50
0.879053
 51
69.164142
  0
ARC
  5
12D
330
6B
100
AcDbEntity
  8
0
 62
     3
100
AcDbCircle
 10
94.378501
 20
-1.107080999999997
 30
0.0
 40
0.050625
100
AcDbArc
 50
110.835858
 51
179.120947
  0
ARC
  5
12E
330
6B
100
AcDbEntity
  8
0
 62
     3
100
AcDbCircle
 10
94.074787
 20
-1.102420999999998
 30
0.0
 40
0.253125
100
AcDbArc
 50
240.879053
 51
6.620131999999999
  0
ARC
  5
12F
330
6B
100
AcDbEntity
  8
0
 62
     3
100
AcDbCircle
 10
93.926965
 20
-1.367776
 30
0.0
 40
0.050625
100
AcDbArc
 50
60.879053
 51
129.164142
  0
ARC
  5
130
330
6B
100
AcDbEntity
  8
0
 62
     3
100
AcDbCircle
 10
94.960724
 20
-2.636909999999998
 30
0.0
 40
1.6875
100
AcDbArc
 50
189.164142
 51
230.835858
  0
ARC
  5
131
330
6B
100
AcDbEntity
  8
0
 62
     3
100
AcDbCircle
 10
94.960724
 20
-2.636909999999998
 30
0.0
 40
1.6875
100
AcDbArc
 50
249.164142
 51
290.835858
  0
ARC
  5
132
330
6B
100
AcDbEntity
  8
0
 62
     3
100
AcDbCircle
 10
94.960724
 20
-2.636909999999998
 30
0.0
 40
1.6875
100
AcDbArc
 50
69.164142
 51
112.086142
  0
ARC
  5
133
330
6B
100
AcDbEntity
  8
0
 62
     3
100
AcDbCircle
 10
94.960724
 20
-2.636909999999998
 30
0.0
 40
1.6875
100
AcDbArc
 50
129.164142
 51
170.835858
  0
ARC
  5
134
330
6B
100
AcDbEntity
  8
0
 62
     3
100
AcDbCircle
 10
96.732599
 20
-2.636909999999998
 30
0.0
 40
0.253125
100
AcDbArc
 50
120.879053
 51
239.120947
  0
ARC
  5
135
330
6B
100
AcDbEntity
  8
0
 62
     3
100
AcDbCircle
 10
96.57670600000002
 20
-2.376215999999998
 30
0.0
 40
0.050625
100
AcDbArc
 50
300.879053
 51
9.164142
  0
ARC
  5
136
330
6B
100
AcDbEntity
  8
0
 62
     3
100
AcDbCircle
 10
96.57670600000002
 20
-2.897604
 30
0.0
 40
0.050625
100
AcDbArc
 50
350.8358579999999
 51
59.12094699999999
  0
ARC
  5
137
330
6B
100
AcDbEntity
  8
0
 62
     3
100
AcDbCircle
 10
94.960724
 20
-2.636909999999998
 30
0.0
 40
1.6875
100
AcDbArc
 50
309.1641420000001
 51
350.8358579999999
  0
ARC
  5
138
330
6B
100
AcDbEntity
  8
0
 62
     3
100
AcDbCircle
 10
94.960724
 20
-2.636909999999998
 30
0.0
 40
1.6875
100
AcDbArc
 50
9.164142
 51
50.835858
  0
ARC
  5
139
330
6B
100
AcDbEntity
  8
0
 62
     3
100
AcDbCircle
 10
95.772638
 20
-1.048232
 30
0.0
 40
0.33866
100
AcDbArc
 50
255.622575
 51
305.613801
  0
ARC
  5
13A
330
6B
100
AcDbEntity
  8
0
 62
     3
100
AcDbCircle
 10
95.930603
 20
-1.139432999999999
 30
0.0
 40
0.33866
100
AcDbArc
 50
174.386199
 51
224.377425
  0
ARC
  5
13B
330
6B
100
AcDbEntity
  8
0
 62
     3
100
AcDbCircle
 10
94.148811
 20
-1.048232
 30
0.0
 40
0.33866
100
AcDbArc
 50
234.386199
 51
284.3774250000001
  0
ARC
  5
13C
330
6B
100
AcDbEntity
  8
0
 62
     3
100
AcDbCircle
 10
93.990846
 20
-1.139432999999999
 30
0.0
 40
0.33866
100
AcDbArc
 50
315.622575
 51
5.613801
  0
ARC
  5
13D
330
6B
100
AcDbEntity
  8
0
 62
     3
100
AcDbCircle
 10
93.17893199999997
 20
-2.545708999999999
 30
0.0
 40
0.33866
100
AcDbArc
 50
294.386199
 51
344.377425
  0
ARC
  5
13E
330
6B
100
AcDbEntity
  8
0
 62
     3
100
AcDbCircle
 10
93.17893199999997
 20
-2.728111
 30
0.0
 40
0.33866
100
AcDbArc
 50
15.622575
 51
65.613801
  0
ARC
  5
13F
330
6B
100
AcDbEntity
  8
0
 62
     3
100
AcDbCircle
 10
93.990846
 20
-4.134387
 30
0.0
 40
0.33866
100
AcDbArc
 50
354.386199
 51
44.377425
  0
ARC
  5
140
330
6B
100
AcDbEntity
  8
0
 62
     3
100
AcDbCircle
 10
94.148811
 20
-4.225588
 30
0.0
 40
0.33866
100
AcDbArc
 50
75.622575
 51
125.613801
  0
ARC
  5
141
330
6B
100
AcDbEntity
  8
0
 62
     3
100
AcDbCircle
 10
95.772638
 20
-4.225588
 30
0.0
 40
0.33866
100
AcDbArc
 50
54.38619899999999
 51
104.377425
  0
ARC
  5
142
330
6B
100
AcDbEntity
  8
0
 62
     3
100
AcDbCircle
 10
95.930603
 20
-4.134387
 30
0.0
 40
0.33866
100
AcDbArc
 50
135.622575
 51
185.613801
  0
ARC
  5
143
330
6B
100
AcDbEntity
  8
0
 62
     3
100
AcDbCircle
 10
96.742516
 20
-2.728111
 30
0.0
 40
0.33866
100
AcDbArc
 50
114.386199
 51
164.377425
  0
ARC
  5
144
330
6B
100
AcDbEntity
  8
0
 62
     3
100
AcDbCircle
 10
96.742516
 20
-2.545708999999999
 30
0.0
 40
0.33866
100
AcDbArc
 50
195.622575
 51
245.613801
  0
LINE
  5
145
330
6B
100
AcDbEntity
  8
0
 62
     3
100
AcDbLine
 10
46.06839899999999
 20
-3.818159999999997
 30
0.0
 11
45.663399
 21
-3.818159999999997
 31
0.0
  0
LINE
  5
146
330
6B
100
AcDbEntity
  8
0
 62
     3
100
AcDbLine
 10
45.663399
 20
-1.455659999999999
 30
0.0
 11
46.06839899999999
 21
-1.455659999999999
 31
0.0
  0
LINE
  5
147
330
6B
100
AcDbEntity
  8
0
 62
     3
100
AcDbLine
 10
45.663399
 20
-3.818159999999997
 30
0.0
 11
45.612774
 21
-3.767534999999998
 31
0.0
  0
LINE
  5
148
330
6B
100
AcDbEntity
  8
0
 62
     3
100
AcDbLine
 10
46.06839899999999
 20
-3.818159999999997
 30
0.0
 11
46.11902399999999
 21
-3.767534999999998
 31
0.0
  0
LINE
  5
149
330
6B
100
AcDbEntity
  8
0
 62
     3
100
AcDbLine
 10
46.11902399999999
 20
-1.506285
 30
0.0
 11
46.06839899999999
 21
-1.455659999999999
 31
0.0
  0
LINE
  5
14A
330
6B
100
AcDbEntity
  8
0
 62
     3
100
AcDbLine
 10
45.612774
 20
-1.506285
 30
0.0
 11
45.663399
 21
-1.455659999999999
 31
0.0
  0
LINE
  5
14B
330
6B
100
AcDbEntity
  8
0
 62
     3
100
AcDbLine
 10
44.85339899999998
 20
15.58809
 30
0.0
 11
44.85339899999998
 21
16.09434
 31
0.0
  0
LINE
  5
14C
330
6B
100
AcDbEntity
  8
0
 62
     3
100
AcDbLine
 10
44.85339899999998
 20
12.88809
 30
0.0
 11
44.85339899999998
 21
15.58809
 31
0.0
  0
LINE
  5
14D
330
6B
100
AcDbEntity
  8
0
 62
     3
100
AcDbLine
 10
44.85339899999998
 20
12.88809
 30
0.0
 11
44.85339899999998
 21
-3.986909999999998
 31
0.0
  0
LINE
  5
14E
330
6B
100
AcDbEntity
  8
0
 62
     3
100
AcDbLine
 10
45.612774
 20
-1.506285
 30
0.0
 11
45.612774
 21
16.09434
 31
0.0
  0
LINE
  5
14F
330
6B
100
AcDbEntity
  8
0
 62
     3
100
AcDbLine
 10
45.612774
 20
-3.767534999999998
 30
0.0
 11
45.612774
 21
-1.506285
 31
0.0
  0
LINE
  5
150
330
6B
100
AcDbEntity
  8
0
 62
     3
100
AcDbLine
 10
45.612774
 20
-3.767534999999998
 30
0.0
 11
45.612774
 21
-3.986909999999998
 31
0.0
  0
ARC
  5
151
330
6B
100
AcDbEntity
  8
0
 62
     3
100
AcDbCircle
 10
-86.29892599999998
 20
14.23809
 30
0.0
 40
4.21875
100
AcDbArc
 50
49.46419800000001
 51
130.535802
  0
ARC
  5
152
330
6B
100
AcDbEntity
  8
0
 62
     3
100
AcDbCircle
 10
-86.29892599999998
 20
14.23809
 30
0.0
 40
4.21875
100
AcDbArc
 50
229.464198
 51
310.535802
  0
LINE
  5
153
330
6B
100
AcDbEntity
  8
0
 62
     3
100
AcDbLine
 10
36.550899
 20
37.01934
 30
0.0
 11
36.550899
 21
34.968214
 31
0.0
  0
ARC
  5
154
330
6B
100
AcDbEntity
  8
0
 62
     3
100
AcDbCircle
 10
-86.29892599999998
 20
14.23809
 30
0.0
 40
25.65
100
AcDbArc
 50
323.385384
 51
52.968446
  0
ARC
  5
155
330
6B
100
AcDbEntity
  8
0
 62
     3
100
AcDbCircle
 10
-86.29892599999998
 20
14.23809
 30
0.0
 40
25.65
100
AcDbArc
 50
58.733825
 51
86.06924499999998
  0
TEXT
  5
156
330
6B
100
AcDbEntity
  8
0
 62
     3
100
AcDbText
 10
101.039439
 20
-78.718173
 30
0.0
 40
3.2
  1
1998.11.26
  7
高3.2
100
AcDbText
  0
LINE
  5
157
330
6B
100
AcDbEntity
  8
0
 62
     3
100
AcDbLine
 10
-17.90535
 20
-12.239608
 30
0.0
 11
-17.90535
 21
40.715789
 31
0.0
  0
LINE
  5
158
330
6B
100
AcDbEntity
  8
0
 62
     3
100
AcDbLine
 10
37.142148
 20
-12.239608
 30
0.0
 11
37.142148
 21
40.715789
 31
0.0
  0
LINE
  5
159
330
6B
100
AcDbEntity
  8
0
 62
     3
100
AcDbLine
 10
34.593399
 20
-0.8650349999999999
 30
0.0
 11
34.593399
 21
30.31244
 31
0.0
  0
LINE
  5
15A
330
6B
100
AcDbEntity
  8
0
 62
     3
100
AcDbLine
 10
-15.356601
 20
29.341215
 30
0.0
 11
-15.356601
 21
-0.8650349999999999
 31
0.0
  0
LINE
  5
15B
330
6B
100
AcDbEntity
  8
0
 62
     3
100
AcDbLine
 10
-19.237851
 20
16.76934
 30
0.0
 11
-19.237851
 21
11.70684
 31
0.0
  0
LINE
  5
15C
330
6B
100
AcDbEntity
  8
0
 62
     3
100
AcDbLine
 10
38.474649
 20
16.76934
 30
0.0
 11
38.474649
 21
11.70684
 31
0.0
  0
LWPOLYLINE
  5
15D
330
6B
100
AcDbEntity
  8
0
 62
     7
100
AcDbPolyline
 90
        2
 70
     1
 43
0.3375
 10
-19.147264
 20
50.31878599999998
 42
1.0
 10
-19.484764
 20
50.31878599999998
 42
1.0
  0
LINE
  5
161
330
6B
100
AcDbEntity
  8
0
 62
     7
100
AcDbLine
 10
-19.316014
 20
50.31878599999998
 30
0.0
 11
-22.38003852696398
 21
55.45946285978518
 31
0.0
  0
CIRCLE
  5
162
330
6B
100
AcDbEntity
  8
0
 62
     7
100
AcDbCircle
 10
-24.427996
 20
58.89543
 30
0.0
 40
4.0
  0
TEXT
  5
163
330
6B
100
AcDbEntity
  8
0
 62
     4
100
AcDbText
 10
-25.07888781032728
 20
56.66188327458081
 30
0.0
 40
4.5
  1
1
  7
高4.5
100
AcDbText
  0
LWPOLYLINE
  5
164
330
6B
100
AcDbEntity
  8
0
 62
     7
100
AcDbPolyline
 90
        2
 70
     1
 43
0.3375
 10
-18.385197
 20
41.165886
 42
1.0
 10
-18.722697
 20
41.165886
 42
1.0
  0
LINE
  5
168
330
6B
100
AcDbEntity
  8
0
 62
     7
100
AcDbLine
 10
-18.553947
 20
41.165886
 30
0.0
 11
-12.41531858034431
 21
55.22944476910854
 31
0.0
  0
CIRCLE
  5
169
330
6B
100
AcDbEntity
  8
0
 62
     7
100
AcDbCircle
 10
-10.815146
 20
58.89543
 30
0.0
 40
4.0
  0
TEXT
  5
16A
330
6B
100
AcDbEntity
  8
0
 62
     4
100
AcDbText
 10
-12.30045843636241
 20
56.49412184973488
 30
0.0
 40
4.5
  1
2
  7
高4.5
100
AcDbText
  0
LWPOLYLINE
  5
16B
330
6B
100
AcDbEntity
  8
0
 62
     7
100
AcDbPolyline
 90
        2
 70
     1
 43
0.3375
 10
-9.708992
 20
28.096907
 42
1.0
 10
-10.046492
 20
28.096907
 42
1.0
  0
LINE
  5
16F
330
6B
100
AcDbEntity
  8
0
 62
     7
100
AcDbLine
 10
-9.877742
 20
28.096907
 30
0.0
 11
1.254542329034062
 21
55.09252602470059
 31
0.0
  0
CIRCLE
  5
170
330
6B
100
AcDbEntity
  8
0
 62
     7
100
AcDbCircle
 10
2.779466999999999
 20
58.790445
 30
0.0
 40
4.0
  0
TEXT
  5
171
330
6B
100
AcDbEntity
  8
0
 62
     4
100
AcDbText
 10
1.294154563637581
 20
56.38913784973489
 30
0.0
 40
4.5
  1
3
  7
高4.5
100
AcDbText
  0
ARC
  5
172
330
6B
100
AcDbEntity
  8
0
 62
     3
100
AcDbCircle
 10
-86.29892599999998
 20
14.23809
 30
0.0
 40
27.0
100
AcDbArc
 50
321.831014
 51
53.68329799999999
  0
ARC
  5
173
330
6B
100
AcDbEntity
  8
0
 62
     3
100
AcDbCircle
 10
-86.29892599999998
 20
14.23809
 30
0.0
 40
27.0
100
AcDbArc
 50
224.403999
 51
315.596001
  0
ARC
  5
174
330
6B
100
AcDbEntity
  8
0
 62
     3
100
AcDbCircle
 10
-86.29892599999998
 20
14.23809
 30
0.0
 40
27.0
100
AcDbArc
 50
93.858628
 51
218.168986
  0
LINE
  5
175
330
6B
100
AcDbEntity
  8
0
 62
     3
100
AcDbLine
 10
-79.25931899999998
 20
28.359833
 30
0.0
 11
-89.470396
 21
50.532456
 31
0.0
  0
ARC
  5
176
330
6B
100
AcDbEntity
  8
0
 62
     3
100
AcDbCircle
 10
-86.29892599999998
 20
14.23809
 30
0.0
 40
27.0
100
AcDbArc
 50
59.149809
 51
87.62361499999999
  0
LINE
  5
177
330
6B
100
AcDbEntity
  8
0
 62
     3
100
AcDbLine
 10
-76.009506
 20
29.672843
 30
0.0
 11
-82.09938199999998
 21
27.212373
 31
0.0
  0
LINE
  5
178
330
6B
100
AcDbEntity
  8
0
 62
     3
100
AcDbLine
 10
-74.413195
 20
27.587753
 30
0.0
 11
-81.15115899999996
 21
24.865439
 31
0.0
  0
ARC
  5
179
330
6B
100
AcDbEntity
  8
0
 62
     3
100
AcDbCircle
 10
-75.045343
 20
29.152376
 30
0.0
 40
1.6875
100
AcDbArc
 50
292.0
 51
336.9999999999999
  0
LINE
  5
17A
330
6B
100
AcDbEntity
  8
0
 62
     3
100
AcDbLine
 10
-73.49199099999998
 20
28.493017
 30
0.0
 11
-70.002002
 21
36.714917
 31
0.0
  0
LINE
  5
17B
330
6B
100
AcDbEntity
  8
0
 62
     3
100
AcDbLine
 10
-75.54890400000002
 20
30.125475
 30
0.0
 11
-72.33203
 21
37.703955
 31
0.0
  0
LINE
  5
17C
330
6B
100
AcDbEntity
  8
0
 62
     3
100
AcDbLine
 10
-70.002002
 20
36.714917
 30
0.0
 11
-72.33203
 21
37.703955
 31
0.0
  0
LINE
  5
17D
330
6B
100
AcDbEntity
  8
0
 62
     3
100
AcDbLine
 10
42.625899
 20
12.88809
 30
0.0
 11
44.85339899999998
 21
12.88809
 31
0.0
  0
LINE
  5
17E
330
6B
100
AcDbEntity
  8
0
 62
     3
100
AcDbLine
 10
42.625899
 20
15.58809
 30
0.0
 11
44.85339899999998
 21
15.58809
 31
0.0
  0
LINE
  5
17F
330
6B
100
AcDbEntity
  8
0
 62
     3
100
AcDbLine
 10
39.942774
 20
11.70684
 30
0.0
 11
38.474649
 21
11.70684
 31
0.0
  0
LINE
  5
180
330
6B
100
AcDbEntity
  8
0
 62
     3
100
AcDbLine
 10
39.942774
 20
16.76934
 30
0.0
 11
38.474649
 21
16.76934
 31
0.0
  0
ARC
  5
181
330
6B
100
AcDbEntity
  8
0
 62
     3
100
AcDbCircle
 10
47.004258
 20
14.23809
 30
0.0
 40
1.224140999999999
100
AcDbArc
 50
278.585272
 51
81.414728
  0
LINE
  5
182
330
6B
100
AcDbEntity
  8
0
 62
     3
100
AcDbLine
 10
56.150675
 20
-4.483992999999999
 30
0.0
 11
48.65027399999998
 21
-4.324409999999998
 31
0.0
  0
LINE
  5
183
330
6B
100
AcDbEntity
  8
0
 62
     3
100
AcDbLine
 10
56.150675
 20
-0.7898270000000001
 30
0.0
 11
48.65027399999998
 21
-0.9494099999999999
 31
0.0
  0
ARC
  5
184
330
6B
100
AcDbEntity
  8
0
 62
     3
100
AcDbCircle
 10
94.960724
 20
14.23809
 30
0.0
 40
27.0
100
AcDbArc
 50
224.403999
 51
315.596001
  0
ARC
  5
185
330
6B
100
AcDbEntity
  8
0
 62
     3
100
AcDbCircle
 10
94.960724
 20
14.23809
 30
0.0
 40
4.21875
100
AcDbArc
 50
49.46419800000001
 51
130.535802
  0
ARC
  5
186
330
6B
100
AcDbEntity
  8
0
 62
     3
100
AcDbCircle
 10
94.960724
 20
14.23809
 30
0.0
 40
4.21875
100
AcDbArc
 50
294.38475
 51
310.535802
  0
ARC
  5
187
330
6B
100
AcDbEntity
  8
0
 62
     3
100
AcDbCircle
 10
94.960724
 20
14.23809
 30
0.0
 40
4.21875
100
AcDbArc
 50
229.464198
 51
245.61525
  0
TEXT
  5
188
330
6B
100
AcDbEntity
  8
0
 62
     3
100
AcDbText
 10
94.66125529598251
 20
-88.90568899999998
 30
0.0
 40
6.299999999999998
  1
NDH-00
  7
高6.3
100
AcDbText
  0
TEXT
  5
189
330
6B
100
AcDbEntity
  8
0
 62
     3
100
AcDbText
 10
52.59119163666422
 20
-57.54645
 30
0.0
 40
4.5
  1
空リール
  7
高4.5
100
AcDbText
  0
TEXT
  5
18D
330
6B
100
AcDbEntity
  8
0
 62
     3
100
AcDbText
 10
49.60473691094922
 20
-64.889896
 30
0.0
 40
4.5
  1
NDH-00
  7
高4.5
100
AcDbText
  0
LINE
  5
18E
330
6B
100
AcDbEntity
  8
0
 62
     3
100
AcDbLine
 10
107.026349
 20
11.03184
 30
0.0
 11
96.721579
 21
11.03184
 31
0.0
  0
ARC
  5
18F
330
6B
100
AcDbEntity
  8
0
 62
     3
100
AcDbCircle
 10
34.880274
 20
43.617465
 30
0.0
 40
5.0625
100
AcDbArc
 50
89.395257
 51
90.0
  0
ARC
  5
190
330
6B
100
AcDbEntity
  8
0
 62
     3
100
AcDbCircle
 10
-113.28795
 20
-18.163655
 30
0.0
 40
1.341562999999998
100
AcDbArc
 50
153.045371
 51
337.5000000000001
  0
ARC
  5
191
330
6B
100
AcDbEntity
  8
0
 62
     3
100
AcDbCircle
 10
-59.326802
 20
-18.126958
 30
0.0
 40
1.341562999999998
100
AcDbArc
 50
202.5
 51
22.5
  0
ARC
  5
192
330
6B
100
AcDbEntity
  8
0
 62
     3
100
AcDbCircle
 10
-90.711712
 20
50.01828599999999
 30
0.0
 40
1.341562999999998
100
AcDbArc
 50
22.5
 51
202.5
  0
LINE
  5
193
330
6B
100
AcDbEntity
  8
0
 62
     3
100
AcDbLine
 10
-95.411426
 20
17.44434
 30
0.0
 11
-77.18642599999998
 21
17.44434
 31
0.0
  0
LINE
  5
194
330
6B
100
AcDbEntity
  8
0
 62
     3
100
AcDbLine
 10
-98.36455100000002
 20
11.03184
 30
0.0
 11
-74.233301
 21
11.03184
 31
0.0
  0
LINE
  5
195
330
6B
100
AcDbEntity
  8
0
 62
     3
100
AcDbLine
 10
-23.422851
 20
43.617465
 30
0.0
 11
-23.422851
 21
-11.766285
 31
0.0
  0
LINE
  5
196
330
6B
100
AcDbEntity
  8
0
 62
     3
100
AcDbLine
 10
-20.739726
 20
-11.766285
 30
0.0
 11
-20.739726
 21
43.617465
 31
0.0
  0
ARC
  5
197
330
6B
100
AcDbEntity
  8
0
 62
     3
100
AcDbCircle
 10
-15.677226
 20
-11.766285
 30
0.0
 40
5.0625
100
AcDbArc
 50
180.0
 51
270.0
  0
ARC
  5
198
330
6B
100
AcDbEntity
  8
0
 62
     3
100
AcDbCircle
 10
-15.677226
 20
-11.766285
 30
0.0
 40
7.745625
100
AcDbArc
 50
180.0
 51
270.0
  0
LINE
  5
199
330
6B
100
AcDbEntity
  8
0
 62
     3
100
AcDbLine
 10
35.715262
 20
-19.51191
 30
0.0
 11
-16.293488
 21
-19.51191
 31
0.0
  0
LINE
  5
19A
330
6B
100
AcDbEntity
  8
0
 62
     3
100
AcDbLine
 10
-16.293488
 20
-16.828785
 30
0.0
 11
35.715262
 21
-16.828785
 31
0.0
  0
ARC
  5
19B
330
6B
100
AcDbEntity
  8
0
 62
     3
100
AcDbCircle
 10
-15.677226
 20
43.617465
 30
0.0
 40
7.745625
100
AcDbArc
 50
90.0
 51
180.0
  0
ARC
  5
19C
330
6B
100
AcDbEntity
  8
0
 62
     3
100
AcDbCircle
 10
-15.677226
 20
43.617465
 30
0.0
 40
5.0625
100
AcDbArc
 50
90.0
 51
180.0
  0
LINE
  5
19D
330
6B
100
AcDbEntity
  8
0
 62
     3
100
AcDbLine
 10
34.258706
 20
48.679965
 30
0.0
 11
-16.293488
 21
48.679965
 31
0.0
  0
LINE
  5
19E
330
6B
100
AcDbEntity
  8
0
 62
     3
100
AcDbLine
 10
-16.293488
 20
51.36309
 30
0.0
 11
34.880274
 21
51.36309
 31
0.0
  0
ARC
  5
19F
330
6B
100
AcDbEntity
  8
0
 62
     3
100
AcDbCircle
 10
34.880274
 20
43.617465
 30
0.0
 40
7.745625
100
AcDbArc
 50
0.0
 51
90.0
  0
ARC
  5
1A0
330
6B
100
AcDbEntity
  8
0
 62
     3
100
AcDbCircle
 10
34.880274
 20
43.617465
 30
0.0
 40
5.0625
100
AcDbArc
 50
0.0
 51
89.395257
  0
LINE
  5
1A1
330
6B
100
AcDbEntity
  8
0
 62
     3
100
AcDbLine
 10
42.625899
 20
-11.766285
 30
0.0
 11
42.625899
 21
43.617465
 31
0.0
  0
LINE
  5
1A2
330
6B
100
AcDbEntity
  8
0
 62
     3
100
AcDbLine
 10
39.942774
 20
-11.766285
 30
0.0
 11
39.942774
 21
43.617465
 31
0.0
  0
ARC
  5
1A3
330
6B
100
AcDbEntity
  8
0
 62
     3
100
AcDbCircle
 10
34.880274
 20
-11.766285
 30
0.0
 40
5.0625
100
AcDbArc
 50
270.0
 51
0.0
  0
ARC
  5
1A4
330
6B
100
AcDbEntity
  8
0
 62
     3
100
AcDbCircle
 10
34.880274
 20
-11.766285
 30
0.0
 40
7.745625
100
AcDbArc
 50
270.0
 51
0.0
  0
ARC
  5
1A5
330
6B
100
AcDbEntity
  8
0
 62
     3
100
AcDbCircle
 10
67.9886
 20
-18.126958
 30
0.0
 40
1.341562999999998
100
AcDbArc
 50
157.5
 51
337.5000000000001
  0
ARC
  5
1A6
330
6B
100
AcDbEntity
  8
0
 62
     3
100
AcDbCircle
 10
121.949748
 20
-18.163655
 30
0.0
 40
1.341562999999998
100
AcDbArc
 50
202.5
 51
26.954629
  0
ARC
  5
1A7
330
6B
100
AcDbEntity
  8
0
 62
     3
100
AcDbCircle
 10
99.37351
 20
50.01828599999999
 30
0.0
 40
1.341562999999998
100
AcDbArc
 50
337.5000000000001
 51
157.5
  0
LINE
  5
1A8
330
6B
100
AcDbEntity
  8
0
 62
     3
100
AcDbLine
 10
93.199869
 20
11.03184
 30
0.0
 11
82.895099
 21
11.03184
 31
0.0
  0
LINE
  5
1A9
330
6B
100
AcDbEntity
  8
0
 62
     3
100
AcDbLine
 10
104.073224
 20
17.44434
 30
0.0
 11
85.848224
 21
17.44434
 31
0.0
  0
CIRCLE
  5
1AA
330
6B
100
AcDbEntity
  8
0
 62
     3
100
AcDbCircle
 10
-86.29892599999998
 20
14.23809
 30
0.0
 40
1.645312999999999
  0
LINE
  5
1AB
330
6B
100
AcDbEntity
  8
0
 62
     3
100
AcDbLine
 10
-138.5
 20
90.0
 30
0.0
 11
-138.5
 21
-90.0
 31
0.0
  0
LINE
  5
1AC
330
6B
100
AcDbEntity
  8
0
 62
     3
100
AcDbLine
 10
138.5
 20
-90.0
 30
0.0
 11
138.5
 21
90.0
 31
0.0
  0
LINE
  5
1AD
330
6B
100
AcDbEntity
  8
0
 62
     3
100
AcDbLine
 10
-138.5
 20
90.0
 30
0.0
 11
138.5
 21
90.0
 31
0.0
  0
ARC
  5
1AE
330
6B
100
AcDbEntity
  8
0
 62
     3
100
AcDbCircle
 10
-18.562851
 20
40.56309
 30
0.0
 40
0.675
100
AcDbArc
 50
32.125708
 51
180.0
  0
ARC
  5
1AF
330
6B
100
AcDbEntity
  8
0
 62
     3
100
AcDbCircle
 10
-41.065181
 20
29.531057
 30
0.0
 40
25.3125
100
AcDbArc
 50
18.849805
 51
24.198516
  0
LINE
  5
1B0
330
6B
100
AcDbEntity
  8
0
 62
     3
100
AcDbLine
 10
-16.892972
 20
34.617583
 30
0.0
 11
-17.314101
 21
34.968214
 31
0.0
  0
ARC
  5
1B1
330
6B
100
AcDbEntity
  8
0
 62
     3
100
AcDbCircle
 10
-17.108922
 20
34.358214
 30
0.0
 40
0.3375
100
AcDbArc
 50
14.985718
 51
50.21929199999999
  0
LINE
  5
1B2
330
6B
100
AcDbEntity
  8
0
 62
     3
100
AcDbLine
 10
-16.7829
 20
34.445484
 30
0.0
 11
-15.773185
 21
30.673415
 31
0.0
  0
LINE
  5
1B3
330
6B
100
AcDbEntity
  8
0
 62
     3
100
AcDbLine
 10
-15.414843
 20
30.362907
 30
0.0
 11
-15.773185
 21
30.673415
 31
0.0
  0
ARC
  5
1B4
330
6B
100
AcDbEntity
  8
0
 62
     3
100
AcDbCircle
 10
-15.525351
 20
30.235375
 30
0.0
 40
0.16875
100
AcDbArc
 50
0.0
 51
49.090661
  0
LINE
  5
1B5
330
6B
100
AcDbEntity
  8
0
 62
     3
100
AcDbLine
 10
-15.356601
 20
30.235375
 30
0.0
 11
-15.356601
 21
29.341215
 31
0.0
  0
LINE
  5
1B6
330
6B
100
AcDbEntity
  8
0
 62
     3
100
AcDbLine
 10
-15.356601
 20
-1.759195
 30
0.0
 11
-15.356601
 21
-0.8650349999999999
 31
0.0
  0
ARC
  5
1B7
330
6B
100
AcDbEntity
  8
0
 62
     3
100
AcDbCircle
 10
-15.525351
 20
-1.759195
 30
0.0
 40
0.16875
100
AcDbArc
 50
310.909339
 51
0.0
  0
LINE
  5
1B8
330
6B
100
AcDbEntity
  8
0
 62
     3
100
AcDbLine
 10
-15.414843
 20
-1.886727
 30
0.0
 11
-15.773185
 21
-2.197235
 31
0.0
  0
LINE
  5
1B9
330
6B
100
AcDbEntity
  8
0
 62
     3
100
AcDbLine
 10
-16.7829
 20
-5.969304
 30
0.0
 11
-15.773185
 21
-2.197235
 31
0.0
  0
ARC
  5
1BA
330
6B
100
AcDbEntity
  8
0
 62
     3
100
AcDbCircle
 10
-17.108922
 20
-5.882033999999999
 30
0.0
 40
0.3375
100
AcDbArc
 50
309.780708
 51
345.0142819999999
  0
LINE
  5
1BB
330
6B
100
AcDbEntity
  8
0
 62
     3
100
AcDbLine
 10
-16.892972
 20
-6.141402999999997
 30
0.0
 11
-17.314101
 21
-6.492033999999997
 31
0.0
  0
LINE
  5
1BC
330
6B
100
AcDbEntity
  8
0
 62
     3
100
AcDbLine
 10
-17.314101
 20
-8.54316
 30
0.0
 11
-17.314101
 21
-6.492033999999997
 31
0.0
  0
LINE
  5
1BD
330
6B
100
AcDbEntity
  8
0
 62
     3
100
AcDbLine
 10
-17.139202
 20
-8.871785
 30
0.0
 11
-17.314101
 21
-8.54316
 31
0.0
  0
ARC
  5
1BE
330
6B
100
AcDbEntity
  8
0
 62
     3
100
AcDbCircle
 10
-17.541411
 20
-9.085846
 30
0.0
 40
0.4556250000000003
100
AcDbArc
 50
341.150195
 51
28.022574
  0
ARC
  5
1BF
330
6B
100
AcDbEntity
  8
0
 62
     3
100
AcDbCircle
 10
-41.065181
 20
-1.054877
 30
0.0
 40
25.3125
100
AcDbArc
 50
336.1995220000001
 51
341.150195
  0
ARC
  5
1C0
330
6B
100
AcDbEntity
  8
0
 62
     3
100
AcDbCircle
 10
-18.466067
 20
-12.147683
 30
0.0
 40
0.560718
100
AcDbArc
 50
327.874292
 51
0.0
  0
ARC
  5
1C1
330
6B
100
AcDbEntity
  8
0
 62
     3
100
AcDbCircle
 10
-18.562851
 20
-12.08691
 30
0.0
 40
0.675
100
AcDbArc
 50
180.0
 51
327.874292
  0
ARC
  5
1C2
330
6B
100
AcDbEntity
  8
0
 62
     3
100
AcDbCircle
 10
34.762149
 20
30.235375
 30
0.0
 40
0.16875
100
AcDbArc
 50
130.909339
 51
180.0
  0
LINE
  5
1C3
330
6B
100
AcDbEntity
  8
0
 62
     3
100
AcDbLine
 10
34.651641
 20
30.362907
 30
0.0
 11
35.009983
 21
30.673415
 31
0.0
  0
LINE
  5
1C4
330
6B
100
AcDbEntity
  8
0
 62
     3
100
AcDbLine
 10
36.019698
 20
34.445484
 30
0.0
 11
35.009983
 21
30.673415
 31
0.0
  0
ARC
  5
1C5
330
6B
100
AcDbEntity
  8
0
 62
     3
100
AcDbCircle
 10
36.34572
 20
34.358214
 30
0.0
 40
0.3375
100
AcDbArc
 50
129.780708
 51
165.014282
  0
LINE
  5
1C6
330
6B
100
AcDbEntity
  8
0
 62
     3
100
AcDbLine
 10
36.12977
 20
34.617583
 30
0.0
 11
36.550899
 21
34.968214
 31
0.0
  0
ARC
  5
1C7
330
6B
100
AcDbEntity
  8
0
 62
     3
100
AcDbCircle
 10
60.301979
 20
29.531057
 30
0.0
 40
25.3125
100
AcDbArc
 50
156.199522
 51
161.150195
  0
ARC
  5
1C8
330
6B
100
AcDbEntity
  8
0
 62
     3
100
AcDbCircle
 10
37.799649
 20
40.56309
 30
0.0
 40
0.675
100
AcDbArc
 50
0.0
 51
147.874292
  0
ARC
  5
1C9
330
6B
100
AcDbEntity
  8
0
 62
     3
100
AcDbCircle
 10
37.702865
 20
40.623863
 30
0.0
 40
0.560718
100
AcDbArc
 50
147.874292
 51
180.0
  0
LINE
  5
1CA
330
6B
100
AcDbEntity
  8
0
 62
     3
100
AcDbLine
 10
36.019698
 20
-5.969304
 30
0.0
 11
35.009983
 21
-2.197235
 31
0.0
  0
ARC
  5
1CB
330
6B
100
AcDbEntity
  8
0
 62
     3
100
AcDbCircle
 10
36.34572
 20
-5.882033999999999
 30
0.0
 40
0.3375
100
AcDbArc
 50
194.985718
 51
230.2192919999999
  0
LINE
  5
1CC
330
6B
100
AcDbEntity
  8
0
 62
     3
100
AcDbLine
 10
36.12977
 20
-6.141402999999997
 30
0.0
 11
36.550899
 21
-6.492033999999997
 31
0.0
  0
LINE
  5
1CD
330
6B
100
AcDbEntity
  8
0
 62
     3
100
AcDbLine
 10
36.550899
 20
-8.54316
 30
0.0
 11
36.550899
 21
-6.492033999999997
 31
0.0
  0
LINE
  5
1CE
330
6B
100
AcDbEntity
  8
0
 62
     3
100
AcDbLine
 10
36.376
 20
-8.871785
 30
0.0
 11
36.550899
 21
-8.54316
 31
0.0
  0
ARC
  5
1CF
330
6B
100
AcDbEntity
  8
0
 62
     3
100
AcDbCircle
 10
36.778209
 20
-9.085846
 30
0.0
 40
0.4556250000000003
100
AcDbArc
 50
151.977426
 51
198.849805
  0
ARC
  5
1D0
330
6B
100
AcDbEntity
  8
0
 62
     3
100
AcDbCircle
 10
60.301979
 20
-1.054877
 30
0.0
 40
25.3125
100
AcDbArc
 50
198.849805
 51
203.800478
  0
ARC
  5
1D1
330
6B
100
AcDbEntity
  8
0
 62
     3
100
AcDbCircle
 10
37.702865
 20
-12.147683
 30
0.0
 40
0.560718
100
AcDbArc
 50
180.0
 51
212.125708
  0
ARC
  5
1D2
330
6B
100
AcDbEntity
  8
0
 62
     3
100
AcDbCircle
 10
37.799649
 20
-12.08691
 30
0.0
 40
0.675
100
AcDbArc
 50
212.125708
 51
0.0
  0
LINE
  5
1D3
330
6B
100
AcDbEntity
  8
0
 62
     3
100
AcDbLine
 10
38.474649
 20
-12.08691
 30
0.0
 11
38.474649
 21
11.70684
 31
0.0
  0
LINE
  5
1D4
330
6B
100
AcDbEntity
  8
0
 62
     3
100
AcDbLine
 10
-19.237851
 20
-12.08691
 30
0.0
 11
-19.237851
 21
11.70684
 31
0.0
  0
LINE
  5
1D5
330
6B
100
AcDbEntity
  8
0
 62
     3
100
AcDbLine
 10
-19.237851
 20
40.56309
 30
0.0
 11
-19.237851
 21
16.76934
 31
0.0
  0
LINE
  5
1D6
330
6B
100
AcDbEntity
  8
0
 62
     3
100
AcDbLine
 10
38.474649
 20
40.56309
 30
0.0
 11
38.474649
 21
16.76934
 31
0.0
  0
LINE
  5
1D7
330
6B
100
AcDbEntity
  8
0
 62
     3
100
AcDbLine
 10
34.651641
 20
-1.886727
 30
0.0
 11
35.009983
 21
-2.197235
 31
0.0
  0
ARC
  5
1D8
330
6B
100
AcDbEntity
  8
0
 62
     3
100
AcDbCircle
 10
34.762149
 20
-1.759195
 30
0.0
 40
0.16875
100
AcDbArc
 50
180.0
 51
229.090661
  0
LINE
  5
1D9
330
6B
100
AcDbEntity
  8
0
 62
     3
100
AcDbLine
 10
34.593399
 20
-1.759195
 30
0.0
 11
34.593399
 21
-0.8650349999999999
 31
0.0
  0
LINE
  5
1DA
330
6B
100
AcDbEntity
  8
0
 62
     3
100
AcDbLine
 10
-82.09938199999998
 20
27.212373
 30
0.0
 11
-81.15115899999996
 21
24.865439
 31
0.0
  0
LINE
  5
1DB
330
6B
100
AcDbEntity
  8
0
 62
     3
100
AcDbLine
 10
138.5
 20
-90.0
 30
0.0
 11
-138.5
 21
-90.0
 31
0.0
  0
LINE
  5
1E3
330
6B
100
AcDbEntity
  8
0
 62
     3
100
AcDbLine
 10
100.713755
 20
49.512425
 30
0.0
 11
100.615889
 21
49.512425
 31
0.0
  0
ARC
  5
1E4
330
6B
100
AcDbEntity
  8
0
 62
     3
100
AcDbCircle
 10
-76.32558
 20
30.455154
 30
0.0
 40
0.84375
100
AcDbArc
 50
292.0
 51
336.9999999999999
  0
ARC
  5
1E5
330
6B
100
AcDbEntity
  8
0
 62
     7
100
AcDbCircle
 10
-98.58133000000002
 20
28.875689
 30
0.0
 40
1.012499999999999
100
AcDbArc
 50
40.0
 51
220.0
  0
LINE
  5
1E6
330
6B
100
AcDbEntity
  8
0
 62
     7
100
AcDbLine
 10
-99.35695
 20
28.224866
 30
0.0
 11
-98.489187
 21
27.190706
 31
0.0
  0
ARC
  5
1E7
330
6B
100
AcDbEntity
  8
0
 62
     7
100
AcDbCircle
 10
-97.713567
 20
27.841529
 30
0.0
 40
1.012499999999999
100
AcDbArc
 50
220.0
 51
40.0
  0
LINE
  5
1E8
330
6B
100
AcDbEntity
  8
0
 62
     7
100
AcDbLine
 10
-97.80571
 20
29.526511
 30
0.0
 11
-96.937947
 21
28.492351
 31
0.0
  0
ARC
  5
1E9
330
6B
100
AcDbEntity
  8
0
 62
     7
100
AcDbCircle
 10
-99.902365
 20
25.652731
 30
0.0
 40
1.012499999999999
100
AcDbArc
 50
230.0
 51
50.0
  0
LINE
  5
1EA
330
6B
100
AcDbEntity
  8
0
 62
     7
100
AcDbLine
 10
-100.285703
 20
27.296114
 30
0.0
 11
-99.251543
 21
26.428351
 31
0.0
  0
ARC
  5
1EB
330
6B
100
AcDbEntity
  8
0
 62
     7
100
AcDbCircle
 10
-100.936525
 20
26.520494
 30
0.0
 40
1.012499999999999
100
AcDbArc
 50
50.0
 51
230.0
  0
LINE
  5
1EC
330
6B
100
AcDbEntity
  8
0
 62
     7
100
AcDbLine
 10
-101.587348
 20
25.744874
 30
0.0
 11
-100.553188
 21
24.877111
 31
0.0
  0
ARC
  5
1ED
330
6B
100
AcDbEntity
  8
0
 62
     7
100
AcDbCircle
 10
-101.67783
 20
23.117104
 30
0.0
 40
1.012499999999999
100
AcDbArc
 50
240.0
 51
60.0
  0
LINE
  5
1EE
330
6B
100
AcDbEntity
  8
0
 62
     7
100
AcDbLine
 10
-102.340714
 20
24.668955
 30
0.0
 11
-101.17158
 21
23.993955
 31
0.0
  0
ARC
  5
1EF
330
6B
100
AcDbEntity
  8
0
 62
     7
100
AcDbCircle
 10
-102.846964
 20
23.792104
 30
0.0
 40
1.012499999999999
100
AcDbArc
 50
60.0
 51
240.0
  0
LINE
  5
1F0
330
6B
100
AcDbEntity
  8
0
 62
     7
100
AcDbLine
 10
-103.353214
 20
22.915253
 30
0.0
 11
-102.18408
 21
22.240253
 31
0.0
  0
ARC
  5
1F1
330
6B
100
AcDbEntity
  8
0
 62
     7
100
AcDbCircle
 10
-102.986014
 20
20.311693
 30
0.0
 40
1.012499999999999
100
AcDbArc
 50
250.0
 51
70.0
  0
LINE
  5
1F2
330
6B
100
AcDbEntity
  8
0
 62
     7
100
AcDbLine
 10
-103.908304
 20
21.724859
 30
0.0
 11
-102.639719
 21
21.263132
 31
0.0
  0
ARC
  5
1F3
330
6B
100
AcDbEntity
  8
0
 62
     7
100
AcDbCircle
 10
-104.254599
 20
20.773421
 30
0.0
 40
1.012499999999999
100
AcDbArc
 50
70.0
 51
250.0
  0
LINE
  5
1F4
330
6B
100
AcDbEntity
  8
0
 62
     7
100
AcDbLine
 10
-104.600895
 20
19.821982
 30
0.0
 11
-103.33231
 21
19.360255
 31
0.0
  0
ARC
  5
1F5
330
6B
100
AcDbEntity
  8
0
 62
     7
100
AcDbCircle
 10
-103.78717
 20
17.321739
 30
0.0
 40
1.012499999999999
100
AcDbArc
 50
260.0
 51
80.0
  0
LINE
  5
1F6
330
6B
100
AcDbEntity
  8
0
 62
     7
100
AcDbLine
 10
-104.940842
 20
18.553282
 30
0.0
 11
-103.611351
 21
18.318857
 31
0.0
  0
ARC
  5
1F7
330
6B
100
AcDbEntity
  8
0
 62
     7
100
AcDbCircle
 10
-105.116661
 20
17.556164
 30
0.0
 40
1.012499999999999
100
AcDbArc
 50
80.0
 51
260.0
  0
LINE
  5
1F8
330
6B
100
AcDbEntity
  8
0
 62
     7
100
AcDbLine
 10
-105.292479
 20
16.559046
 30
0.0
 11
-103.962989
 21
16.324621
 31
0.0
  0
ARC
  5
1F9
330
6B
100
AcDbEntity
  8
0
 62
     7
100
AcDbCircle
 10
-104.056955
 20
14.23809
 30
0.0
 40
1.012499999999999
100
AcDbArc
 50
270.0
 51
90.0
  0
LINE
  5
1FA
330
6B
100
AcDbEntity
  8
0
 62
     7
100
AcDbLine
 10
-105.406955
 20
15.25059
 30
0.0
 11
-104.056955
 21
15.25059
 31
0.0
  0
ARC
  5
1FB
330
6B
100
AcDbEntity
  8
0
 62
     7
100
AcDbCircle
 10
-105.406955
 20
14.23809
 30
0.0
 40
1.012499999999999
100
AcDbArc
 50
90.0
 51
270.0
  0
LINE
  5
1FC
330
6B
100
AcDbEntity
  8
0
 62
     7
100
AcDbLine
 10
-105.406955
 20
13.22559
 30
0.0
 11
-104.056955
 21
13.22559
 31
0.0
  0
ARC
  5
1FD
330
6B
100
AcDbEntity
  8
0
 62
     7
100
AcDbCircle
 10
-103.78717
 20
11.154441
 30
0.0
 40
1.012499999999999
100
AcDbArc
 50
280.0
 51
100.0
  0
LINE
  5
1FE
330
6B
100
AcDbEntity
  8
0
 62
     7
100
AcDbLine
 10
-105.292479
 20
11.917134
 30
0.0
 11
-103.962989
 21
12.151559
 31
0.0
  0
ARC
  5
1FF
330
6B
100
AcDbEntity
  8
0
 62
     7
100
AcDbCircle
 10
-105.116661
 20
10.920016
 30
0.0
 40
1.012499999999999
100
AcDbArc
 50
100.0
 51
280.0
  0
LINE
  5
200
330
6B
100
AcDbEntity
  8
0
 62
     7
100
AcDbLine
 10
-104.940842
 20
9.922897999999998
 30
0.0
 11
-103.611351
 21
10.157323
 31
0.0
  0
ARC
  5
201
330
6B
100
AcDbEntity
  8
0
 62
     7
100
AcDbCircle
 10
-102.986014
 20
8.164487
 30
0.0
 40
1.012499999999999
100
AcDbArc
 50
47.135964
 51
110.0
  0
LINE
  5
202
330
6B
100
AcDbEntity
  8
0
 62
     7
100
AcDbLine
 10
-104.600895
 20
8.654198
 30
0.0
 11
-103.33231
 21
9.115925
 31
0.0
  0
ARC
  5
203
330
6B
100
AcDbEntity
  8
0
 62
     7
100
AcDbCircle
 10
-104.254599
 20
7.702758999999997
 30
0.0
 40
1.012499999999999
100
AcDbArc
 50
110.0
 51
289.9999999999999
  0
LINE
  5
204
330
6B
100
AcDbEntity
  8
0
 62
     7
100
AcDbLine
 10
-103.908304
 20
6.751321
 30
0.0
 11
-103.165277
 21
7.02176
 31
0.0
  0
ARC
  5
205
330
6B
100
AcDbEntity
  8
0
 62
     7
100
AcDbCircle
 10
-101.67783
 20
5.359075999999999
 30
0.0
 40
1.012499999999999
100
AcDbArc
 50
300.0
 51
26.318149
  0
LINE
  5
206
330
6B
100
AcDbEntity
  8
0
 62
     7
100
AcDbLine
 10
-101.456605
 20
4.317666
 30
0.0
 11
-101.17158
 21
4.482224999999997
 31
0.0
  0
ARC
  5
207
330
6B
100
AcDbEntity
  8
0
 62
     7
100
AcDbCircle
 10
-99.902365
 20
2.823449
 30
0.0
 40
1.012499999999999
100
AcDbArc
 50
310.0
 51
130.0
  0
LINE
  5
208
330
6B
100
AcDbEntity
  8
0
 62
     7
100
AcDbLine
 10
-101.587348
 20
2.731306
 30
0.0
 11
-100.553188
 21
3.599069
 31
0.0
  0
ARC
  5
209
330
6B
100
AcDbEntity
  8
0
 62
     7
100
AcDbCircle
 10
-100.936525
 20
1.955686
 30
0.0
 40
1.012499999999999
100
AcDbArc
 50
130.0
 51
310.0
  0
LINE
  5
20A
330
6B
100
AcDbEntity
  8
0
 62
     7
100
AcDbLine
 10
-100.285703
 20
1.180066
 30
0.0
 11
-99.251543
 21
2.047829
 31
0.0
  0
ARC
  5
20B
330
6B
100
AcDbEntity
  8
0
 62
     7
100
AcDbCircle
 10
-97.713567
 20
0.6346510000000001
 30
0.0
 40
1.012499999999999
100
AcDbArc
 50
320.0
 51
140.0
  0
LINE
  5
20C
330
6B
100
AcDbEntity
  8
0
 62
     7
100
AcDbLine
 10
-99.35695
 20
0.251314
 30
0.0
 11
-98.489187
 21
1.285473999999998
 31
0.0
  0
ARC
  5
20D
330
6B
100
AcDbEntity
  8
0
 62
     7
100
AcDbCircle
 10
-98.58133000000002
 20
-0.399509
 30
0.0
 40
1.012499999999999
100
AcDbArc
 50
140.0
 51
320.0
  0
LINE
  5
20E
330
6B
100
AcDbEntity
  8
0
 62
     7
100
AcDbLine
 10
-97.80571
 20
-1.050330999999999
 30
0.0
 11
-96.937947
 21
-0.016171
 31
0.0
  0
ARC
  5
20F
330
6B
100
AcDbEntity
  8
0
 62
     7
100
AcDbCircle
 10
-69.611838
 20
8.164487
 30
0.0
 40
1.012499999999999
100
AcDbArc
 50
70.0
 51
132.864036
  0
LINE
  5
210
330
6B
100
AcDbEntity
  8
0
 62
     7
100
AcDbLine
 10
-67.99695799999999
 20
8.654198
 30
0.0
 11
-69.26554300000001
 21
9.115925
 31
0.0
  0
ARC
  5
211
330
6B
100
AcDbEntity
  8
0
 62
     7
100
AcDbCircle
 10
-68.343253
 20
7.702758999999997
 30
0.0
 40
1.012499999999999
100
AcDbArc
 50
250.0
 51
70.0
  0
LINE
  5
212
330
6B
100
AcDbEntity
  8
0
 62
     7
100
AcDbLine
 10
-68.689548
 20
6.751321
 30
0.0
 11
-69.432575
 21
7.02176
 31
0.0
  0
ARC
  5
213
330
6B
100
AcDbEntity
  8
0
 62
     7
100
AcDbCircle
 10
-70.920023
 20
5.359075999999999
 30
0.0
 40
1.012499999999999
100
AcDbArc
 50
153.681851
 51
240.0
  0
LINE
  5
214
330
6B
100
AcDbEntity
  8
0
 62
     7
100
AcDbLine
 10
-71.14124699999995
 20
4.317666
 30
0.0
 11
-71.426273
 21
4.482224999999997
 31
0.0
  0
ARC
  5
215
330
6B
100
AcDbEntity
  8
0
 62
     7
100
AcDbCircle
 10
-72.695487
 20
2.823449
 30
0.0
 40
1.012499999999999
100
AcDbArc
 50
50.0
 51
230.0
  0
LINE
  5
216
330
6B
100
AcDbEntity
  8
0
 62
     7
100
AcDbLine
 10
-71.01050500000002
 20
2.731306
 30
0.0
 11
-72.04466500000002
 21
3.599069
 31
0.0
  0
ARC
  5
217
330
6B
100
AcDbEntity
  8
0
 62
     7
100
AcDbCircle
 10
-71.661327
 20
1.955686
 30
0.0
 40
1.012499999999999
100
AcDbArc
 50
230.0
 51
50.0
  0
LINE
  5
218
330
6B
100
AcDbEntity
  8
0
 62
     7
100
AcDbLine
 10
-72.31215
 20
1.180066
 30
0.0
 11
-73.34631
 21
2.047829
 31
0.0
  0
ARC
  5
219
330
6B
100
AcDbEntity
  8
0
 62
     7
100
AcDbCircle
 10
-74.884286
 20
0.6346510000000001
 30
0.0
 40
1.012499999999999
100
AcDbArc
 50
40.0
 51
220.0
  0
ARC
  5
21A
330
6B
100
AcDbEntity
  8
0
 62
     7
100
AcDbCircle
 10
-74.016522
 20
-0.399509
 30
0.0
 40
1.012499999999999
100
AcDbArc
 50
220.0
 51
40.0
  0
LINE
  5
21B
330
6B
100
AcDbEntity
  8
0
 62
     7
100
AcDbLine
 10
-74.792142
 20
-1.050330999999999
 30
0.0
 11
-75.65990600000002
 21
-0.016171
 31
0.0
  0
LINE
  5
21C
330
6B
100
AcDbEntity
  8
0
 62
     7
100
AcDbLine
 10
-73.240902
 20
0.251314
 30
0.0
 11
-74.108666
 21
1.285473999999998
 31
0.0
  0
ARC
  5
21D
330
6B
100
AcDbEntity
  8
0
 62
     7
100
AcDbCircle
 10
-68.540898
 20
14.23809
 30
0.0
 40
1.012499999999999
100
AcDbArc
 50
90.0
 51
270.0
  0
LINE
  5
21E
330
6B
100
AcDbEntity
  8
0
 62
     7
100
AcDbLine
 10
-67.190898
 20
15.25059
 30
0.0
 11
-68.540898
 21
15.25059
 31
0.0
  0
LINE
  5
21F
330
6B
100
AcDbEntity
  8
0
 62
     7
100
AcDbLine
 10
-67.190898
 20
13.22559
 30
0.0
 11
-68.540898
 21
13.22559
 31
0.0
  0
ARC
  5
220
330
6B
100
AcDbEntity
  8
0
 62
     7
100
AcDbCircle
 10
-68.810682
 20
11.154441
 30
0.0
 40
1.012499999999999
100
AcDbArc
 50
80.0
 51
260.0
  0
LINE
  5
221
330
6B
100
AcDbEntity
  8
0
 62
     7
100
AcDbLine
 10
-67.305373
 20
11.917134
 30
0.0
 11
-68.63486400000001
 21
12.151559
 31
0.0
  0
ARC
  5
222
330
6B
100
AcDbEntity
  8
0
 62
     7
100
AcDbCircle
 10
-67.48119200000001
 20
10.920016
 30
0.0
 40
1.012499999999999
100
AcDbArc
 50
260.0
 51
80.0
  0
LINE
  5
223
330
6B
100
AcDbEntity
  8
0
 62
     7
100
AcDbLine
 10
-67.657011
 20
9.922897999999998
 30
0.0
 11
-68.986501
 21
10.157323
 31
0.0
  0
ARC
  5
224
330
6B
100
AcDbEntity
  8
0
 62
     7
100
AcDbCircle
 10
-67.190898
 20
14.23809
 30
0.0
 40
1.012499999999999
100
AcDbArc
 50
270.0
 51
90.0
  0
ARC
  5
225
330
6B
100
AcDbEntity
  8
0
 62
     7
100
AcDbCircle
 10
-69.611838
 20
20.311693
 30
0.0
 40
1.012499999999999
100
AcDbArc
 50
110.0
 51
289.9999999999999
  0
LINE
  5
226
330
6B
100
AcDbEntity
  8
0
 62
     7
100
AcDbLine
 10
-67.99695799999999
 20
19.821982
 30
0.0
 11
-69.26554300000001
 21
19.360255
 31
0.0
  0
ARC
  5
227
330
6B
100
AcDbEntity
  8
0
 62
     7
100
AcDbCircle
 10
-68.810682
 20
17.321739
 30
0.0
 40
1.012499999999999
100
AcDbArc
 50
100.0
 51
280.0
  0
LINE
  5
228
330
6B
100
AcDbEntity
  8
0
 62
     7
100
AcDbLine
 10
-67.657011
 20
18.553282
 30
0.0
 11
-68.986501
 21
18.318857
 31
0.0
  0
ARC
  5
229
330
6B
100
AcDbEntity
  8
0
 62
     7
100
AcDbCircle
 10
-67.48119200000001
 20
17.556164
 30
0.0
 40
1.012499999999999
100
AcDbArc
 50
280.0
 51
100.0
  0
LINE
  5
22A
330
6B
100
AcDbEntity
  8
0
 62
     7
100
AcDbLine
 10
-67.305373
 20
16.559046
 30
0.0
 11
-68.63486400000001
 21
16.324621
 31
0.0
  0
LINE
  5
22B
330
6B
100
AcDbEntity
  8
0
 62
     7
100
AcDbLine
 10
-69.244638
 20
22.915253
 30
0.0
 11
-70.41377299999996
 21
22.240253
 31
0.0
  0
LINE
  5
22C
330
6B
100
AcDbEntity
  8
0
 62
     7
100
AcDbLine
 10
-68.689548
 20
21.724859
 30
0.0
 11
-69.95813299999999
 21
21.263132
 31
0.0
  0
ARC
  5
22D
330
6B
100
AcDbEntity
  8
0
 62
     7
100
AcDbCircle
 10
-68.343253
 20
20.773421
 30
0.0
 40
1.012499999999999
100
AcDbArc
 50
289.9999999999999
 51
110.0
  0
LINE
  5
22E
330
6B
100
AcDbEntity
  8
0
 62
     7
100
AcDbLine
 10
-71.01050500000002
 20
25.744874
 30
0.0
 11
-72.04466500000002
 21
24.877111
 31
0.0
  0
ARC
  5
22F
330
6B
100
AcDbEntity
  8
0
 62
     7
100
AcDbCircle
 10
-70.920023
 20
23.117104
 30
0.0
 40
1.012499999999999
100
AcDbArc
 50
120.0
 51
300.0
  0
LINE
  5
230
330
6B
100
AcDbEntity
  8
0
 62
     7
100
AcDbLine
 10
-70.257138
 20
24.668955
 30
0.0
 11
-71.426273
 21
23.993955
 31
0.0
  0
ARC
  5
231
330
6B
100
AcDbEntity
  8
0
 62
     7
100
AcDbCircle
 10
-69.750888
 20
23.792104
 30
0.0
 40
1.012499999999999
100
AcDbArc
 50
300.0
 51
120.0
  0
LINE
  5
232
330
6B
100
AcDbEntity
  8
0
 62
     7
100
AcDbLine
 10
-73.240902
 20
28.224866
 30
0.0
 11
-74.108666
 21
27.190706
 31
0.0
  0
ARC
  5
233
330
6B
100
AcDbEntity
  8
0
 62
     7
100
AcDbCircle
 10
-72.695487
 20
25.652731
 30
0.0
 40
1.012499999999999
100
AcDbArc
 50
130.0
 51
310.0
  0
LINE
  5
234
330
6B
100
AcDbEntity
  8
0
 62
     7
100
AcDbLine
 10
-72.31215
 20
27.296114
 30
0.0
 11
-73.34631
 21
26.428351
 31
0.0
  0
ARC
  5
235
330
6B
100
AcDbEntity
  8
0
 62
     7
100
AcDbCircle
 10
-71.661327
 20
26.520494
 30
0.0
 40
1.012499999999999
100
AcDbArc
 50
310.0
 51
130.0
  0
ARC
  5
236
330
6B
100
AcDbEntity
  8
0
 62
     7
100
AcDbCircle
 10
-74.016522
 20
28.875689
 30
0.0
 40
1.012499999999999
100
AcDbArc
 50
320.0
 51
28.35095900000001
  0
ARC
  5
237
330
6B
100
AcDbEntity
  8
0
 62
     7
100
AcDbCircle
 10
-74.884286
 20
27.841529
 30
0.0
 40
1.012499999999999
100
AcDbArc
 50
225.996882
 51
320.0
  0
ARC
  5
238
330
6B
100
AcDbEntity
  8
0
 62
     7
100
AcDbCircle
 10
-95.85294
 20
30.786128
 30
0.0
 40
1.012499999999999
100
AcDbArc
 50
30.0
 51
210.0
  0
LINE
  5
239
330
6B
100
AcDbEntity
  8
0
 62
     7
100
AcDbLine
 10
-94.97609
 20
31.292378
 30
0.0
 11
-94.30108999999999
 21
30.123244
 31
0.0
  0
LINE
  5
23A
330
6B
100
AcDbEntity
  8
0
 62
     7
100
AcDbLine
 10
-96.729791
 20
30.279878
 30
0.0
 11
-96.054791
 21
29.110744
 31
0.0
  0
ARC
  5
23B
330
6B
100
AcDbEntity
  8
0
 62
     7
100
AcDbCircle
 10
-95.17794
 20
29.616994
 30
0.0
 40
1.012499999999999
100
AcDbArc
 50
210.0
 51
30.0
  0
ARC
  5
23C
330
6B
100
AcDbEntity
  8
0
 62
     7
100
AcDbCircle
 10
-76.744912
 20
30.786128
 30
0.0
 40
1.012499999999999
100
AcDbArc
 50
330.0
 51
150.0
  0
LINE
  5
23D
330
6B
100
AcDbEntity
  8
0
 62
     7
100
AcDbLine
 10
-77.621763
 20
31.292378
 30
0.0
 11
-78.296763
 21
30.123244
 31
0.0
  0
LINE
  5
23E
330
6B
100
AcDbEntity
  8
0
 62
     7
100
AcDbLine
 10
-75.868061
 20
30.279878
 30
0.0
 11
-76.28212600000002
 21
29.562697
 31
0.0
  0
ARC
  5
23F
330
6B
100
AcDbEntity
  8
0
 62
     7
100
AcDbCircle
 10
-77.419912
 20
29.616994
 30
0.0
 40
1.012499999999999
100
AcDbArc
 50
150.0
 51
230.078549
  0
ARC
  5
240
330
6B
100
AcDbEntity
  8
0
 62
     7
100
AcDbCircle
 10
-76.744912
 20
-2.309947999999999
 30
0.0
 40
1.012499999999999
100
AcDbArc
 50
210.0
 51
30.0
  0
LINE
  5
241
330
6B
100
AcDbEntity
  8
0
 62
     7
100
AcDbLine
 10
-77.621763
 20
-2.816197999999998
 30
0.0
 11
-78.296763
 21
-1.647063999999999
 31
0.0
  0
LINE
  5
242
330
6B
100
AcDbEntity
  8
0
 62
     7
100
AcDbLine
 10
-75.868061
 20
-1.803697999999999
 30
0.0
 11
-76.54306099999998
 21
-0.6345640000000003
 31
0.0
  0
ARC
  5
243
330
6B
100
AcDbEntity
  8
0
 62
     7
100
AcDbCircle
 10
-77.419912
 20
-1.140813999999997
 30
0.0
 40
1.012499999999999
100
AcDbArc
 50
30.0
 51
210.0
  0
ARC
  5
244
330
6B
100
AcDbEntity
  8
0
 62
     7
100
AcDbCircle
 10
-95.85294
 20
-2.309947999999999
 30
0.0
 40
1.012499999999999
100
AcDbArc
 50
150.0
 51
330.0
  0
LINE
  5
245
330
6B
100
AcDbEntity
  8
0
 62
     7
100
AcDbLine
 10
-94.97609
 20
-2.816197999999998
 30
0.0
 11
-94.30108999999999
 21
-1.647063999999999
 31
0.0
  0
LINE
  5
246
330
6B
100
AcDbEntity
  8
0
 62
     7
100
AcDbLine
 10
-96.729791
 20
-1.803697999999999
 30
0.0
 11
-96.054791
 21
-0.6345640000000003
 31
0.0
  0
ARC
  5
247
330
6B
100
AcDbEntity
  8
0
 62
     7
100
AcDbCircle
 10
-95.17794
 20
-1.140813999999997
 30
0.0
 40
1.012499999999999
100
AcDbArc
 50
330.0
 51
150.0
  0
ARC
  5
248
330
6B
100
AcDbEntity
  8
0
 62
     7
100
AcDbCircle
 10
107.243128
 20
28.875689
 30
0.0
 40
1.012499999999999
100
AcDbArc
 50
320.0
 51
140.0
  0
LINE
  5
249
330
6B
100
AcDbEntity
  8
0
 62
     7
100
AcDbLine
 10
108.018748
 20
28.224866
 30
0.0
 11
107.150985
 21
27.190706
 31
0.0
  0
ARC
  5
24A
330
6B
100
AcDbEntity
  8
0
 62
     7
100
AcDbCircle
 10
106.375365
 20
27.841529
 30
0.0
 40
1.012499999999999
100
AcDbArc
 50
140.0
 51
320.0
  0
LINE
  5
24B
330
6B
100
AcDbEntity
  8
0
 62
     7
100
AcDbLine
 10
106.467508
 20
29.526511
 30
0.0
 11
105.599745
 21
28.492351
 31
0.0
  0
ARC
  5
24C
330
6B
100
AcDbEntity
  8
0
 62
     7
100
AcDbCircle
 10
108.564163
 20
25.652731
 30
0.0
 40
1.012499999999999
100
AcDbArc
 50
130.0
 51
310.0
  0
LINE
  5
24D
330
6B
100
AcDbEntity
  8
0
 62
     7
100
AcDbLine
 10
108.947501
 20
27.296114
 30
0.0
 11
107.913341
 21
26.428351
 31
0.0
  0
ARC
  5
24E
330
6B
100
AcDbEntity
  8
0
 62
     7
100
AcDbCircle
 10
109.598323
 20
26.520494
 30
0.0
 40
1.012499999999999
100
AcDbArc
 50
310.0
 51
130.0
  0
LINE
  5
24F
330
6B
100
AcDbEntity
  8
0
 62
     7
100
AcDbLine
 10
110.249146
 20
25.744874
 30
0.0
 11
109.214986
 21
24.877111
 31
0.0
  0
ARC
  5
250
330
6B
100
AcDbEntity
  8
0
 62
     7
100
AcDbCircle
 10
110.339628
 20
23.117104
 30
0.0
 40
1.012499999999999
100
AcDbArc
 50
120.0
 51
300.0
  0
LINE
  5
251
330
6B
100
AcDbEntity
  8
0
 62
     7
100
AcDbLine
 10
111.002512
 20
24.668955
 30
0.0
 11
109.833378
 21
23.993955
 31
0.0
  0
ARC
  5
252
330
6B
100
AcDbEntity
  8
0
 62
     7
100
AcDbCircle
 10
111.508762
 20
23.792104
 30
0.0
 40
1.012499999999999
100
AcDbArc
 50
300.0
 51
120.0
  0
LINE
  5
253
330
6B
100
AcDbEntity
  8
0
 62
     7
100
AcDbLine
 10
112.015012
 20
22.915253
 30
0.0
 11
110.845878
 21
22.240253
 31
0.0
  0
ARC
  5
254
330
6B
100
AcDbEntity
  8
0
 62
     7
100
AcDbCircle
 10
111.647812
 20
20.311693
 30
0.0
 40
1.012499999999999
100
AcDbArc
 50
110.0
 51
289.9999999999999
  0
LINE
  5
255
330
6B
100
AcDbEntity
  8
0
 62
     7
100
AcDbLine
 10
112.570102
 20
21.724859
 30
0.0
 11
111.301517
 21
21.263132
 31
0.0
  0
ARC
  5
256
330
6B
100
AcDbEntity
  8
0
 62
     7
100
AcDbCircle
 10
112.916397
 20
20.773421
 30
0.0
 40
1.012499999999999
100
AcDbArc
 50
289.9999999999999
 51
110.0
  0
LINE
  5
257
330
6B
100
AcDbEntity
  8
0
 62
     7
100
AcDbLine
 10
113.262693
 20
19.821982
 30
0.0
 11
111.994108
 21
19.360255
 31
0.0
  0
ARC
  5
258
330
6B
100
AcDbEntity
  8
0
 62
     7
100
AcDbCircle
 10
112.448968
 20
17.321739
 30
0.0
 40
1.012499999999999
100
AcDbArc
 50
100.0
 51
280.0
  0
LINE
  5
259
330
6B
100
AcDbEntity
  8
0
 62
     7
100
AcDbLine
 10
113.60264
 20
18.553282
 30
0.0
 11
112.273149
 21
18.318857
 31
0.0
  0
ARC
  5
25A
330
6B
100
AcDbEntity
  8
0
 62
     7
100
AcDbCircle
 10
113.778459
 20
17.556164
 30
0.0
 40
1.012499999999999
100
AcDbArc
 50
280.0
 51
100.0
  0
LINE
  5
25B
330
6B
100
AcDbEntity
  8
0
 62
     7
100
AcDbLine
 10
113.954277
 20
16.559046
 30
0.0
 11
112.624787
 21
16.324621
 31
0.0
  0
ARC
  5
25C
330
6B
100
AcDbEntity
  8
0
 62
     7
100
AcDbCircle
 10
112.718753
 20
14.23809
 30
0.0
 40
1.012499999999999
100
AcDbArc
 50
90.0
 51
270.0
  0
LINE
  5
25D
330
6B
100
AcDbEntity
  8
0
 62
     7
100
AcDbLine
 10
114.068753
 20
15.25059
 30
0.0
 11
112.718753
 21
15.25059
 31
0.0
  0
ARC
  5
25E
330
6B
100
AcDbEntity
  8
0
 62
     7
100
AcDbCircle
 10
114.068753
 20
14.23809
 30
0.0
 40
1.012499999999999
100
AcDbArc
 50
270.0
 51
90.0
  0
LINE
  5
25F
330
6B
100
AcDbEntity
  8
0
 62
     7
100
AcDbLine
 10
114.068753
 20
13.22559
 30
0.0
 11
112.718753
 21
13.22559
 31
0.0
  0
ARC
  5
260
330
6B
100
AcDbEntity
  8
0
 62
     7
100
AcDbCircle
 10
112.448968
 20
11.154441
 30
0.0
 40
1.012499999999999
100
AcDbArc
 50
80.0
 51
260.0
  0
LINE
  5
261
330
6B
100
AcDbEntity
  8
0
 62
     7
100
AcDbLine
 10
113.954277
 20
11.917134
 30
0.0
 11
112.624787
 21
12.151559
 31
0.0
  0
ARC
  5
262
330
6B
100
AcDbEntity
  8
0
 62
     7
100
AcDbCircle
 10
113.778459
 20
10.920016
 30
0.0
 40
1.012499999999999
100
AcDbArc
 50
260.0
 51
80.0
  0
LINE
  5
263
330
6B
100
AcDbEntity
  8
0
 62
     7
100
AcDbLine
 10
113.60264
 20
9.922897999999998
 30
0.0
 11
112.273149
 21
10.157323
 31
0.0
  0
ARC
  5
264
330
6B
100
AcDbEntity
  8
0
 62
     7
100
AcDbCircle
 10
111.647812
 20
8.164487
 30
0.0
 40
1.012499999999999
100
AcDbArc
 50
70.0
 51
132.864036
  0
LINE
  5
265
330
6B
100
AcDbEntity
  8
0
 62
     7
100
AcDbLine
 10
113.262693
 20
8.654198
 30
0.0
 11
111.994108
 21
9.115925
 31
0.0
  0
ARC
  5
266
330
6B
100
AcDbEntity
  8
0
 62
     7
100
AcDbCircle
 10
112.916397
 20
7.702758999999997
 30
0.0
 40
1.012499999999999
100
AcDbArc
 50
250.0
 51
70.0
  0
LINE
  5
267
330
6B
100
AcDbEntity
  8
0
 62
     7
100
AcDbLine
 10
112.570102
 20
6.751321
 30
0.0
 11
111.827075
 21
7.02176
 31
0.0
  0
ARC
  5
268
330
6B
100
AcDbEntity
  8
0
 62
     7
100
AcDbCircle
 10
110.339628
 20
5.359075999999999
 30
0.0
 40
1.012499999999999
100
AcDbArc
 50
153.681851
 51
240.0
  0
LINE
  5
269
330
6B
100
AcDbEntity
  8
0
 62
     7
100
AcDbLine
 10
110.118403
 20
4.317666
 30
0.0
 11
109.833378
 21
4.482224999999997
 31
0.0
  0
ARC
  5
26A
330
6B
100
AcDbEntity
  8
0
 62
     7
100
AcDbCircle
 10
108.564163
 20
2.823449
 30
0.0
 40
1.012499999999999
100
AcDbArc
 50
50.0
 51
230.0
  0
LINE
  5
26B
330
6B
100
AcDbEntity
  8
0
 62
     7
100
AcDbLine
 10
110.249146
 20
2.731306
 30
0.0
 11
109.214986
 21
3.599069
 31
0.0
  0
ARC
  5
26C
330
6B
100
AcDbEntity
  8
0
 62
     7
100
AcDbCircle
 10
109.598323
 20
1.955686
 30
0.0
 40
1.012499999999999
100
AcDbArc
 50
230.0
 51
50.0
  0
LINE
  5
26D
330
6B
100
AcDbEntity
  8
0
 62
     7
100
AcDbLine
 10
108.947501
 20
1.180066
 30
0.0
 11
107.913341
 21
2.047829
 31
0.0
  0
ARC
  5
26E
330
6B
100
AcDbEntity
  8
0
 62
     7
100
AcDbCircle
 10
106.375365
 20
0.6346510000000001
 30
0.0
 40
1.012499999999999
100
AcDbArc
 50
40.0
 51
220.0
  0
LINE
  5
26F
330
6B
100
AcDbEntity
  8
0
 62
     7
100
AcDbLine
 10
108.018748
 20
0.251314
 30
0.0
 11
107.150985
 21
1.285473999999998
 31
0.0
  0
ARC
  5
270
330
6B
100
AcDbEntity
  8
0
 62
     7
100
AcDbCircle
 10
107.243128
 20
-0.399509
 30
0.0
 40
1.012499999999999
100
AcDbArc
 50
220.0
 51
40.0
  0
LINE
  5
271
330
6B
100
AcDbEntity
  8
0
 62
     7
100
AcDbLine
 10
106.467508
 20
-1.050330999999999
 30
0.0
 11
105.599745
 21
-0.016171
 31
0.0
  0
ARC
  5
272
330
6B
100
AcDbEntity
  8
0
 62
     7
100
AcDbCircle
 10
78.27363599999998
 20
8.164487
 30
0.0
 40
1.012499999999999
100
AcDbArc
 50
47.135964
 51
110.0
  0
LINE
  5
273
330
6B
100
AcDbEntity
  8
0
 62
     7
100
AcDbLine
 10
76.65875600000003
 20
8.654198
 30
0.0
 11
77.927341
 21
9.115925
 31
0.0
  0
ARC
  5
274
330
6B
100
AcDbEntity
  8
0
 62
     7
100
AcDbCircle
 10
77.00505099999998
 20
7.702758999999997
 30
0.0
 40
1.012499999999999
100
AcDbArc
 50
110.0
 51
289.9999999999999
  0
LINE
  5
275
330
6B
100
AcDbEntity
  8
0
 62
     7
100
AcDbLine
 10
77.35134599999998
 20
6.751321
 30
0.0
 11
78.094373
 21
7.02176
 31
0.0
  0
ARC
  5
276
330
6B
100
AcDbEntity
  8
0
 62
     7
100
AcDbCircle
 10
79.58182099999998
 20
5.359075999999999
 30
0.0
 40
1.012499999999999
100
AcDbArc
 50
300.0
 51
26.318149
  0
LINE
  5
277
330
6B
100
AcDbEntity
  8
0
 62
     7
100
AcDbLine
 10
79.80304499999998
 20
4.317666
 30
0.0
 11
80.088071
 21
4.482224999999997
 31
0.0
  0
ARC
  5
278
330
6B
100
AcDbEntity
  8
0
 62
     7
100
AcDbCircle
 10
81.357285
 20
2.823449
 30
0.0
 40
1.012499999999999
100
AcDbArc
 50
310.0
 51
130.0
  0
LINE
  5
279
330
6B
100
AcDbEntity
  8
0
 62
     7
100
AcDbLine
 10
79.672303
 20
2.731306
 30
0.0
 11
80.70646299999999
 21
3.599069
 31
0.0
  0
ARC
  5
27A
330
6B
100
AcDbEntity
  8
0
 62
     7
100
AcDbCircle
 10
80.323125
 20
1.955686
 30
0.0
 40
1.012499999999999
100
AcDbArc
 50
130.0
 51
310.0
  0
LINE
  5
27B
330
6B
100
AcDbEntity
  8
0
 62
     7
100
AcDbLine
 10
80.973948
 20
1.180066
 30
0.0
 11
82.00810799999996
 21
2.047829
 31
0.0
  0
ARC
  5
27C
330
6B
100
AcDbEntity
  8
0
 62
     7
100
AcDbCircle
 10
83.546084
 20
0.6346510000000001
 30
0.0
 40
1.012499999999999
100
AcDbArc
 50
320.0
 51
140.0
  0
ARC
  5
27D
330
6B
100
AcDbEntity
  8
0
 62
     7
100
AcDbCircle
 10
82.67832
 20
-0.399509
 30
0.0
 40
1.012499999999999
100
AcDbArc
 50
140.0
 51
320.0
  0
LINE
  5
27E
330
6B
100
AcDbEntity
  8
0
 62
     7
100
AcDbLine
 10
83.45394
 20
-1.050330999999999
 30
0.0
 11
84.321704
 21
-0.016171
 31
0.0
  0
LINE
  5
27F
330
6B
100
AcDbEntity
  8
0
 62
     7
100
AcDbLine
 10
81.90269999999998
 20
0.251314
 30
0.0
 11
82.770464
 21
1.285473999999998
 31
0.0
  0
ARC
  5
280
330
6B
100
AcDbEntity
  8
0
 62
     7
100
AcDbCircle
 10
77.202696
 20
14.23809
 30
0.0
 40
1.012499999999999
100
AcDbArc
 50
270.0
 51
90.0
  0
LINE
  5
281
330
6B
100
AcDbEntity
  8
0
 62
     7
100
AcDbLine
 10
75.852696
 20
15.25059
 30
0.0
 11
77.202696
 21
15.25059
 31
0.0
  0
LINE
  5
282
330
6B
100
AcDbEntity
  8
0
 62
     7
100
AcDbLine
 10
75.852696
 20
13.22559
 30
0.0
 11
77.202696
 21
13.22559
 31
0.0
  0
ARC
  5
283
330
6B
100
AcDbEntity
  8
0
 62
     7
100
AcDbCircle
 10
77.47248
 20
11.154441
 30
0.0
 40
1.012499999999999
100
AcDbArc
 50
280.0
 51
100.0
  0
LINE
  5
284
330
6B
100
AcDbEntity
  8
0
 62
     7
100
AcDbLine
 10
75.96717099999998
 20
11.917134
 30
0.0
 11
77.296662
 21
12.151559
 31
0.0
  0
ARC
  5
285
330
6B
100
AcDbEntity
  8
0
 62
     7
100
AcDbCircle
 10
76.14298999999998
 20
10.920016
 30
0.0
 40
1.012499999999999
100
AcDbArc
 50
100.0
 51
280.0
  0
LINE
  5
286
330
6B
100
AcDbEntity
  8
0
 62
     7
100
AcDbLine
 10
76.318809
 20
9.922897999999998
 30
0.0
 11
77.64829899999998
 21
10.157323
 31
0.0
  0
ARC
  5
287
330
6B
100
AcDbEntity
  8
0
 62
     7
100
AcDbCircle
 10
75.852696
 20
14.23809
 30
0.0
 40
1.012499999999999
100
AcDbArc
 50
90.0
 51
270.0
  0
ARC
  5
288
330
6B
100
AcDbEntity
  8
0
 62
     7
100
AcDbCircle
 10
78.27363599999998
 20
20.311693
 30
0.0
 40
1.012499999999999
100
AcDbArc
 50
250.0
 51
70.0
  0
LINE
  5
289
330
6B
100
AcDbEntity
  8
0
 62
     7
100
AcDbLine
 10
76.65875600000003
 20
19.821982
 30
0.0
 11
77.927341
 21
19.360255
 31
0.0
  0
ARC
  5
28A
330
6B
100
AcDbEntity
  8
0
 62
     7
100
AcDbCircle
 10
77.47248
 20
17.321739
 30
0.0
 40
1.012499999999999
100
AcDbArc
 50
260.0
 51
80.0
  0
LINE
  5
28B
330
6B
100
AcDbEntity
  8
0
 62
     7
100
AcDbLine
 10
76.318809
 20
18.553282
 30
0.0
 11
77.64829899999998
 21
18.318857
 31
0.0
  0
ARC
  5
28C
330
6B
100
AcDbEntity
  8
0
 62
     7
100
AcDbCircle
 10
76.14298999999998
 20
17.556164
 30
0.0
 40
1.012499999999999
100
AcDbArc
 50
80.0
 51
260.0
  0
LINE
  5
28D
330
6B
100
AcDbEntity
  8
0
 62
     7
100
AcDbLine
 10
75.96717099999998
 20
16.559046
 30
0.0
 11
77.296662
 21
16.324621
 31
0.0
  0
LINE
  5
28E
330
6B
100
AcDbEntity
  8
0
 62
     7
100
AcDbLine
 10
77.906436
 20
22.915253
 30
0.0
 11
79.075571
 21
22.240253
 31
0.0
  0
LINE
  5
28F
330
6B
100
AcDbEntity
  8
0
 62
     7
100
AcDbLine
 10
77.35134599999998
 20
21.724859
 30
0.0
 11
78.61993199999996
 21
21.263132
 31
0.0
  0
ARC
  5
290
330
6B
100
AcDbEntity
  8
0
 62
     7
100
AcDbCircle
 10
77.00505099999998
 20
20.773421
 30
0.0
 40
1.012499999999999
100
AcDbArc
 50
70.0
 51
250.0
  0
LINE
  5
291
330
6B
100
AcDbEntity
  8
0
 62
     7
100
AcDbLine
 10
79.672303
 20
25.744874
 30
0.0
 11
80.70646299999999
 21
24.877111
 31
0.0
  0
ARC
  5
292
330
6B
100
AcDbEntity
  8
0
 62
     7
100
AcDbCircle
 10
79.58182099999998
 20
23.117104
 30
0.0
 40
1.012499999999999
100
AcDbArc
 50
240.0
 51
60.0
  0
LINE
  5
293
330
6B
100
AcDbEntity
  8
0
 62
     7
100
AcDbLine
 10
78.918936
 20
24.668955
 30
0.0
 11
80.088071
 21
23.993955
 31
0.0
  0
ARC
  5
294
330
6B
100
AcDbEntity
  8
0
 62
     7
100
AcDbCircle
 10
78.41268599999998
 20
23.792104
 30
0.0
 40
1.012499999999999
100
AcDbArc
 50
60.0
 51
240.0
  0
LINE
  5
295
330
6B
100
AcDbEntity
  8
0
 62
     7
100
AcDbLine
 10
81.90269999999998
 20
28.224866
 30
0.0
 11
82.770464
 21
27.190706
 31
0.0
  0
ARC
  5
296
330
6B
100
AcDbEntity
  8
0
 62
     7
100
AcDbCircle
 10
81.357285
 20
25.652731
 30
0.0
 40
1.012499999999999
100
AcDbArc
 50
230.0
 51
50.0
  0
LINE
  5
297
330
6B
100
AcDbEntity
  8
0
 62
     7
100
AcDbLine
 10
80.973948
 20
27.296114
 30
0.0
 11
82.00810799999996
 21
26.428351
 31
0.0
  0
ARC
  5
298
330
6B
100
AcDbEntity
  8
0
 62
     7
100
AcDbCircle
 10
80.323125
 20
26.520494
 30
0.0
 40
1.012499999999999
100
AcDbArc
 50
50.0
 51
230.0
  0
ARC
  5
299
330
6B
100
AcDbEntity
  8
0
 62
     7
100
AcDbCircle
 10
82.67832
 20
28.875689
 30
0.0
 40
1.012499999999999
100
AcDbArc
 50
40.0
 51
220.0
  0
ARC
  5
29A
330
6B
100
AcDbEntity
  8
0
 62
     7
100
AcDbCircle
 10
83.546084
 20
27.841529
 30
0.0
 40
1.012499999999999
100
AcDbArc
 50
220.0
 51
40.0
  0
LINE
  5
29B
330
6B
100
AcDbEntity
  8
0
 62
     7
100
AcDbLine
 10
83.45394
 20
29.526511
 30
0.0
 11
84.321704
 21
28.492351
 31
0.0
  0
ARC
  5
29C
330
6B
100
AcDbEntity
  8
0
 62
     7
100
AcDbCircle
 10
104.514738
 20
30.786128
 30
0.0
 40
1.012499999999999
100
AcDbArc
 50
330.0
 51
150.0
  0
LINE
  5
29D
330
6B
100
AcDbEntity
  8
0
 62
     7
100
AcDbLine
 10
103.637888
 20
31.292378
 30
0.0
 11
102.962888
 21
30.123244
 31
0.0
  0
LINE
  5
29E
330
6B
100
AcDbEntity
  8
0
 62
     7
100
AcDbLine
 10
105.391589
 20
30.279878
 30
0.0
 11
104.716589
 21
29.110744
 31
0.0
  0
ARC
  5
29F
330
6B
100
AcDbEntity
  8
0
 62
     7
100
AcDbCircle
 10
103.839738
 20
29.616994
 30
0.0
 40
1.012499999999999
100
AcDbArc
 50
150.0
 51
330.0
  0
ARC
  5
2A0
330
6B
100
AcDbEntity
  8
0
 62
     7
100
AcDbCircle
 10
85.40671
 20
30.786128
 30
0.0
 40
1.012499999999999
100
AcDbArc
 50
30.0
 51
210.0
  0
LINE
  5
2A1
330
6B
100
AcDbEntity
  8
0
 62
     7
100
AcDbLine
 10
86.28356099999995
 20
31.292378
 30
0.0
 11
86.958561
 21
30.123244
 31
0.0
  0
LINE
  5
2A2
330
6B
100
AcDbEntity
  8
0
 62
     7
100
AcDbLine
 10
84.52985899999999
 20
30.279878
 30
0.0
 11
85.204859
 21
29.110744
 31
0.0
  0
ARC
  5
2A3
330
6B
100
AcDbEntity
  8
0
 62
     7
100
AcDbCircle
 10
86.08171
 20
29.616994
 30
0.0
 40
1.012499999999999
100
AcDbArc
 50
210.0
 51
30.0
  0
ARC
  5
2A4
330
6B
100
AcDbEntity
  8
0
 62
     7
100
AcDbCircle
 10
85.40671
 20
-2.309947999999999
 30
0.0
 40
1.012499999999999
100
AcDbArc
 50
150.0
 51
330.0
  0
LINE
  5
2A5
330
6B
100
AcDbEntity
  8
0
 62
     7
100
AcDbLine
 10
86.28356099999995
 20
-2.816197999999998
 30
0.0
 11
86.958561
 21
-1.647063999999999
 31
0.0
  0
LINE
  5
2A6
330
6B
100
AcDbEntity
  8
0
 62
     7
100
AcDbLine
 10
84.52985899999999
 20
-1.803697999999999
 30
0.0
 11
85.204859
 21
-0.6345640000000003
 31
0.0
  0
ARC
  5
2A7
330
6B
100
AcDbEntity
  8
0
 62
     7
100
AcDbCircle
 10
86.08171
 20
-1.140813999999997
 30
0.0
 40
1.012499999999999
100
AcDbArc
 50
330.0
 51
150.0
  0
ARC
  5
2A8
330
6B
100
AcDbEntity
  8
0
 62
     7
100
AcDbCircle
 10
104.514738
 20
-2.309947999999999
 30
0.0
 40
1.012499999999999
100
AcDbArc
 50
210.0
 51
30.0
  0
LINE
  5
2A9
330
6B
100
AcDbEntity
  8
0
 62
     7
100
AcDbLine
 10
103.637888
 20
-2.816197999999998
 30
0.0
 11
102.962888
 21
-1.647063999999999
 31
0.0
  0
LINE
  5
2AA
330
6B
100
AcDbEntity
  8
0
 62
     7
100
AcDbLine
 10
105.391589
 20
-1.803697999999999
 30
0.0
 11
104.716589
 21
-0.6345640000000003
 31
0.0
  0
ARC
  5
2AB
330
6B
100
AcDbEntity
  8
0
 62
     7
100
AcDbCircle
 10
103.839738
 20
-1.140813999999997
 30
0.0
 40
1.012499999999999
100
AcDbArc
 50
30.0
 51
210.0
  0
LINE
  5
2AC
330
6B
100
AcDbEntity
  8
0
 62
     7
100
AcDbLine
 10
46.96277399999998
 20
15.499063
 30
0.0
 11
46.96277399999998
 21
12.977117
 31
0.0
  0
LINE
  5
2AD
330
6B
100
AcDbEntity
  8
0
 62
     7
100
AcDbLine
 10
47.450904
 20
-1.321629
 30
0.0
 11
56.158912
 21
-1.169629999999999
 31
0.0
  0
ARC
  5
2AE
330
6B
100
AcDbEntity
  8
0
 62
     7
100
AcDbCircle
 10
47.450315
 20
-1.287884
 30
0.0
 40
0.03375
100
AcDbArc
 50
141.772024
 51
271.0
  0
LINE
  5
2AF
330
6B
100
AcDbEntity
  8
0
 62
     7
100
AcDbLine
 10
47.800079
 20
-2.383785
 30
0.0
 11
56.19880799999999
 21
-2.383785
 31
0.0
  0
ARC
  5
2B0
330
6B
100
AcDbEntity
  8
0
 62
     7
100
AcDbCircle
 10
47.84548899999999
 20
-2.925777
 30
0.0
 40
0.543891
100
AcDbArc
 50
94.789275
 51
147.919378
  0
LINE
  5
2B1
330
6B
100
AcDbEntity
  8
0
 62
     7
100
AcDbLine
 10
47.800079
 20
-2.890034999999998
 30
0.0
 11
56.19880799999999
 21
-2.890034999999998
 31
0.0
  0
ARC
  5
2B2
330
6B
100
AcDbEntity
  8
0
 62
     7
100
AcDbCircle
 10
47.84548899999999
 20
-2.348043
 30
0.0
 40
0.543891
100
AcDbArc
 50
212.080622
 51
265.210725
  0
ARC
  5
2B3
330
6B
100
AcDbEntity
  8
0
 62
     7
100
AcDbCircle
 10
47.450315
 20
-3.985936
 30
0.0
 40
0.03375
100
AcDbArc
 50
89.00000000000001
 51
219.227976
  0
LINE
  5
2B4
330
6B
100
AcDbEntity
  8
0
 62
     7
100
AcDbLine
 10
47.450904
 20
-3.952191
 30
0.0
 11
56.158912
 21
-4.10419
 31
0.0
  0
ARC
  5
2B5
330
6B
100
AcDbEntity
  8
0
 62
     7
100
AcDbCircle
 10
56.166274
 20
-3.682379
 30
0.0
 40
0.421875
100
AcDbArc
 50
269.0
 51
304.26439
  0
ARC
  5
2B6
330
6B
100
AcDbEntity
  8
0
 62
     7
100
AcDbCircle
 10
56.451299
 20
-4.100769
 30
0.0
 40
0.084375
100
AcDbArc
 50
358.9999999999999
 51
124.26439
  0
ARC
  5
2B7
330
6B
100
AcDbEntity
  8
0
 62
     7
100
AcDbCircle
 10
56.45123299999998
 20
-4.104561
 30
0.0
 40
0.084375
100
AcDbArc
 50
329.0
 51
358.9999999999999
  0
ARC
  5
2B8
330
6B
100
AcDbEntity
  8
0
 62
     7
100
AcDbCircle
 10
56.141739
 20
-2.462381
 30
0.0
 40
0.431445
100
AcDbArc
 50
277.600951
 51
336.138844
  0
ARC
  5
2B9
330
6B
100
AcDbEntity
  8
0
 62
     7
100
AcDbCircle
 10
56.141739
 20
-2.811439
 30
0.0
 40
0.431445
100
AcDbArc
 50
23.861156
 51
82.39904899999998
  0
ARC
  5
2BA
330
6B
100
AcDbEntity
  8
0
 62
     7
100
AcDbCircle
 10
56.166274
 20
-1.591440999999995
 30
0.0
 40
0.421875
100
AcDbArc
 50
55.73561000000001
 51
91.0
  0
ARC
  5
2BB
330
6B
100
AcDbEntity
  8
0
 62
     7
100
AcDbCircle
 10
56.451299
 20
-1.173051
 30
0.0
 40
0.084375
100
AcDbArc
 50
235.7356100000001
 51
1.0
  0
ARC
  5
2BC
330
6B
100
AcDbEntity
  8
0
 62
     7
100
AcDbCircle
 10
56.45123299999998
 20
-1.169259
 30
0.0
 40
0.084375
100
AcDbArc
 50
1.0
 51
31.0
  0
ARC
  5
2BD
330
6B
100
AcDbEntity
  8
0
  6
DASHED
 62
     7
100
AcDbCircle
 10
76.107969
 20
3.348660999999998
 30
0.0
 40
0.430312
100
AcDbArc
 50
283.761691
 51
26.78368
  0
LINE
  5
2BE
330
6B
100
AcDbEntity
  8
0
 62
     7
100
AcDbLine
 10
-71.489491
 20
34.506261
 30
0.0
 11
-72.887507
 21
35.099684
 31
0.0
  0
LINE
  5
2BF
330
6B
100
AcDbEntity
  8
0
 62
     7
100
AcDbLine
 10
96.395099
 20
13.409953
 30
0.0
 11
94.960724
 21
12.581816
 31
0.0
  0
LINE
  5
2C0
330
6B
100
AcDbEntity
  8
0
 62
     7
100
AcDbLine
 10
93.526349
 20
13.409953
 30
0.0
 11
94.960724
 21
12.581816
 31
0.0
  0
LINE
  5
2C1
330
6B
100
AcDbEntity
  8
0
 62
     7
100
AcDbLine
 10
93.526349
 20
13.409953
 30
0.0
 11
93.526349
 21
15.066227
 31
0.0
  0
CIRCLE
  5
2C2
330
6B
100
AcDbEntity
  8
0
 62
     7
100
AcDbCircle
 10
94.960724
 20
14.23809
 30
0.0
 40
1.223438
  0
LINE
  5
2C3
330
6B
100
AcDbEntity
  8
0
 62
     7
100
AcDbLine
 10
96.395099
 20
15.066227
 30
0.0
 11
94.960724
 21
15.894364
 31
0.0
  0
LINE
  5
2C4
330
6B
100
AcDbEntity
  8
0
 62
     7
100
AcDbLine
 10
96.395099
 20
15.066227
 30
0.0
 11
96.395099
 21
13.409953
 31
0.0
  0
LINE
  5
2C5
330
6B
100
AcDbEntity
  8
0
 62
     7
100
AcDbLine
 10
-70.89213599999998
 20
34.617892
 30
0.0
 11
-73.22216400000002
 21
35.60693
 31
0.0
  0
LINE
  5
2C6
330
6B
100
AcDbEntity
  8
0
 62
     7
100
AcDbLine
 10
-73.598376
 20
33.856866
 30
0.0
 11
-73.108779
 21
35.010285
 31
0.0
  0
LINE
  5
2C7
330
6B
100
AcDbEntity
  8
0
 62
     7
100
AcDbLine
 10
-73.508454
 20
33.636826
 30
0.0
 11
-72.11043700000002
 21
33.043404
 31
0.0
  0
LINE
  5
2C8
330
6B
100
AcDbEntity
  8
0
 62
     7
100
AcDbLine
 10
-71.889689
 20
33.131571
 30
0.0
 11
-71.400091
 21
34.28499
 31
0.0
  0
LINE
  5
2C9
330
6B
100
AcDbEntity
  8
0
 62
     7
100
AcDbLine
 10
-74.10633100000003
 20
33.523964
 30
0.0
 11
-71.776303
 21
32.534926
 31
0.0
  0
ARC
  5
2CA
330
6B
100
AcDbEntity
  8
0
 62
     7
100
AcDbCircle
 10
-72.953443
 20
34.944349
 30
0.0
 40
0.16875
100
AcDbArc
 50
66.99999999999999
 51
157.0
  0
ARC
  5
2CB
330
6B
100
AcDbEntity
  8
0
 62
     7
100
AcDbCircle
 10
-71.55542700000002
 20
34.350926
 30
0.0
 40
0.16875
100
AcDbArc
 50
336.9999999999999
 51
66.99999999999999
  0
ARC
  5
2CC
330
6B
100
AcDbEntity
  8
0
 62
     7
100
AcDbCircle
 10
-72.04502399999998
 20
33.197507
 30
0.0
 40
0.16875
100
AcDbArc
 50
247.0
 51
336.9999999999999
  0
ARC
  5
2CD
330
6B
100
AcDbEntity
  8
0
 62
     7
100
AcDbCircle
 10
-73.44304100000002
 20
33.79093
 30
0.0
 40
0.16875
100
AcDbArc
 50
157.0
 51
247.0
  0
CIRCLE
  5
2CE
330
6B
100
AcDbEntity
  8
0
 62
     7
100
AcDbCircle
 10
94.960724
 20
-2.636909999999998
 30
0.0
 40
0.928125
  0
ARC
  5
2CF
330
6B
100
AcDbEntity
  8
0
 62
     7
100
AcDbCircle
 10
94.960724
 20
14.23809
 30
0.0
 40
15.103125
100
AcDbArc
 50
275.3406589999999
 51
325.148619
  0
CIRCLE
  5
2D0
330
6B
100
AcDbEntity
  8
0
 62
     7
100
AcDbCircle
 10
107.236552
 20
7.150638
 30
0.0
 40
0.421875
  0
LINE
  5
2D1
330
6B
100
AcDbEntity
  8
0
 62
     7
100
AcDbLine
 10
107.246694
 20
6.092560999999999
 30
0.0
 11
106.755617
 21
6.376084999999998
 31
0.0
  0
ARC
  5
2D2
330
6B
100
AcDbEntity
  8
0
 62
     7
100
AcDbCircle
 10
107.236634
 20
7.150589999999997
 30
0.0
 40
0.9117219999999999
100
AcDbArc
 50
58.15707899999998
 51
241.842921
  0
ARC
  5
2D3
330
6B
100
AcDbEntity
  8
0
 62
     7
100
AcDbCircle
 10
107.077944
 20
5.800277999999997
 30
0.0
 40
0.3375
100
AcDbArc
 50
325.148619
 51
60.0
  0
LINE
  5
2D4
330
6B
100
AcDbEntity
  8
0
 62
     7
100
AcDbLine
 10
108.157944
 20
7.670892999999997
 30
0.0
 11
107.666867
 21
7.954416
 31
0.0
  0
ARC
  5
2D5
330
6B
100
AcDbEntity
  8
0
 62
     7
100
AcDbCircle
 10
110.339628
 20
5.359075999999999
 30
0.0
 40
0.675
100
AcDbArc
 50
185.2984689999999
 51
224.15616
  0
ARC
  5
2D6
330
6B
100
AcDbEntity
  8
0
 62
     7
100
AcDbCircle
 10
94.960724
 20
14.23809
 30
0.0
 40
22.810727
100
AcDbArc
 50
327.361642
 51
82.09298699999997
  0
ARC
  5
2D7
330
6B
100
AcDbEntity
  8
0
 62
     7
100
AcDbCircle
 10
94.960724
 20
14.23809
 30
0.0
 40
20.649495
100
AcDbArc
 50
331.2911090000001
 51
78.16351999999998
  0
ARC
  5
2D8
330
6B
100
AcDbEntity
  8
0
 62
     7
100
AcDbCircle
 10
94.960724
 20
14.23809
 30
0.0
 40
22.810727
100
AcDbArc
 50
220.3338930000001
 51
319.666107
  0
ARC
  5
2D9
330
6B
100
AcDbEntity
  8
0
 62
     7
100
AcDbCircle
 10
94.960724
 20
14.23809
 30
0.0
 40
20.649495
100
AcDbArc
 50
217.511916
 51
322.4880839999999
  0
ARC
  5
2DA
330
6B
100
AcDbEntity
  8
0
 62
     7
100
AcDbCircle
 10
94.960724
 20
14.23809
 30
0.0
 40
16.36875
100
AcDbArc
 50
275.551718
 51
330.713598
  0
ARC
  5
2DB
330
6B
100
AcDbEntity
  8
0
 62
     7
100
AcDbCircle
 10
108.326694
 20
7.963175999999998
 30
0.0
 40
0.3375
100
AcDbArc
 50
240.0
 51
312.408947
  0
ARC
  5
2DC
330
6B
100
AcDbEntity
  8
0
 62
     7
100
AcDbCircle
 10
79.58182099999998
 20
5.359075999999999
 30
0.0
 40
0.675
100
AcDbArc
 50
315.8438399999998
 51
354.701531
  0
ARC
  5
2DD
330
6B
100
AcDbEntity
  8
0
 62
     7
100
AcDbCircle
 10
94.960724
 20
14.23809
 30
0.0
 40
15.103125
100
AcDbArc
 50
214.851381
 51
264.659341
  0
CIRCLE
  5
2DE
330
6B
100
AcDbEntity
  8
0
 62
     7
100
AcDbCircle
 10
82.68489699999998
 20
7.150638
 30
0.0
 40
0.421875
  0
ARC
  5
2DF
330
6B
100
AcDbEntity
  8
0
 62
     7
100
AcDbCircle
 10
94.960724
 20
14.23809
 30
0.0
 40
22.810727
100
AcDbArc
 50
97.90701300000002
 51
212.638358
  0
ARC
  5
2E0
330
6B
100
AcDbEntity
  8
0
 62
     7
100
AcDbCircle
 10
94.960724
 20
14.23809
 30
0.0
 40
20.649495
100
AcDbArc
 50
101.140054
 51
208.708891
  0
ARC
  5
2E1
330
6B
100
AcDbEntity
  8
0
 62
     7
100
AcDbCircle
 10
94.960724
 20
14.23809
 30
0.0
 40
16.36875
100
AcDbArc
 50
209.286402
 51
264.448282
  0
ARC
  5
2E2
330
6B
100
AcDbEntity
  8
0
 62
     7
100
AcDbCircle
 10
82.843505
 20
5.800277999999997
 30
0.0
 40
0.3375
100
AcDbArc
 50
120.0
 51
214.851381
  0
LINE
  5
2E3
330
6B
100
AcDbEntity
  8
0
 62
     7
100
AcDbLine
 10
82.674755
 20
6.092560999999999
 30
0.0
 11
83.165831
 21
6.376084999999998
 31
0.0
  0
ARC
  5
2E4
330
6B
100
AcDbEntity
  8
0
 62
     7
100
AcDbCircle
 10
82.684814
 20
7.150589999999997
 30
0.0
 40
0.9117219999999999
100
AcDbArc
 50
298.157079
 51
121.842921
  0
LINE
  5
2E5
330
6B
100
AcDbEntity
  8
0
 62
     7
100
AcDbLine
 10
81.76350500000002
 20
7.670892999999997
 30
0.0
 11
82.254581
 21
7.954416
 31
0.0
  0
ARC
  5
2E6
330
6B
100
AcDbEntity
  8
0
 62
     7
100
AcDbCircle
 10
81.594755
 20
7.963175999999998
 30
0.0
 40
0.3375
100
AcDbArc
 50
205.148619
 51
300.0
  0
ARC
  5
2E7
330
6B
100
AcDbEntity
  8
0
 62
     7
100
AcDbCircle
 10
94.960724
 20
14.23809
 30
0.0
 40
15.103125
100
AcDbArc
 50
119.809128
 51
190.736243
  0
ARC
  5
2E8
330
6B
100
AcDbEntity
  8
0
 62
     7
100
AcDbCircle
 10
94.960724
 20
14.23809
 30
0.0
 40
16.36875
100
AcDbArc
 50
113.993955
 51
196.551416
  0
ARC
  5
2E9
330
6B
100
AcDbEntity
  8
0
 62
     7
100
AcDbCircle
 10
94.960724
 20
14.23809
 30
0.0
 40
20.649495
100
AcDbArc
 50
86.966545
 51
93.033455
  0
CIRCLE
  5
2EA
330
6B
100
AcDbEntity
  8
0
 62
     7
100
AcDbCircle
 10
94.960724
 20
28.412995
 30
0.0
 40
0.421875
  0
ARC
  5
2EB
330
6B
100
AcDbEntity
  8
0
 62
     7
100
AcDbCircle
 10
94.960724
 20
14.23809
 30
0.0
 40
15.103125
100
AcDbArc
 50
349.2637569999999
 51
60.190872
  0
ARC
  5
2EC
330
6B
100
AcDbEntity
  8
0
 62
     7
100
AcDbCircle
 10
94.960724
 20
14.23809
 30
0.0
 40
15.103125
100
AcDbArc
 50
94.85138100000002
 51
104.82861
  0
ARC
  5
2ED
330
6B
100
AcDbEntity
  8
0
 62
     7
100
AcDbCircle
 10
94.960724
 20
14.23809
 30
0.0
 40
15.103125
100
AcDbArc
 50
75.17139
 51
85.14861899999997
  0
ARC
  5
2EE
330
6B
100
AcDbEntity
  8
0
 62
     7
100
AcDbCircle
 10
94.960724
 20
14.23809
 30
0.0
 40
16.36875
100
AcDbArc
 50
343.448584
 51
66.006045
  0
ARC
  5
2EF
330
6B
100
AcDbEntity
  8
0
 62
     7
100
AcDbCircle
 10
94.960724
 20
14.23809
 30
0.0
 40
16.36875
100
AcDbArc
 50
78.74103100000002
 51
101.258969
  0
LINE
  5
2F0
330
6B
100
AcDbEntity
  8
0
 62
     7
100
AcDbLine
 10
95.871974
 20
28.950816
 30
0.0
 11
95.871974
 21
28.38377
 31
0.0
  0
LINE
  5
2F1
330
6B
100
AcDbEntity
  8
0
 62
     7
100
AcDbLine
 10
94.049474
 20
28.950816
 30
0.0
 11
94.049474
 21
28.38377
 31
0.0
  0
ARC
  5
2F2
330
6B
100
AcDbEntity
  8
0
 62
     7
100
AcDbCircle
 10
93.71197399999998
 20
28.950816
 30
0.0
 40
0.3375
100
AcDbArc
 50
0.0
 51
94.85138100000002
  0
ARC
  5
2F3
330
6B
100
AcDbEntity
  8
0
 62
     7
100
AcDbCircle
 10
96.209474
 20
28.950816
 30
0.0
 40
0.3375
100
AcDbArc
 50
85.14861899999997
 51
180.0
  0
ARC
  5
2F4
330
6B
100
AcDbEntity
  8
0
 62
     7
100
AcDbCircle
 10
94.960724
 20
28.41309000000001
 30
0.0
 40
0.9117219999999999
100
AcDbArc
 50
178.157079
 51
1.842920999999999
  0
LINE
  5
2F5
330
6B
100
AcDbEntity
  8
0
 62
     3
100
AcDbLine
 10
96.437714
 20
40.43866
 30
0.0
 11
123.18919
 21
-17.650261
 31
0.0
  0
LINE
  5
2F6
330
6B
100
AcDbEntity
  8
0
 62
     3
100
AcDbLine
 10
94.960724
 20
37.231483
 30
0.0
 11
120.708432
 21
-18.677825
 31
0.0
  0
LINE
  5
2F7
330
6B
100
AcDbEntity
  8
0
 62
     3
100
AcDbLine
 10
66.749158
 20
-17.61356499999999
 30
0.0
 11
98.13219400000001
 21
50.532456
 31
0.0
  0
LINE
  5
2F8
330
6B
100
AcDbEntity
  8
0
 62
     3
100
AcDbLine
 10
69.229916
 20
-18.641128
 30
0.0
 11
100.612952
 21
49.504893
 31
0.0
  0
ARC
  5
2F9
330
6B
100
AcDbEntity
  8
0
 62
     3
100
AcDbCircle
 10
94.960724
 20
14.23809
 30
0.0
 40
27.0
100
AcDbArc
 50
92.376385
 51
218.168986
  0
ARC
  5
2FA
330
6B
100
AcDbEntity
  8
0
 62
     3
100
AcDbCircle
 10
94.960724
 20
14.23809
 30
0.0
 40
25.65
100
AcDbArc
 50
93.930755
 51
216.614616
  0
ARC
  5
2FB
330
6B
100
AcDbEntity
  8
0
 62
     3
100
AcDbCircle
 10
94.960724
 20
14.23809
 30
0.0
 40
27.0
100
AcDbArc
 50
321.831014
 51
86.141372
  0
ARC
  5
2FC
330
6B
100
AcDbEntity
  8
0
 62
     3
100
AcDbCircle
 10
94.960724
 20
14.23809
 30
0.0
 40
25.65
100
AcDbArc
 50
323.385384
 51
86.06924499999998
  0
ARC
  5
2FD
330
6B
100
AcDbEntity
  8
0
 62
     7
100
AcDbCircle
 10
47.237382
 20
12.693948
 30
0.0
 40
0.3375
100
AcDbArc
 50
98.585272
 51
156.312848
  0
ARC
  5
2FE
330
6B
100
AcDbEntity
  8
0
 62
     7
100
AcDbCircle
 10
46.549131
 20
12.995885
 30
0.0
 40
0.4140680000000005
100
AcDbArc
 50
270.0000009999999
 51
336.312848
  0
LINE
  5
2FF
330
6B
100
AcDbEntity
  8
0
 62
     7
100
AcDbLine
 10
46.549131
 20
12.581816
 30
0.0
 11
46.02641699999998
 21
12.581816
 31
0.0
  0
ARC
  5
300
330
6B
100
AcDbEntity
  8
0
 62
     7
100
AcDbCircle
 10
46.549131
 20
15.480295
 30
0.0
 40
0.4140680000000005
100
AcDbArc
 50
23.687152
 51
89.999999
  0
LINE
  5
301
330
6B
100
AcDbEntity
  8
0
 62
     7
100
AcDbLine
 10
46.549131
 20
15.894364
 30
0.0
 11
46.02641699999998
 21
15.894364
 31
0.0
  0
ARC
  5
302
330
6B
100
AcDbEntity
  8
0
 62
     7
100
AcDbCircle
 10
46.02641699999998
 20
15.480295
 30
0.0
 40
0.4140680000000005
100
AcDbArc
 50
90.00000099999998
 51
182.597827
  0
ARC
  5
303
330
6B
100
AcDbEntity
  8
0
 62
     7
100
AcDbCircle
 10
46.02641699999998
 20
12.995885
 30
0.0
 40
0.4140680000000005
100
AcDbArc
 50
177.402173
 51
269.9999990000001
  0
ARC
  5
304
330
6B
100
AcDbEntity
  8
0
 62
     7
100
AcDbCircle
 10
47.237382
 20
15.782232
 30
0.0
 40
0.3375
100
AcDbArc
 50
203.687152
 51
261.414728
  0
ARC
  5
305
330
6B
100
AcDbEntity
  8
0
 62
     7
100
AcDbCircle
 10
45.926964
 20
14.23809
 30
0.0
 40
1.03581
100
AcDbArc
 50
306.917014
 51
0.0
  0
LINE
  5
306
330
6B
100
AcDbEntity
  8
0
 62
     7
100
AcDbLine
 10
46.549131
 20
13.409953
 30
0.0
 11
46.02641699999998
 21
13.409953
 31
0.0
  0
ARC
  5
307
330
6B
100
AcDbEntity
  8
0
 62
     7
100
AcDbCircle
 10
46.549131
 20
12.995885
 30
0.0
 40
0.4140680000000005
100
AcDbArc
 50
336.312848
 51
90.0
  0
ARC
  5
308
330
6B
100
AcDbEntity
  8
0
 62
     7
100
AcDbCircle
 10
46.64858399999999
 20
14.23809
 30
0.0
 40
1.03581
100
AcDbArc
 50
180.0
 51
233.082986
  0
ARC
  5
309
330
6B
100
AcDbEntity
  8
0
 62
     7
100
AcDbCircle
 10
46.02641699999998
 20
12.995885
 30
0.0
 40
0.4140680000000005
100
AcDbArc
 50
90.0
 51
177.402173
  0
ARC
  5
30A
330
6B
100
AcDbEntity
  8
0
 62
     7
100
AcDbCircle
 10
46.64858399999999
 20
14.23809
 30
0.0
 40
1.03581
100
AcDbArc
 50
126.917014
 51
180.0
  0
LINE
  5
30B
330
6B
100
AcDbEntity
  8
0
 62
     7
100
AcDbLine
 10
46.549131
 20
15.066227
 30
0.0
 11
46.02641699999998
 21
15.066227
 31
0.0
  0
ARC
  5
30C
330
6B
100
AcDbEntity
  8
0
 62
     7
100
AcDbCircle
 10
46.02641699999998
 20
15.480295
 30
0.0
 40
0.4140680000000005
100
AcDbArc
 50
182.597827
 51
270.0
  0
ARC
  5
30D
330
6B
100
AcDbEntity
  8
0
 62
     7
100
AcDbCircle
 10
46.549131
 20
15.480295
 30
0.0
 40
0.4140680000000005
100
AcDbArc
 50
270.0
 51
23.687152
  0
ARC
  5
30E
330
6B
100
AcDbEntity
  8
0
 62
     7
100
AcDbCircle
 10
45.926964
 20
14.23809
 30
0.0
 40
1.03581
100
AcDbArc
 50
0.0
 51
53.082986
  0
LINE
  5
30F
330
6B
100
AcDbEntity
  8
0
 62
     7
100
AcDbLine
 10
44.073165
 20
-1.370347999999999
 30
0.0
 11
44.536758
 21
-1.370347999999999
 31
0.0
  0
LINE
  5
310
330
6B
100
AcDbEntity
  8
0
 62
     7
100
AcDbLine
 10
44.073165
 20
-3.903472
 30
0.0
 11
44.536758
 21
-3.903472
 31
0.0
  0
ARC
  5
311
330
6B
100
AcDbEntity
  8
0
 62
     7
100
AcDbCircle
 10
44.536758
 20
-1.686988
 30
0.0
 40
0.316641
100
AcDbArc
 50
0.0
 51
90.0
  0
ARC
  5
312
330
6B
100
AcDbEntity
  8
0
 62
     7
100
AcDbCircle
 10
44.536758
 20
-3.586831999999998
 30
0.0
 40
0.316641
100
AcDbArc
 50
270.0
 51
0.0
  0
ARC
  5
313
330
6B
100
AcDbEntity
  8
0
 62
     7
100
AcDbCircle
 10
44.073165
 20
-3.586831999999998
 30
0.0
 40
0.316641
100
AcDbArc
 50
180.0
 51
270.0
  0
ARC
  5
314
330
6B
100
AcDbEntity
  8
0
 62
     7
100
AcDbCircle
 10
44.073165
 20
-1.686988
 30
0.0
 40
0.316641
100
AcDbArc
 50
90.0
 51
180.0
  0
ARC
  5
315
330
6B
100
AcDbEntity
  8
0
 62
     7
100
AcDbCircle
 10
44.548125
 20
-2.636909999999998
 30
0.0
 40
0.791601
100
AcDbArc
 50
126.869898
 51
233.130102
  0
ARC
  5
316
330
6B
100
AcDbEntity
  8
0
 62
     7
100
AcDbCircle
 10
44.073165
 20
-1.686988
 30
0.0
 40
0.316641
100
AcDbArc
 50
180.0
 51
270.0
  0
LINE
  5
317
330
6B
100
AcDbEntity
  8
0
 62
     7
100
AcDbLine
 10
44.073165
 20
-2.003629
 30
0.0
 11
44.536758
 21
-2.003629
 31
0.0
  0
ARC
  5
318
330
6B
100
AcDbEntity
  8
0
 62
     7
100
AcDbCircle
 10
44.536758
 20
-1.686988
 30
0.0
 40
0.316641
100
AcDbArc
 50
270.0
 51
0.0
  0
ARC
  5
319
330
6B
100
AcDbEntity
  8
0
 62
     7
100
AcDbCircle
 10
44.06179799999999
 20
-2.636909999999998
 30
0.0
 40
0.791601
100
AcDbArc
 50
306.869898
 51
53.130102
  0
LINE
  5
31A
330
6B
100
AcDbEntity
  8
0
 62
     7
100
AcDbLine
 10
44.536758
 20
-3.270191
 30
0.0
 11
44.073165
 21
-3.270191
 31
0.0
  0
ARC
  5
31B
330
6B
100
AcDbEntity
  8
0
 62
     7
100
AcDbCircle
 10
44.536758
 20
-3.586831999999998
 30
0.0
 40
0.316641
100
AcDbArc
 50
0.0
 51
89.99999500000001
  0
ARC
  5
31C
330
6B
100
AcDbEntity
  8
0
 62
     7
100
AcDbCircle
 10
44.073165
 20
-3.586831999999998
 30
0.0
 40
0.316641
100
AcDbArc
 50
90.0
 51
180.0
  0
LINE
  5
31D
330
6B
100
AcDbEntity
  8
0
 62
     7
100
AcDbLine
 10
43.75652399999998
 20
-3.607222
 30
0.0
 11
43.75652399999998
 21
-1.666597
 31
0.0
  0
LINE
  5
31E
330
6B
100
AcDbEntity
  8
0
 62
     7
100
AcDbLine
 10
-70.29865500000001
 20
36.016046
 30
0.0
 11
-72.628683
 21
37.005085
 31
0.0
  0
LINE
  5
31F
330
6B
100
AcDbEntity
  8
0
 62
     7
100
AcDbLine
 10
-72.501598
 20
30.826238
 30
0.0
 11
-74.83162599999999
 21
31.815277
 31
0.0
  0
LINE
  5
320
330
6B
100
AcDbEntity
  8
0
 62
     7
100
AcDbLine
 10
-73.02961299999998
 20
29.582312
 30
0.0
 11
-75.359641
 21
30.57135
 31
0.0
  0
ARC
  5
321
330
6B
100
AcDbEntity
  8
0
 62
     7
100
AcDbCircle
 10
-86.29892599999998
 20
14.23809
 30
0.0
 40
20.649495
100
AcDbArc
 50
56.712474
 51
78.859946
  0
ARC
  5
322
330
6B
100
AcDbEntity
  8
0
 62
     7
100
AcDbCircle
 10
-86.29892599999998
 20
14.23809
 30
0.0
 40
22.810727
100
AcDbArc
 50
57.696306
 51
82.09298699999997
  0
ARC
  5
323
330
6B
100
AcDbEntity
  8
0
 62
     7
100
AcDbCircle
 10
-86.29892599999998
 20
14.23809
 30
0.0
 40
20.649495
100
AcDbArc
 50
86.966545
 51
93.033455
  0
ARC
  5
324
330
6B
100
AcDbEntity
  8
0
 62
     7
100
AcDbCircle
 10
-86.29892599999998
 20
14.23809
 30
0.0
 40
20.649495
100
AcDbArc
 50
101.83648
 51
208.708891
  0
ARC
  5
325
330
6B
100
AcDbEntity
  8
0
 62
     7
100
AcDbCircle
 10
-86.29892599999998
 20
14.23809
 30
0.0
 40
22.810727
100
AcDbArc
 50
97.90701300000002
 51
212.638358
  0
ARC
  5
326
330
6B
100
AcDbEntity
  8
0
 62
     7
100
AcDbCircle
 10
-86.29892599999998
 20
14.23809
 30
0.0
 40
20.649495
100
AcDbArc
 50
331.2911090000001
 51
49.472129
  0
ARC
  5
327
330
6B
100
AcDbEntity
  8
0
 62
     7
100
AcDbCircle
 10
-86.29892599999998
 20
14.23809
 30
0.0
 40
22.810727
100
AcDbArc
 50
327.361642
 51
51.178876
  0
ARC
  5
328
330
6B
100
AcDbEntity
  8
0
 62
     7
100
AcDbCircle
 10
-86.29892599999998
 20
14.23809
 30
0.0
 40
16.36875
100
AcDbArc
 50
343.448584
 51
50.95755199999999
  0
ARC
  5
329
330
6B
100
AcDbEntity
  8
0
 62
     7
100
AcDbCircle
 10
-86.29892599999998
 20
14.23809
 30
0.0
 40
15.103125
100
AcDbArc
 50
349.2637569999999
 51
53.650318
  0
ARC
  5
32A
330
6B
100
AcDbEntity
  8
0
 62
     7
100
AcDbCircle
 10
-86.29892599999998
 20
14.23809
 30
0.0
 40
16.36875
100
AcDbArc
 50
209.286402
 51
330.713598
  0
ARC
  5
32B
330
6B
100
AcDbEntity
  8
0
 62
     7
100
AcDbCircle
 10
-86.29892599999998
 20
14.23809
 30
0.0
 40
15.103125
100
AcDbArc
 50
214.851381
 51
325.148619
  0
LINE
  5
32C
330
6B
100
AcDbEntity
  8
0
 62
     7
100
AcDbLine
 10
-74.012957
 20
6.092560999999999
 30
0.0
 11
-74.50403299999996
 21
6.376084999999998
 31
0.0
  0
ARC
  5
32D
330
6B
100
AcDbEntity
  8
0
 62
     7
100
AcDbCircle
 10
-70.920023
 20
5.359075999999999
 30
0.0
 40
0.675
100
AcDbArc
 50
185.2984689999999
 51
224.15616
  0
CIRCLE
  5
32E
330
6B
100
AcDbEntity
  8
0
 62
     7
100
AcDbCircle
 10
-74.023099
 20
7.150638
 30
0.0
 40
0.421875
  0
ARC
  5
32F
330
6B
100
AcDbEntity
  8
0
 62
     7
100
AcDbCircle
 10
-74.18170699999997
 20
5.800277999999997
 30
0.0
 40
0.3375
100
AcDbArc
 50
325.148619
 51
60.0
  0
ARC
  5
330
330
6B
100
AcDbEntity
  8
0
 62
     7
100
AcDbCircle
 10
-74.023016
 20
7.150589999999997
 30
0.0
 40
0.9117219999999999
100
AcDbArc
 50
58.15707899999998
 51
241.842921
  0
LINE
  5
331
330
6B
100
AcDbEntity
  8
0
 62
     7
100
AcDbLine
 10
-73.10170699999998
 20
7.670892999999997
 30
0.0
 11
-73.59278299999998
 21
7.954416
 31
0.0
  0
ARC
  5
332
330
6B
100
AcDbEntity
  8
0
 62
     7
100
AcDbCircle
 10
-72.932957
 20
7.963175999999998
 30
0.0
 40
0.3375
100
AcDbArc
 50
240.0
 51
334.851381
  0
ARC
  5
333
330
6B
100
AcDbEntity
  8
0
 62
     7
100
AcDbCircle
 10
-101.67783
 20
5.359075999999999
 30
0.0
 40
0.675
100
AcDbArc
 50
315.8438399999998
 51
354.701531
  0
CIRCLE
  5
334
330
6B
100
AcDbEntity
  8
0
 62
     7
100
AcDbCircle
 10
-98.574754
 20
7.150638
 30
0.0
 40
0.421875
  0
LINE
  5
335
330
6B
100
AcDbEntity
  8
0
 62
     7
100
AcDbLine
 10
-99.496146
 20
7.670892999999997
 30
0.0
 11
-99.005069
 21
7.954416
 31
0.0
  0
LINE
  5
336
330
6B
100
AcDbEntity
  8
0
 62
     7
100
AcDbLine
 10
-98.584896
 20
6.092560999999999
 30
0.0
 11
-98.093819
 21
6.376084999999998
 31
0.0
  0
ARC
  5
337
330
6B
100
AcDbEntity
  8
0
 62
     7
100
AcDbCircle
 10
-98.574836
 20
7.150589999999997
 30
0.0
 40
0.9117219999999999
100
AcDbArc
 50
298.157079
 51
121.842921
  0
ARC
  5
338
330
6B
100
AcDbEntity
  8
0
 62
     7
100
AcDbCircle
 10
-99.664896
 20
7.963175999999998
 30
0.0
 40
0.3375
100
AcDbArc
 50
227.591053
 51
300.0
  0
ARC
  5
339
330
6B
100
AcDbEntity
  8
0
 62
     7
100
AcDbCircle
 10
-98.41614599999998
 20
5.800277999999997
 30
0.0
 40
0.3375
100
AcDbArc
 50
120.0
 51
214.851381
  0
ARC
  5
33A
330
6B
100
AcDbEntity
  8
0
 62
     7
100
AcDbCircle
 10
-86.29892599999998
 20
14.23809
 30
0.0
 40
22.810727
100
AcDbArc
 50
220.3338930000001
 51
319.666107
  0
ARC
  5
33B
330
6B
100
AcDbEntity
  8
0
 62
     7
100
AcDbCircle
 10
-86.29892599999998
 20
14.23809
 30
0.0
 40
20.649495
100
AcDbArc
 50
217.511916
 51
322.4880839999999
  0
ARC
  5
33C
330
6B
100
AcDbEntity
  8
0
 62
     7
100
AcDbCircle
 10
-86.29892599999998
 20
14.23809
 30
0.0
 40
15.103125
100
AcDbArc
 50
119.809128
 51
190.736243
  0
ARC
  5
33D
330
6B
100
AcDbEntity
  8
0
 62
     7
100
AcDbCircle
 10
-86.29892599999998
 20
14.23809
 30
0.0
 40
16.36875
100
AcDbArc
 50
113.993955
 51
196.551416
  0
CIRCLE
  5
33E
330
6B
100
AcDbEntity
  8
0
 62
     7
100
AcDbCircle
 10
-86.29892599999998
 20
28.412995
 30
0.0
 40
0.421875
  0
ARC
  5
33F
330
6B
100
AcDbEntity
  8
0
 62
     7
100
AcDbCircle
 10
-86.29892599999998
 20
14.23809
 30
0.0
 40
15.103125
100
AcDbArc
 50
94.85138100000002
 51
104.82861
  0
ARC
  5
340
330
6B
100
AcDbEntity
  8
0
 62
     7
100
AcDbCircle
 10
-86.29892599999998
 20
14.23809
 30
0.0
 40
15.103125
100
AcDbArc
 50
75.17139
 51
85.14861899999997
  0
ARC
  5
341
330
6B
100
AcDbEntity
  8
0
 62
     7
100
AcDbCircle
 10
-86.29892599999998
 20
14.23809
 30
0.0
 40
16.36875
100
AcDbArc
 50
78.74103100000002
 51
101.258969
  0
LINE
  5
342
330
6B
100
AcDbEntity
  8
0
 62
     7
100
AcDbLine
 10
-87.210176
 20
28.950816
 30
0.0
 11
-87.210176
 21
28.38377
 31
0.0
  0
ARC
  5
343
330
6B
100
AcDbEntity
  8
0
 62
     7
100
AcDbCircle
 10
-86.29892599999998
 20
28.41309000000001
 30
0.0
 40
0.9117219999999999
100
AcDbArc
 50
178.157079
 51
1.842920999999999
  0
LINE
  5
344
330
6B
100
AcDbEntity
  8
0
 62
     7
100
AcDbLine
 10
-85.38767599999998
 20
28.950816
 30
0.0
 11
-85.38767599999998
 21
28.38377
 31
0.0
  0
ARC
  5
345
330
6B
100
AcDbEntity
  8
0
 62
     7
100
AcDbCircle
 10
-85.050176
 20
28.950816
 30
0.0
 40
0.3375
100
AcDbArc
 50
85.14861899999997
 51
180.0
  0
ARC
  5
346
330
6B
100
AcDbEntity
  8
0
 62
     7
100
AcDbCircle
 10
-87.547676
 20
28.950816
 30
0.0
 40
0.3375
100
AcDbArc
 50
0.0
 51
94.85138100000002
  0
ARC
  5
347
330
6B
100
AcDbEntity
  8
0
 62
     7
100
AcDbCircle
 10
-86.29892599999998
 20
14.23809
 30
0.0
 40
16.36875
100
AcDbArc
 50
61.702448
 51
66.006045
  0
LINE
  5
348
330
6B
100
AcDbEntity
  8
0
 62
     3
100
AcDbLine
 10
-86.29892599999998
 20
37.231483
 30
0.0
 11
-112.046634
 21
-18.677825
 31
0.0
  0
LINE
  5
349
330
6B
100
AcDbEntity
  8
0
 62
     3
100
AcDbLine
 10
-87.775916
 20
40.43866
 30
0.0
 11
-114.527392
 21
-17.650261
 31
0.0
  0
LINE
  5
34A
330
6B
100
AcDbEntity
  8
0
 62
     3
100
AcDbLine
 10
-60.56811800000001
 20
-18.641128
 30
0.0
 11
-80.68986800000002
 21
25.051813
 31
0.0
  0
LINE
  5
34B
330
6B
100
AcDbEntity
  8
0
 62
     3
100
AcDbLine
 10
-58.08735999999999
 20
-17.61356499999999
 30
0.0
 11
-78.19929599999998
 21
26.058069
 31
0.0
  0
LINE
  5
34C
330
6B
100
AcDbEntity
  8
0
 62
     3
100
AcDbLine
 10
-81.74989100000003
 20
27.353577
 30
0.0
 11
-91.951154
 21
49.504893
 31
0.0
  0
LINE
  5
34F
330
6B
100
AcDbEntity
  8
0
 62
     3
100
AcDbLine
 10
112.7006
 20
-73.27113299999996
 30
0.0
 11
112.7006
 21
-50.27113299999999
 31
0.0
  0
LINE
  5
351
330
6B
100
AcDbEntity
  8
0
 62
     3
100
AcDbLine
 10
59.646991
 20
-80.27113299999998
 30
0.0
 11
59.646991
 21
-66.27113299999999
 31
0.0
  0
TEXT
  5
353
330
6B
100
AcDbEntity
  8
0
 62
     3
100
AcDbText
 10
88.710918
 20
-54.066017
 30
0.0
 40
2.0
  1
A
 41
0.7
100
AcDbText
  0
TEXT
  5
354
330
6B
100
AcDbEntity
  8
0
 62
     3
100
AcDbText
 10
91.246205
 20
-54.066017
 30
0.0
 40
2.0
  1
P
 41
0.7
100
AcDbText
  0
TEXT
  5
355
330
6B
100
AcDbEntity
  8
0
 62
     3
100
AcDbText
 10
93.78149099999999
 20
-54.066017
 30
0.0
 40
2.0
  1
P
 41
0.7
100
AcDbText
  0
TEXT
  5
356
330
6B
100
AcDbEntity
  8
0
 62
     3
100
AcDbText
 10
96.316777
 20
-54.066017
 30
0.0
 40
2.0
  1
D
 41
0.7
100
AcDbText
  0
TEXT
  5
357
330
6B
100
AcDbEntity
  8
0
 62
     3
100
AcDbText
 10
101.68546
 20
-54.066017
 30
0.0
 40
2.0
  1
C
 41
0.7
100
AcDbText
  0
TEXT
  5
358
330
6B
100
AcDbEntity
  8
0
 62
     3
100
AcDbText
 10
104.220746
 20
-54.066017
 30
0.0
 40
2.0
  1
H
 41
0.7
100
AcDbText
  0
TEXT
  5
359
330
6B
100
AcDbEntity
  8
0
 62
     3
100
AcDbText
 10
106.756033
 20
-54.066017
 30
0.0
 40
2.0
  1
C
 41
0.7
100
AcDbText
  0
TEXT
  5
35A
330
6B
100
AcDbEntity
  8
0
 62
     3
100
AcDbText
 10
109.291319
 20
-54.066017
 30
0.0
 40
2.0
  1
K
 41
0.7
100
AcDbText
  0
TEXT
  5
35B
330
6B
100
AcDbEntity
  8
0
 62
     3
100
AcDbText
 10
114.965285
 20
-54.066017
 30
0.0
 40
2.0
  1
DESN
 41
1.216762999999998
100
AcDbText
  0
TEXT
  5
35C
330
6B
100
AcDbEntity
  8
0
 62
     3
100
AcDbText
 10
29.958927
 20
-83.412515
 30
0.0
 40
2.0
  1
NICHIDO IND.CO.LTD
 41
1.274876
100
AcDbText
  0
LINE
  5
35D
330
6B
100
AcDbEntity
  8
0
 62
     3
100
AcDbLine
 10
40.341956
 20
-50.27113299999999
 30
0.0
 11
40.341956
 21
-73.27113299999996
 31
0.0
  0
LINE
  5
35E
330
6B
100
AcDbEntity
  8
0
 62
     3
100
AcDbLine
 10
86.70059999999997
 20
-50.27113299999999
 30
0.0
 11
86.70059999999997
 21
-89.936856
 31
0.0
  0
LINE
  5
363
330
6B
100
AcDbEntity
  8
0
 62
     3
100
AcDbLine
 10
99.7006
 20
-50.27113299999999
 30
0.0
 11
99.7006
 21
-80.27113299999998
 31
0.0
  0
TEXT
  5
364
330
6B
100
AcDbEntity
  8
0
 62
     3
100
AcDbText
 10
87.81304499999995
 20
-79.406446
 30
0.0
 40
3.2
  1
作成日
 41
1.017225999999997
100
AcDbText
  0
LINE
  5
365
330
6B
100
AcDbEntity
  8
0
 62
     3
100
AcDbLine
 10
138.399964
 20
-50.27113299999999
 30
0.0
 11
27.096521
 21
-50.27113299999999
 31
0.0
  0
LINE
  5
366
330
6B
100
AcDbEntity
  8
0
 62
     3
100
AcDbLine
 10
125.7006
 20
-73.27113299999996
 30
0.0
 11
125.7006
 21
-50.27113299999999
 31
0.0
  0
TEXT
  5
367
330
6B
100
AcDbEntity
  8
0
 62
     3
100
AcDbText
 10
129.024404
 20
-53.980199
 30
0.0
 40
1.8
  1
D
 41
0.666667
100
AcDbText
  0
TEXT
  5
368
330
6B
100
AcDbEntity
  8
0
 62
     3
100
AcDbText
 10
131.841032
 20
-53.980199
 30
0.0
 40
1.8
  1
E
 41
0.666667
100
AcDbText
  0
TEXT
  5
369
330
6B
100
AcDbEntity
  8
0
 62
     3
100
AcDbText
 10
134.65766
 20
-53.980199
 30
0.0
 40
1.8
  1
F
 41
0.666667
100
AcDbText
  0
TEXT
  5
36A
330
6B
100
AcDbEntity
  8
0
 62
     3
100
AcDbText
 10
129.024404
 20
-57.972752
 30
0.0
 40
3.2
  1
製図
 41
1.076369
100
AcDbText
  0
LINE
  5
36B
330
6B
100
AcDbEntity
  8
0
 62
     3
100
AcDbLine
 10
27.096521
 20
-50.27113299999999
 30
0.0
 11
27.096521
 21
-89.936856
 31
0.0
  0
TEXT
  5
36C
330
6B
100
AcDbEntity
  8
0
 62
     3
100
AcDbText
 10
28.473174
 20
-89.60439
 30
0.0
 40
5.0
  1
日動工業株式会社
 41
0.833333
100
AcDbText
  0
LINE
  5
36D
330
6B
100
AcDbEntity
  8
0
 62
     3
100
AcDbLine
 10
69.97892500000002
 20
-66.271133
 30
0.0
 11
69.978925
 21
-89.936856
 31
0.0
  0
LINE
  5
36E
330
6B
100
AcDbEntity
  8
0
 62
     3
100
AcDbLine
 10
69.978925
 20
-85.103994
 30
0.0
 11
86.70059999999997
 21
-85.103994
 31
0.0
  0
TEXT
  5
36F
330
6B
100
AcDbEntity
  8
0
 62
     3
100
AcDbText
 10
70.565527
 20
-84.28756400000002
 30
0.0
 40
3.2
  1
出図コード
 41
0.8356860000000002
100
AcDbText
  0
LINE
  5
371
330
6B
100
AcDbEntity
  8
0
 62
     3
100
AcDbLine
 10
27.096521
 20
-80.27113299999998
 30
0.0
 11
138.399964
 21
-80.27113299999998
 31
0.0
  0
LINE
  5
373
330
6B
100
AcDbEntity
  8
0
 62
     3
100
AcDbLine
 10
27.096521
 20
-59.271133
 30
0.0
 11
138.399964
 21
-59.271133
 31
0.0
  0
LINE
  5
379
330
6B
100
AcDbEntity
  8
0
 62
     3
100
AcDbLine
 10
27.096521
 20
-66.27113299999999
 30
0.0
 11
86.70059999999997
 21
-66.27113299999999
 31
0.0
  0
LINE
  5
37F
330
6B
100
AcDbEntity
  8
0
 62
     3
100
AcDbLine
 10
27.096521
 20
-73.27113299999996
 30
0.0
 11
138.399964
 21
-73.27113299999996
 31
0.0
  0
TEXT
  5
380
330
6B
100
AcDbEntity
  8
0
 62
     3
100
AcDbText
 10
70.432979
 20
-89.334661
 30
0.0
 40
3.2
  1
ZK-A4X
 41
0.8112849999999999
100
AcDbText
  0
TEXT
  5
381
330
6B
100
AcDbEntity
  8
0
 62
     3
100
AcDbText
 10
28.913918
 20
-54.10160699999998
 30
0.0
 40
2.0
  1
CONPONENTS
 41
0.5331600000000001
100
AcDbText
  0
TEXT
  5
382
330
6B
100
AcDbEntity
  8
0
 62
     3
100
AcDbText
 10
28.564192
 20
-73.03378399999998
 30
0.0
 40
3.0
  1
材
 41
0.833333
100
AcDbText
  0
TEXT
  5
383
330
6B
100
AcDbEntity
  8
0
 62
     3
100
AcDbText
 10
36.099834
 20
-73.03378399999998
 30
0.0
 40
3.0
  1
質
 41
0.833333
100
AcDbText
  0
TEXT
  5
384
330
6B
100
AcDbEntity
  8
0
 62
     3
100
AcDbText
 10
28.652262
 20
-62.40925999999999
 30
0.0
 40
2.0
  1
MODEL
 41
1.031072999999999
100
AcDbText
  0
TEXT
  5
385
330
6B
100
AcDbEntity
  8
0
 62
     3
100
AcDbText
 10
28.564192
 20
-69.351476
 30
0.0
 40
2.0
  1
MATERIAL
 41
0.659278
100
AcDbText
  0
TEXT
  5
386
330
6B
100
AcDbEntity
  8
0
 62
     3
100
AcDbText
 10
59.87147199999999
 20
-73.03378399999998
 30
0.0
 40
3.0
  1
備
 41
0.833333
100
AcDbText
  0
TEXT
  5
387
330
6B
100
AcDbEntity
  8
0
 62
     3
100
AcDbText
 10
66.604474
 20
-73.03378399999998
 30
0.0
 40
3.0
  1
考
 41
0.833333
100
AcDbText
  0
TEXT
  5
388
330
6B
100
AcDbEntity
  8
0
 62
     3
100
AcDbText
 10
60.21612738799047
 20
-69.351476
 30
0.0
 40
2.0
  1
REMARKS
 41
0.675794
100
AcDbText
  0
TEXT
  5
389
330
6B
100
AcDbEntity
  8
0
 62
     3
100
AcDbText
 10
30.153921
 20
-76.27159699999999
 30
0.0
 40
2.0
  1
3AD
 41
1.42614
100
AcDbText
  0
TEXT
  5
38A
330
6B
100
AcDbEntity
  8
0
 62
     3
100
AcDbText
 10
39.4649
 20
-76.105863
 30
0.0
 40
2.0
  1
ANGLE
 41
1.669883999999995
100
AcDbText
  0
TEXT
  5
38B
330
6B
100
AcDbEntity
  8
0
 62
     3
100
AcDbText
 10
60.398787
 20
-76.482704
 30
0.0
 40
2.0
  1
SCALE
 41
0.7719630000000001
100
AcDbText
  0
TEXT
  5
38C
330
6B
100
AcDbEntity
  8
0
 62
     3
100
AcDbText
 10
29.84005
 20
-80.27113299999998
 30
0.0
 40
3.0
  1
第
 41
0.833333
100
AcDbText
  0
TEXT
  5
38D
330
6B
100
AcDbEntity
  8
0
 62
     3
100
AcDbText
 10
37.6269
 20
-80.27113299999998
 30
0.0
 40
3.0
  1
三
 41
0.833333
100
AcDbText
  0
TEXT
  5
38E
330
6B
100
AcDbEntity
  8
0
 62
     3
100
AcDbText
 10
45.41375
 20
-80.27113299999998
 30
0.0
 40
3.0
  1
角
 41
0.833333
100
AcDbText
  0
TEXT
  5
38F
330
6B
100
AcDbEntity
  8
0
 62
     3
100
AcDbText
 10
53.2006
 20
-80.27113299999998
 30
0.0
 40
3.0
  1
法
 41
0.833333
100
AcDbText
  0
TEXT
  5
390
330
6B
100
AcDbEntity
  8
0
 62
     3
100
AcDbText
 10
60.261992
 20
-79.982704
 30
0.0
 40
3.0
  1
尺
 41
0.833333
100
AcDbText
  0
TEXT
  5
391
330
6B
100
AcDbEntity
  8
0
 62
     3
100
AcDbText
 10
66.99499399999999
 20
-79.982704
 30
0.0
 40
3.0
  1
度
 41
0.833333
100
AcDbText
  0
TEXT
  5
392
330
6B
100
AcDbEntity
  8
0
 62
     3
100
AcDbText
 10
89.57826500000002
 20
-57.81340400000001
 30
0.0
 40
3.0
  1
承認
 41
1.089472999999999
100
AcDbText
  0
TEXT
  5
393
330
6B
100
AcDbEntity
  8
0
 62
     3
100
AcDbText
 10
102.821145
 20
-57.87113299999999
 30
0.0
 40
3.0
  1
検図
 41
0.931761
100
AcDbText
  0
TEXT
  5
394
330
6B
100
AcDbEntity
  8
0
 62
     3
100
AcDbText
 10
115.821542
 20
-57.87113299999999
 30
0.0
 40
3.0
  1
設
 41
0.833333
100
AcDbText
  0
TEXT
  5
395
330
6B
100
AcDbEntity
  8
0
 62
     3
100
AcDbText
 10
120.31141
 20
-57.87113299999999
 30
0.0
 40
3.0
  1
計
 41
0.833333
100
AcDbText
  0
TEXT
  5
396
330
6B
100
AcDbEntity
  8
0
 62
     3
100
AcDbText
 10
28.84539
 20
-58.582377
 30
0.0
 40
3.0
  1
品
 41
0.833333
100
AcDbText
  0
TEXT
  5
397
330
6B
100
AcDbEntity
  8
0
 62
     3
100
AcDbText
 10
36.381032
 20
-58.582377
 30
0.0
 40
3.0
  1
名
 41
0.833333
100
AcDbText
  0
TEXT
  5
398
330
6B
100
AcDbEntity
  8
0
 62
     3
100
AcDbText
 10
28.652262
 20
-66.04151999999999
 30
0.0
 40
3.0
  1
型
 41
0.833333
100
AcDbText
  0
TEXT
  5
399
330
6B
100
AcDbEntity
  8
0
 62
     3
100
AcDbText
 10
36.200353
 20
-66.04151999999999
 30
0.0
 40
3.0
  1
式
 41
0.833333
100
AcDbText
  0
TEXT
  5
39A
330
6B
100
AcDbEntity
  8
0
 62
     3
100
AcDbText
 10
-42.14254312873698
 20
-89.50000000000001
 30
0.0
 40
2.5
  1
個数
 41
0.8
  7
高2.5
100
AcDbText
  0
TEXT
  5
39B
330
6B
100
AcDbEntity
  8
0
 62
     3
100
AcDbText
 10
-137.0
 20
-89.50000000000001
 30
0.0
 40
2.5
  1
NO
 41
0.8
  7
高2.5
100
AcDbText
  0
TEXT
  5
39C
330
6B
100
AcDbEntity
  8
0
 62
     3
100
AcDbText
 10
-131.3119094503204
 20
-89.50000000000001
 30
0.0
 40
2.5
  1
部　品　名
 41
0.8
  7
高2.5
100
AcDbText
  0
TEXT
  5
39D
330
6B
100
AcDbEntity
  8
0
 62
     3
100
AcDbText
 10
-107.7476050023762
 20
-89.50000000000001
 30
0.0
 40
2.5
  1
材　　　質
 41
0.8
  7
高2.5
100
AcDbText
  0
TEXT
  5
39E
330
6B
100
AcDbEntity
  8
0
 62
     3
100
AcDbText
 10
-85.1549555979048
 20
-89.50000000000001
 30
0.0
 40
2.5
  1
仕　　　様
 41
0.8
  7
高2.5
100
AcDbText
  0
LINE
  5
39F
330
6B
100
AcDbEntity
  8
0
 62
     7
100
AcDbLine
 10
-36.90013743989452
 20
-45.99999999999999
 30
0.0
 11
-36.90013743989452
 21
-90.0
 31
0.0
  0
TEXT
  5
3A1
330
6B
100
AcDbEntity
  8
0
 62
     3
100
AcDbText
 10
-85.1549555979048
 20
-65.5
 30
0.0
 40
2.5
  1
4.5t（クロメートメッキ処理）
 41
0.8
  7
高2.5
100
AcDbText
  0
TEXT
  5
3A2
330
6B
100
AcDbEntity
  8
0
 62
     3
100
AcDbText
 10
-85.1549555979048
 20
-53.50000000000001
 30
0.0
 40
2.5
  1
%%C8x296xM5(オス メスタイプ) 
 41
0.8
  7
高2.5
100
AcDbText
  0
TEXT
  5
3A3
330
6B
100
AcDbEntity
  8
0
 62
     3
100
AcDbText
 10
-42.14254312873698
 20
-85.5
 30
0.0
 40
2.5
  1
1
 41
0.8
  7
高2.5
100
AcDbText
  0
TEXT
  5
3A4
330
6B
100
AcDbEntity
  8
0
 62
     3
100
AcDbText
 10
-42.14254312873698
 20
-69.5
 30
0.0
 40
2.5
  1
1
 41
0.8
  7
高2.5
100
AcDbText
  0
TEXT
  5
3A5
330
6B
100
AcDbEntity
  8
0
 62
     3
100
AcDbText
 10
-42.14254312873698
 20
-73.50000000000001
 30
0.0
 40
2.5
  1
1
 41
0.8
  7
高2.5
100
AcDbText
  0
TEXT
  5
3A6
330
6B
100
AcDbEntity
  8
0
 62
     3
100
AcDbText
 10
-85.1549555979048
 20
-49.5
 30
0.0
 40
2.5
  1
DS-01
 41
0.8
  7
高2.5
100
AcDbText
  0
TEXT
  5
3A7
330
6B
100
AcDbEntity
  8
0
 62
     3
100
AcDbText
 10
-42.14254312873698
 20
-65.5
 30
0.0
 40
2.5
  1
1
 41
0.8
  7
高2.5
100
AcDbText
  0
TEXT
  5
3A8
330
6B
100
AcDbEntity
  8
0
 62
     3
100
AcDbText
 10
-42.14254312873698
 20
-61.5
 30
0.0
 40
2.5
  1
1
 41
0.8
  7
高2.5
100
AcDbText
  0
TEXT
  5
3AB
330
6B
100
AcDbEntity
  8
0
 62
     3
100
AcDbText
 10
-42.14254312873698
 20
-77.5
 30
0.0
 40
2.5
  1
2
 41
0.8
  7
高2.5
100
AcDbText
  0
TEXT
  5
3AC
330
6B
100
AcDbEntity
  8
0
 62
     3
100
AcDbText
 10
-42.14254312873698
 20
-81.5
 30
0.0
 40
2.5
  1
2
 41
0.8
  7
高2.5
100
AcDbText
  0
TEXT
  5
3B0
330
6B
100
AcDbEntity
  8
0
 62
     3
100
AcDbText
 10
-85.1549555979048
 20
-73.5
 30
0.0
 40
2.5
  1
%%C180x296x1t（ボンデ鋼板）
 41
0.8
  7
高2.5
100
AcDbText
  0
LINE
  5
3B1
330
6B
100
AcDbEntity
  8
0
 62
     7
100
AcDbLine
 10
-43.64254312873697
 20
-45.99999999999999
 30
0.0
 11
-43.64254312873697
 21
-90.0
 31
0.0
  0
TEXT
  5
3B2
330
6B
100
AcDbEntity
  8
0
 62
     3
100
AcDbText
 10
-42.14254312873698
 20
-49.5
 30
0.0
 40
2.5
  1
1
 41
0.8
  7
高2.5
100
AcDbText
  0
TEXT
  5
3B4
330
6B
100
AcDbEntity
  8
0
 62
     3
100
AcDbText
 10
-42.14254312873698
 20
-57.5
 30
0.0
 40
2.5
  1
1
 41
0.8
  7
高2.5
100
AcDbText
  0
TEXT
  5
3B5
330
6B
100
AcDbEntity
  8
0
 62
     3
100
AcDbText
 10
-42.14254312873698
 20
-53.50000000000001
 30
0.0
 40
2.5
  1
3
 41
0.8
  7
高2.5
100
AcDbText
  0
TEXT
  5
3B7
330
6B
100
AcDbEntity
  8
0
 62
     3
100
AcDbText
 10
-131.3119094503204
 20
-61.50000000000001
 30
0.0
 40
2.5
  1
オリタタミハンドル
 41
0.8
  7
高2.5
100
AcDbText
  0
TEXT
  5
3B8
330
6B
100
AcDbEntity
  8
0
 62
     3
100
AcDbText
 10
-131.3119094503204
 20
-65.5
 30
0.0
 40
2.5
  1
ハンドルレバー
 41
0.8
  7
高2.5
100
AcDbText
  0
TEXT
  5
3B9
330
6B
100
AcDbEntity
  8
0
 62
     3
100
AcDbText
 10
-131.3119094503204
 20
-77.5
 30
0.0
 40
2.5
  1
ボスフランジ
 41
0.8
  7
高2.5
100
AcDbText
  0
TEXT
  5
3BA
330
6B
100
AcDbEntity
  8
0
 62
     3
100
AcDbText
 10
-131.3119094503204
 20
-69.49999999999999
 30
0.0
 40
2.5
  1
シャフト
 41
0.8
  7
高2.5
100
AcDbText
  0
TEXT
  5
3BB
330
6B
100
AcDbEntity
  8
0
 62
     3
100
AcDbText
 10
-131.3119094503204
 20
-53.50000000000002
 30
0.0
 40
2.5
  1
組立ボルト
 41
0.8
  7
高2.5
100
AcDbText
  0
TEXT
  5
3BC
330
6B
100
AcDbEntity
  8
0
 62
     3
100
AcDbText
 10
-107.7476050023762
 20
-85.5
 30
0.0
 40
2.5
  1
STKM
 41
0.8
  7
高2.5
100
AcDbText
  0
TEXT
  5
3BD
330
6B
100
AcDbEntity
  8
0
 62
     3
100
AcDbText
 10
-107.7476050023762
 20
-81.5
 30
0.0
 40
2.5
  1
SPCC
 41
0.8
  7
高2.5
100
AcDbText
  0
TEXT
  5
3BE
330
6B
100
AcDbEntity
  8
0
 62
     3
100
AcDbText
 10
-131.3119094503204
 20
-85.5
 30
0.0
 40
2.5
  1
フレーム
 41
0.8
  7
高2.5
100
AcDbText
  0
TEXT
  5
3BF
330
6B
100
AcDbEntity
  8
0
 62
     3
100
AcDbText
 10
-131.3119094503204
 20
-49.5
 30
0.0
 40
2.5
  1
ドラムストッパー
 41
0.8
  7
高2.5
100
AcDbText
  0
TEXT
  5
3C0
330
6B
100
AcDbEntity
  8
0
 62
     3
100
AcDbText
 10
-137.0
 20
-85.5
 30
0.0
 40
2.5
  1
1
 41
0.8
  7
高2.5
100
AcDbText
  0
TEXT
  5
3C1
330
6B
100
AcDbEntity
  8
0
 62
     3
100
AcDbText
 10
-137.0
 20
-81.5
 30
0.0
 40
2.5
  1
2
 41
0.8
  7
高2.5
100
AcDbText
  0
TEXT
  5
3C2
330
6B
100
AcDbEntity
  8
0
 62
     3
100
AcDbText
 10
-137.0
 20
-73.5
 30
0.0
 40
2.5
  1
3
 41
0.8
  7
高2.5
100
AcDbText
  0
TEXT
  5
3C3
330
6B
100
AcDbEntity
  8
0
 62
     3
100
AcDbText
 10
-137.0
 20
-69.49999999999999
 30
0.0
 40
2.5
  1
4
 41
0.8
  7
高2.5
100
AcDbText
  0
TEXT
  5
3C4
330
6B
100
AcDbEntity
  8
0
 62
     3
100
AcDbText
 10
-137.0
 20
-65.5
 30
0.0
 40
2.5
  1
5
 41
0.8
  7
高2.5
100
AcDbText
  0
TEXT
  5
3C5
330
6B
100
AcDbEntity
  8
0
 62
     3
100
AcDbText
 10
-137.0
 20
-61.50000000000001
 30
0.0
 40
2.5
  1
6
 41
0.8
  7
高2.5
100
AcDbText
  0
TEXT
  5
3C6
330
6B
100
AcDbEntity
  8
0
 62
     3
100
AcDbText
 10
-137.0
 20
-57.5
 30
0.0
 40
2.5
  1
7
 41
0.8
  7
高2.5
100
AcDbText
  0
TEXT
  5
3C7
330
6B
100
AcDbEntity
  8
0
 62
     3
100
AcDbText
 10
-137.0
 20
-53.50000000000002
 30
0.0
 40
2.5
  1
8
 41
0.8
  7
高2.5
100
AcDbText
  0
TEXT
  5
3C8
330
6B
100
AcDbEntity
  8
0
 62
     3
100
AcDbText
 10
-137.0
 20
-49.5
 30
0.0
 40
2.5
  1
9
 41
0.8
  7
高2.5
100
AcDbText
  0
TEXT
  5
3C9
330
6B
100
AcDbEntity
  8
0
 62
     3
100
AcDbText
 10
-85.1549555979048
 20
-81.5
 30
0.0
 40
2.5
  1
塗装色：エメラルドグリーン D-00
 41
0.8
  7
高2.5
100
AcDbText
  0
TEXT
  5
3CA
330
6B
100
AcDbEntity
  8
0
 62
     3
100
AcDbText
 10
-131.3119094503204
 20
-73.5
 30
0.0
 40
2.5
  1
巻　　胴
 41
0.8
  7
高2.5
100
AcDbText
  0
TEXT
  5
3CB
330
6B
100
AcDbEntity
  8
0
 62
     3
100
AcDbText
 10
-85.1549555979048
 20
-77.5
 30
0.0
 40
2.5
  1
%%C50x33 DH-B-01
 41
0.8
  7
高2.5
100
AcDbText
  0
TEXT
  5
3CC
330
6B
100
AcDbEntity
  8
0
 62
     3
100
AcDbText
 10
-107.7476050023762
 20
-73.5
 30
0.0
 40
2.5
  1
SPCC
 41
0.8
  7
高2.5
100
AcDbText
  0
TEXT
  5
3CD
330
6B
100
AcDbEntity
  8
0
 62
     3
100
AcDbText
 10
-107.7476050023762
 20
-77.5
 30
0.0
 40
2.5
  1
SS400
 41
0.8
  7
高2.5
100
AcDbText
  0
TEXT
  5
3CE
330
6B
100
AcDbEntity
  8
0
 62
     3
100
AcDbText
 10
-107.7476050023762
 20
-65.5
 30
0.0
 40
2.5
  1
SS400
 41
0.8
  7
高2.5
100
AcDbText
  0
TEXT
  5
3CF
330
6B
100
AcDbEntity
  8
0
 62
     3
100
AcDbText
 10
-107.7476050023762
 20
-53.50000000000001
 30
0.0
 40
2.5
  1
SS400
 41
0.8
  7
高2.5
100
AcDbText
  0
TEXT
  5
3D0
330
6B
100
AcDbEntity
  8
0
 62
     3
100
AcDbText
 10
-107.7476050023762
 20
-69.49999999999999
 30
0.0
 40
2.5
  1
SS400
 41
0.8
  7
高2.5
100
AcDbText
  0
TEXT
  5
3D1
330
6B
100
AcDbEntity
  8
0
 62
     3
100
AcDbText
 10
-85.1549555979048
 20
-69.49999999999999
 30
0.0
 40
2.5
  1
%%C16x417 DH-SF-01
 41
0.8
  7
高2.5
100
AcDbText
  0
TEXT
  5
3D2
330
6B
100
AcDbEntity
  8
0
 62
     3
100
AcDbText
 10
-85.1549555979048
 20
-61.5
 30
0.0
 40
2.5
  1
M8ナット H-03
 41
0.8
  7
高2.5
100
AcDbText
  0
TEXT
  5
3D3
330
6B
100
AcDbEntity
  8
0
 62
     3
100
AcDbText
 10
-131.3119094503204
 20
-81.5
 30
0.0
 40
2.5
  1
側板（A板,B板）
 41
0.8
  7
高2.5
100
AcDbText
  0
TEXT
  5
3D4
330
6B
100
AcDbEntity
  8
0
 62
     3
100
AcDbText
 10
-131.3119094503204
 20
-57.5
 30
0.0
 40
2.5
  1
袋ナット
 41
0.8
  7
高2.5
100
AcDbText
  0
TEXT
  5
3D5
330
6B
100
AcDbEntity
  8
0
 62
     3
100
AcDbText
 10
-85.1549555979048
 20
-57.5
 30
0.0
 40
2.5
  1
M10
 41
0.8
  7
高2.5
100
AcDbText
  0
TEXT
  5
3D6
330
6B
100
AcDbEntity
  8
0
 62
     3
100
AcDbText
 10
-107.7476050023762
 20
-57.5
 30
0.0
 40
2.5
  1
SS400
 41
0.8
  7
高2.5
100
AcDbText
  0
TEXT
  5
3D7
330
6B
100
AcDbEntity
  8
0
 62
     3
100
AcDbText
 10
-85.1549555979048
 20
-85.5
 30
0.0
 40
2.5
  1
%%C15.9x1.6t DH-300Y
 41
0.8
  7
高2.5
100
AcDbText
  0
LINE
  5
3D8
330
6B
100
AcDbEntity
  8
0
 62
     7
100
AcDbLine
 10
-86.6549555979048
 20
-45.99999999999999
 30
0.0
 11
-86.6549555979048
 21
-90.0
 31
0.0
  0
LINE
  5
3D9
330
6B
100
AcDbEntity
  8
0
 62
     7
100
AcDbLine
 10
-109.2476050023762
 20
-45.99999999999999
 30
0.0
 11
-109.2476050023762
 21
-90.0
 31
0.0
  0
LINE
  5
3DA
330
6B
100
AcDbEntity
  8
0
 62
     7
100
AcDbLine
 10
-132.8119094503204
 20
-45.99999999999999
 30
0.0
 11
-132.8119094503204
 21
-90.0
 31
0.0
  0
TEXT
  5
3DB
330
6B
100
AcDbEntity
  8
0
 62
     3
100
AcDbText
 10
-107.7476050023762
 20
-49.5
 30
0.0
 40
2.5
  1
PA樹脂
 41
0.8
  7
高2.5
100
AcDbText
  0
TEXT
  5
3DC
330
6B
100
AcDbEntity
  8
0
 62
     3
100
AcDbText
 10
-107.7476050023762
 20
-61.50000000000001
 30
0.0
 40
2.5
  1
SS400/PA樹脂
 41
0.8
  7
高2.5
100
AcDbText
  0
LINE
  5
3DD
330
6B
100
AcDbEntity
  8
0
 62
     3
100
AcDbLine
 10
86.70059999999997
 20
-50.27113299999999
 30
0.0
 11
86.70059999999997
 21
-44.271133
 31
0.0
  0
LINE
  5
3DE
330
6B
100
AcDbEntity
  8
0
 62
     3
100
AcDbLine
 10
12.87570041277604
 20
-45.99999999999996
 30
0.0
 11
-138.5
 21
-45.99999999999996
 31
0.0
  0
LINE
  5
3DF
330
6B
100
AcDbEntity
  8
0
 62
     3
100
AcDbLine
 10
12.87570041277604
 20
-86.0
 30
0.0
 11
-138.5
 21
-86.0
 31
0.0
  0
LINE
  5
3E0
330
6B
100
AcDbEntity
  8
0
 62
     7
100
AcDbLine
 10
12.87570041277604
 20
-82.0
 30
0.0
 11
-138.5
 21
-82.0
 31
0.0
  0
LINE
  5
3E1
330
6B
100
AcDbEntity
  8
0
 62
     7
100
AcDbLine
 10
-36.90013743989452
 20
-78.0
 30
0.0
 11
-132.8119094503204
 21
-78.0
 31
0.0
  0
LINE
  5
3E2
330
6B
100
AcDbEntity
  8
0
 62
     7
100
AcDbLine
 10
12.87570041277604
 20
-74.00000000000001
 30
0.0
 11
-138.5
 21
-74.0
 31
0.0
  0
LINE
  5
3E3
330
6B
100
AcDbEntity
  8
0
 62
     7
100
AcDbLine
 10
12.87570041277604
 20
-70.0
 30
0.0
 11
-138.5
 21
-69.99999999999999
 31
0.0
  0
LINE
  5
3E4
330
6B
100
AcDbEntity
  8
0
 62
     7
100
AcDbLine
 10
12.87570041277604
 20
-66.0
 30
0.0
 11
-138.5
 21
-66.0
 31
0.0
  0
LINE
  5
3E5
330
6B
100
AcDbEntity
  8
0
 62
     7
100
AcDbLine
 10
12.87570041277604
 20
-58.0
 30
0.0
 11
-138.5
 21
-58.0
 31
0.0
  0
LINE
  5
3E6
330
6B
100
AcDbEntity
  8
0
 62
     7
100
AcDbLine
 10
12.87570041277604
 20
-61.99999999999999
 30
0.0
 11
-138.5
 21
-62.00000000000001
 31
0.0
  0
LINE
  5
3E7
330
6B
100
AcDbEntity
  8
0
 62
     7
100
AcDbLine
 10
12.87570041277604
 20
-54.0
 30
0.0
 11
-138.5
 21
-54.00000000000002
 31
0.0
  0
LINE
  5
3E8
330
6B
100
AcDbEntity
  8
0
 62
     7
100
AcDbLine
 10
12.87570041277604
 20
-50.0
 30
0.0
 11
-138.5
 21
-50.0
 31
0.0
  0
LINE
  5
3E9
330
6B
100
AcDbEntity
  8
0
 62
     3
100
AcDbLine
 10
138.399964
 20
-44.271133
 30
0.0
 11
86.70059999999997
 21
-44.271133
 31
0.0
  0
TEXT
  5
3EA
330
6B
100
AcDbEntity
  8
0
 62
     3
100
AcDbText
 10
92.4318891988878
 20
-49.71504799999999
 30
0.0
 40
4.5
  1
コード
  7
高4.5
100
AcDbText
  0
LINE
  5
3EB
330
6B
100
AcDbEntity
  8
0
 62
     3
100
AcDbLine
 10
112.7006
 20
-50.27113299999999
 30
0.0
 11
112.7006
 21
-44.271133
 31
0.0
  0
TEXT
  5
3EC
330
6B
100
AcDbEntity
  8
0
 62
     3
100
AcDbText
 10
119.5391777304273
 20
-49.77277700000001
 30
0.0
 40
4.5
  1
320
  7
高4.5
100
AcDbText
  0
LWPOLYLINE
  5
3ED
330
6B
100
AcDbEntity
  8
0
 62
     7
100
AcDbPolyline
 90
        2
 70
     1
 43
0.3375
 10
39.936616
 20
16.429897
 42
1.0
 10
39.599116
 20
16.429897
 42
1.0
  0
LINE
  5
3F1
330
6B
100
AcDbEntity
  8
0
 62
     7
100
AcDbLine
 10
39.767866
 20
16.429897
 30
0.0
 11
48.91262229178207
 21
54.9949980648986
 31
0.0
  0
CIRCLE
  5
3F2
330
6B
100
AcDbEntity
  8
0
 62
     7
100
AcDbCircle
 10
49.835531
 20
58.88707199999998
 30
0.0
 40
4.0
  0
TEXT
  5
3F3
330
6B
100
AcDbEntity
  8
0
 62
     4
100
AcDbText
 10
48.35021856363758
 20
56.48576384973488
 30
0.0
 40
4.5
  1
2
  7
高4.5
100
AcDbText
  0
LWPOLYLINE
  5
3F4
330
6B
100
AcDbEntity
  8
0
 62
     7
100
AcDbPolyline
 90
        2
 70
     1
 43
0.3375
 10
44.098725
 20
15.749401
 42
1.0
 10
43.761225
 20
15.749401
 42
1.0
  0
LINE
  5
3F8
330
6B
100
AcDbEntity
  8
0
 62
     7
100
AcDbLine
 10
43.92997499999999
 20
15.749401
 30
0.0
 11
58.37539270730647
 21
55.13172798754389
 31
0.0
  0
CIRCLE
  5
3F9
330
6B
100
AcDbEntity
  8
0
 62
     7
100
AcDbCircle
 10
59.752851
 20
58.88707199999998
 30
0.0
 40
4.0
  0
TEXT
  5
3FA
330
6B
100
AcDbEntity
  8
0
 62
     4
100
AcDbText
 10
58.26753756363758
 20
56.48576384973488
 30
0.0
 40
4.5
  1
4
  7
高4.5
100
AcDbText
  0
LWPOLYLINE
  5
3FB
330
6B
100
AcDbEntity
  8
0
 62
     7
100
AcDbPolyline
 90
        2
 70
     1
 43
0.3375
 10
45.674843
 20
6.478647
 42
1.0
 10
45.337342
 20
6.478647
 42
1.0
  0
LINE
  5
3FF
330
6B
100
AcDbEntity
  8
0
 62
     7
100
AcDbLine
 10
45.50609199999999
 20
6.478647
 30
0.0
 11
67.63897829334806
 21
55.24466449718413
 31
0.0
  0
CIRCLE
  5
400
330
6B
100
AcDbEntity
  8
0
 62
     7
100
AcDbCircle
 10
69.292117
 20
58.88707199999998
 30
0.0
 40
4.0
  0
TEXT
  5
401
330
6B
100
AcDbEntity
  8
0
 62
     4
100
AcDbText
 10
67.80680356363759
 20
56.48576384973488
 30
0.0
 40
4.5
  1
5
  7
高4.5
100
AcDbText
  0
LWPOLYLINE
  5
402
330
6B
100
AcDbEntity
  8
0
 62
     7
100
AcDbPolyline
 90
        2
 70
     1
 43
0.3375
 10
53.700414
 20
-0.7775770000000001
 42
1.0
 10
53.362914
 20
-0.7775770000000001
 42
1.0
  0
LINE
  5
406
330
6B
100
AcDbEntity
  8
0
 62
     7
100
AcDbLine
 10
53.531664
 20
-0.7775770000000001
 30
0.0
 11
76.91163190840749
 21
55.19611411920871
 31
0.0
  0
CIRCLE
  5
407
330
6B
100
AcDbEntity
  8
0
 62
     7
100
AcDbCircle
 10
78.45332900000002
 20
58.88707199999998
 30
0.0
 40
4.0
  0
TEXT
  5
408
330
6B
100
AcDbEntity
  8
0
 62
     4
100
AcDbText
 10
76.96801656363759
 20
56.48576384973488
 30
0.0
 40
4.5
  1
6
  7
高4.5
100
AcDbText
  0
LWPOLYLINE
  5
409
330
6B
100
AcDbEntity
  8
0
 62
     7
100
AcDbPolyline
 90
        2
 70
     1
 43
0.3375
 10
95.648723
 20
14.301986
 42
1.0
 10
95.31122299999998
 20
14.301986
 42
1.0
  0
LINE
  5
40D
330
6B
100
AcDbEntity
  8
0
 62
     7
100
AcDbLine
 10
95.479973
 20
14.301986
 30
0.0
 11
111.2080566403898
 21
55.15417060098005
 31
0.0
  0
CIRCLE
  5
40E
330
6B
100
AcDbEntity
  8
0
 62
     7
100
AcDbCircle
 10
112.645223
 20
58.88707199999998
 30
0.0
 40
4.0
  0
TEXT
  5
40F
330
6B
100
AcDbEntity
  8
0
 62
     4
100
AcDbText
 10
111.1599105636376
 20
56.48576384973488
 30
0.0
 40
4.5
  1
7
  7
高4.5
100
AcDbText
  0
LWPOLYLINE
  5
410
330
6B
100
AcDbEntity
  8
0
 62
     7
100
AcDbPolyline
 90
        2
 70
     1
 43
0.3375
 10
-85.894873
 20
28.991391
 42
1.0
 10
-86.23237299999997
 20
28.991391
 42
1.0
  0
LINE
  5
414
330
6B
100
AcDbEntity
  8
0
 62
     7
100
AcDbLine
 10
-86.06362299999998
 20
28.991391
 30
0.0
 11
-75.59644273628933
 21
55.12419251199844
 31
0.0
  0
CIRCLE
  5
415
330
6B
100
AcDbEntity
  8
0
 62
     7
100
AcDbCircle
 10
-74.10915799999997
 20
58.83741
 30
0.0
 40
4.0
  0
TEXT
  5
416
330
6B
100
AcDbEntity
  8
0
 62
     4
100
AcDbText
 10
-75.59447043636241
 20
56.43610184973489
 30
0.0
 40
4.5
  1
8
  7
高4.5
100
AcDbText
  0
LWPOLYLINE
  5
417
330
6B
100
AcDbEntity
  8
0
 62
     7
100
AcDbPolyline
 90
        2
 70
     1
 43
0.3375
 10
-71.57716999999998
 20
35.725505
 42
1.0
 10
-71.91467
 20
35.725505
 42
1.0
  0
LINE
  5
41B
330
6B
100
AcDbEntity
  8
0
 62
     7
100
AcDbLine
 10
-71.74592
 20
35.725505
 30
0.0
 11
-64.4173319339927
 21
55.15286463198059
 31
0.0
  0
CIRCLE
  5
41C
330
6B
100
AcDbEntity
  8
0
 62
     7
100
AcDbCircle
 10
-63.00552299999999
 20
58.89543
 30
0.0
 40
4.0
  0
TEXT
  5
41D
330
6B
100
AcDbEntity
  8
0
 62
     4
100
AcDbText
 10
-64.4908354363624
 20
56.49412184973488
 30
0.0
 40
4.5
  1
9
  7
高4.5
100
AcDbText
  0
TEXT
  5
41E
330
6B
100
AcDbEntity
  8
0
 62
     3
100
AcDbText
 10
-35.40013743989452
 20
-89.50000000000001
 30
0.0
 40
2.5
  1
コード
 41
0.8
  7
高2.5
100
AcDbText
  0
LINE
  5
41F
330
6B
100
AcDbEntity
  8
0
 62
     7
100
AcDbLine
 10
-25.10289518948741
 20
-45.99999999999999
 30
0.0
 11
-25.10289518948741
 21
-90.0
 31
0.0
  0
TEXT
  5
42A
330
6B
100
AcDbEntity
  8
0
 62
     3
100
AcDbText
 10
-35.40013743989452
 20
-49.5
 30
0.0
 40
2.5
  1
50588
 41
0.8
  7
高2.5
100
AcDbText
  0
TEXT
  5
42B
330
6B
100
AcDbEntity
  8
0
 62
     3
100
AcDbText
 10
-35.40013743989452
 20
-53.50000000000001
 30
0.0
 40
2.5
  1
50041
 41
0.8
  7
高2.5
100
AcDbText
  0
TEXT
  5
42C
330
6B
100
AcDbEntity
  8
0
 62
     3
100
AcDbText
 10
-35.40013743989452
 20
-57.5
 30
0.0
 40
2.5
  1
51657
 41
0.8
  7
高2.5
100
AcDbText
  0
TEXT
  5
42D
330
6B
100
AcDbEntity
  8
0
 62
     3
100
AcDbText
 10
-35.40013743989452
 20
-61.5
 30
0.0
 40
2.5
  1
50533
 41
0.8
  7
高2.5
100
AcDbText
  0
TEXT
  5
42E
330
6B
100
AcDbEntity
  8
0
 62
     3
100
AcDbText
 10
-35.40013743989452
 20
-65.5
 30
0.0
 40
2.5
  1
50005
 41
0.8
  7
高2.5
100
AcDbText
  0
TEXT
  5
42F
330
6B
100
AcDbEntity
  8
0
 62
     3
100
AcDbText
 10
-35.40013743989452
 20
-69.5
 30
0.0
 40
2.5
  1
50721
 41
0.8
  7
高2.5
100
AcDbText
  0
TEXT
  5
430
330
6B
100
AcDbEntity
  8
0
 62
     3
100
AcDbText
 10
-35.40013743989452
 20
-73.50000000000001
 30
0.0
 40
2.5
  1
51526
 41
0.8
  7
高2.5
100
AcDbText
  0
TEXT
  5
431
330
6B
100
AcDbEntity
  8
0
 62
     3
100
AcDbText
 10
-35.40013743989452
 20
-81.5
 30
0.0
 40
2.5
  1
50807
 41
0.8
  7
高2.5
100
AcDbText
  0
TEXT
  5
432
330
6B
100
AcDbEntity
  8
0
 62
     3
100
AcDbText
 10
-35.40013743989452
 20
-85.5
 30
0.0
 40
2.5
  1
50708
 41
0.8
  7
高2.5
100
AcDbText
  0
TEXT
  5
6BC
330
6B
100
AcDbEntity
  8
0
 62
     3
100
AcDbText
 10
71.18252568983733
 20
-78.718173
 30
0.0
 40
3.2
  1
FREE
  7
高3.2
100
AcDbText
  0
LINE
  5
75B
330
6B
100
AcDbEntity
  8
0
 62
     3
100
AcDbLine
 10
12.87570041277604
 20
-45.99999999999996
 30
0.0
 11
12.87570041277604
 21
-90.0
 31
0.0
  0
TEXT
  5
76E
330
6B
100
AcDbEntity
  8
0
  6
Continuous
 62
     3
100
AcDbText
 10
-23.60289518948741
 20
-49.5
 30
0.0
 40
2.5
  1
ドラムストッパー　黄色
 41
0.6
  7
高2.5
100
AcDbText
  0
TEXT
  5
76F
330
6B
100
AcDbEntity
  8
0
  6
Continuous
 62
     3
100
AcDbText
 10
-23.60289518948741
 20
-53.50000000000001
 30
0.0
 40
2.5
  1
組立ボルト８φ312＝NDH M5クロメート
 41
0.6
  7
高2.5
100
AcDbText
  0
TEXT
  5
770
330
6B
100
AcDbEntity
  8
0
  6
Continuous
 62
     3
100
AcDbText
 10
-23.60289518948741
 20
-57.5
 30
0.0
 40
2.5
  1
袋ナット　M10三価クロメート
 41
0.6
  7
高2.5
100
AcDbText
  0
TEXT
  5
771
330
6B
100
AcDbEntity
  8
0
  6
Continuous
 62
     3
100
AcDbText
 10
-23.60289518948741
 20
-61.5
 30
0.0
 40
2.5
  1
折りタタミハンドル組立
 41
0.6
  7
高2.5
100
AcDbText
  0
TEXT
  5
772
330
6B
100
AcDbEntity
  8
0
  6
Continuous
 62
     3
100
AcDbText
 10
-23.60289518948741
 20
-65.5
 30
0.0
 40
2.5
  1
504ハンドル
 41
0.6
  7
高2.5
100
AcDbText
  0
TEXT
  5
773
330
6B
100
AcDbEntity
  8
0
  6
Continuous
 62
     3
100
AcDbText
 10
-23.60289518948741
 20
-69.5
 30
0.0
 40
2.5
  1
NDHシャフトφ16x417
 41
0.6
  7
高2.5
100
AcDbText
  0
TEXT
  5
774
330
6B
100
AcDbEntity
  8
0
  6
Continuous
 62
     3
100
AcDbText
 10
-23.60289518948741
 20
-73.50000000000001
 30
0.0
 40
2.5
  1
ボンデ1.0x575x296(NDH)
 41
0.6
  7
高2.5
100
AcDbText
  0
TEXT
  5
775
330
6B
100
AcDbEntity
  8
0
  6
Continuous
 62
     3
100
AcDbText
 10
-23.60289518948741
 20
-81.5
 30
0.0
 40
2.5
  1
新NDH-A板 ボス付 エメラルドグリーン
 41
0.6
  7
高2.5
100
AcDbText
  0
TEXT
  5
776
330
6B
100
AcDbEntity
  8
0
  6
Continuous
 62
     3
100
AcDbText
 10
-23.60289518948741
 20
-85.5
 30
0.0
 40
2.5
  1
DH-300Y-脚　黒
 41
0.6
  7
高2.5
100
AcDbText
  0
TEXT
  5
777
330
6B
100
AcDbEntity
  8
0
  6
Continuous
 62
     3
100
AcDbText
 10
-23.60289518948741
 20
-89.50000000000001
 30
0.0
 40
2.5
  1
コード番号名称
 41
0.6
  7
高2.5
100
AcDbText
  0
TEXT
  5
9B5
330
6B
100
AcDbEntity
  8
0
 62
     3
100
AcDbText
 10
125.9999999999999
 20
80.5
 30
0.0
 40
3.2
  1
担　当
  7
高3.2
100
AcDbText
  0
TEXT
  5
9B6
330
6B
100
AcDbEntity
  8
0
 62
     3
100
AcDbText
 10
81.99999999999986
 20
80.5
 30
0.0
 40
3.2
  1
変更・追記内容
  7
高3.2
100
AcDbText
  0
TEXT
  5
9B7
330
6B
100
AcDbEntity
  8
0
 62
     3
100
AcDbText
 10
57.11351500033913
 20
75.8294614900917
 30
0.0
 40
2.0
  1
1
  7
高2
100
AcDbText
  0
TEXT
  5
9B8
330
6B
100
AcDbEntity
  8
0
 62
     3
100
AcDbText
 10
56.80500352358183
 20
70.65964477781881
 30
0.0
 40
2.0
  1
2
  7
高2
100
AcDbText
  0
TEXT
  5
9B9
330
6B
100
AcDbEntity
  8
0
 62
     3
100
AcDbText
 10
63.99999999999988
 20
80.5
 30
0.0
 40
3.2
  1
日　付
  7
高3.2
100
AcDbText
  0
TEXT
  5
9BA
330
6B
100
AcDbEntity
  8
0
 62
     3
100
AcDbText
 10
63.99999999999988
 20
85.5
 30
0.0
 40
3.2
  1
図　　　　面　　　　略　　　　歴
  7
高3.2
100
AcDbText
  0
TEXT
  5
9BB
330
6B
100
AcDbEntity
  8
0
 62
     3
100
AcDbText
 10
53.99999999999988
 20
80.5
 30
0.0
 40
3.2
  1
記号
  7
高3.2
100
AcDbText
  0
LINE
  5
9BC
330
6B
100
AcDbEntity
  8
0
 62
     7
100
AcDbLine
 10
57.49999999999989
 20
73.79089600000009
 30
0.0
 11
55.5999999999999
 21
70.5
 31
0.0
  0
LINE
  5
9BD
330
6B
100
AcDbEntity
  8
0
 62
     7
100
AcDbLine
 10
57.49999999999989
 20
73.79089600000009
 30
0.0
 11
59.39999999999987
 21
70.5
 31
0.0
  0
LINE
  5
9BE
330
6B
100
AcDbEntity
  8
0
 62
     7
100
AcDbLine
 10
55.5999999999999
 20
70.5
 30
0.0
 11
59.39999999999987
 21
70.5
 31
0.0
  0
LINE
  5
9BF
330
6B
100
AcDbEntity
  8
0
 62
     7
100
AcDbLine
 10
57.49999999999989
 20
78.79089700000007
 30
0.0
 11
55.5999999999999
 21
75.5
 31
0.0
  0
LINE
  5
9C0
330
6B
100
AcDbEntity
  8
0
 62
     7
100
AcDbLine
 10
57.49999999999989
 20
78.79089700000007
 30
0.0
 11
59.39999999999987
 21
75.5
 31
0.0
  0
LINE
  5
9C1
330
6B
100
AcDbEntity
  8
0
 62
     7
100
AcDbLine
 10
55.5999999999999
 20
75.5
 30
0.0
 11
59.39999999999987
 21
75.5
 31
0.0
  0
LINE
  5
9C2
330
6B
100
AcDbEntity
  8
0
 62
     3
100
AcDbLine
 10
52.49999999999989
 20
85.0
 30
0.0
 11
138.4999999999999
 21
85.0
 31
0.0
  0
LINE
  5
9C3
330
6B
100
AcDbEntity
  8
0
 62
     3
100
AcDbLine
 10
52.49999999999989
 20
80.0
 30
0.0
 11
138.4999999999999
 21
80.0
 31
0.0
  0
LINE
  5
9C4
330
6B
100
AcDbEntity
  8
0
 62
     7
100
AcDbLine
 10
52.49999999999989
 20
75.0
 30
0.0
 11
138.4999999999999
 21
75.0
 31
0.0
  0
LINE
  5
9C5
330
6B
100
AcDbEntity
  8
0
 62
     3
100
AcDbLine
 10
52.49999999999989
 20
70.0
 30
0.0
 11
138.4999999999999
 21
70.0
 31
0.0
  0
LINE
  5
9C6
330
6B
100
AcDbEntity
  8
0
 62
     7
100
AcDbLine
 10
124.4999999999997
 20
70.0
 30
0.0
 11
124.4999999999999
 21
85.0
 31
0.0
  0
LINE
  5
9C7
330
6B
100
AcDbEntity
  8
0
 62
     7
100
AcDbLine
 10
80.49999999999989
 20
70.0
 30
0.0
 11
80.49999999999989
 21
85.0
 31
0.0
  0
LINE
  5
9C8
330
6B
100
AcDbEntity
  8
0
 62
     7
100
AcDbLine
 10
62.49999999999989
 20
70.0
 30
0.0
 11
62.49999999999989
 21
85.0
 31
0.0
  0
LINE
  5
9C9
330
6B
100
AcDbEntity
  8
0
 62
     3
100
AcDbLine
 10
52.49999999999989
 20
70.0
 30
0.0
 11
52.49999999999989
 21
90.0
 31
0.0
  0
TEXT
  5
BFD
330
6B
100
AcDbEntity
  8
0
 62
     4
100
AcDbText
 10
90.27347180539267
 20
-39.89334658427178
 30
0.0
 40
4.5
  1
※耐荷重20kgf
  7
高4.5
100
AcDbText
  0
ENDSEC
  0
SECTION
  2
OBJECTS
  0
DICTIONARY
  5
C
330
0
100
AcDbDictionary
281
     1
  3
ACAD_2007HEADERVARS_RT
350
B89
  3
ACAD_COLOR
350
62
  3
ACAD_DGNDEFINITIONS
350
BC9
  3
ACAD_DWFDEFINITIONS
350
BC8
  3
ACAD_GROUP
350
D
  3
ACAD_LAYOUT
350
61
  3
ACAD_MATERIAL
350
10
  3
ACAD_MLEADERSTYLE
350
65
  3
ACAD_MLINESTYLE
350
5E
  3
ACAD_PDFDEFINITIONS
350
BC7
  3
ACAD_PLOTSETTINGS
350
60
  3
ACAD_PLOTSTYLENAME
350
E
  3
ACAD_SCALELIST
350
42
  3
ACAD_TABLESTYLE
350
63
  3
ACAD_VISUALSTYLE
350
29
  3
ACDBHEADERROUNDTRIPXREC
350
C47
  3
AcDbVariableDictionary
350
6C9
  3
DWGPROPS
350
C4A
  0
DICTIONARY
  5
C4B
330
8
100
AcDbDictionary
280
     1
281
     1
  3
ACAD_XREC_ROUNDTRIP
360
C4C
  0
DICTIONARY
  5
4D9
330
2
100
AcDbDictionary
280
     1
281
     1
  3
ACAD_LAYERSTATES
360
4DA
  0
DICTIONARY
  5
6C3
330
54
100
AcDbDictionary
280
     1
281
     1
  3
ADSK_XREC_LAYER_RECONCILED
360
6C4
  0
DICTIONARY
  5
75C
330
6B
100
AcDbDictionary
280
     1
281
     1
  3
ACAD_SORTENTS
360
75D
  0
DICTIONARY
  5
B89
102
{ACAD_REACTORS
330
C
102
}
330
C
100
AcDbDictionary
281
     1
  3
DIMARCSYM
350
B8B
  3
DIMFXL
350
B8A
  3
DIMJOGANG
350
B8C
  0
DICTIONARY
  5
62
102
{ACAD_REACTORS
330
C
102
}
330
C
100
AcDbDictionary
281
     1
  0
DICTIONARY
  5
BC9
102
{ACAD_REACTORS
330
C
102
}
330
C
100
AcDbDictionary
281
     1
  0
DICTIONARY
  5
BC8
102
{ACAD_REACTORS
330
C
102
}
330
C
100
AcDbDictionary
281
     1
  0
DICTIONARY
  5
D
102
{ACAD_REACTORS
330
C
102
}
330
C
100
AcDbDictionary
281
     1
  0
DICTIONARY
  5
61
102
{ACAD_REACTORS
330
C
102
}
330
C
100
AcDbDictionary
281
     1
  3
Model
350
6E
  3
レイアウト1
350
6A
  0
DICTIONARY
  5
10
102
{ACAD_REACTORS
330
C
102
}
330
C
100
AcDbDictionary
281
     1
  3
ByBlock
350
19
  3
ByLayer
350
11
  3
Global
350
21
  0
DICTIONARY
  5
65
102
{ACAD_REACTORS
330
C
102
}
330
C
100
AcDbDictionary
281
     1
  3
Standard
350
66
  0
DICTIONARY
  5
5E
102
{ACAD_REACTORS
330
C
102
}
330
C
100
AcDbDictionary
281
     1
  3
Standard
350
5F
  0
DICTIONARY
  5
BC7
102
{ACAD_REACTORS
330
C
102
}
330
C
100
AcDbDictionary
281
     1
  0
DICTIONARY
  5
60
102
{ACAD_REACTORS
330
C
102
}
330
C
100
AcDbDictionary
281
     1
  0
ACDBDICTIONARYWDFLT
  5
E
102
{ACAD_REACTORS
330
C
102
}
330
C
100
AcDbDictionary
281
     1
  3
Normal
350
F
100
AcDbDictionaryWithDefault
340
F
  0
DICTIONARY
  5
42
102
{ACAD_REACTORS
330
C
102
}
330
C
100
AcDbDictionary
281
     1
  3
A0
350
43
  3
A1
350
44
  3
A2
350
45
  3
A3
350
46
  3
A4
350
47
  3
A5
350
48
  3
A6
350
49
  3
A7
350
4A
  3
A8
350
4B
  3
A9
350
4C
  3
B0
350
4D
  3
B1
350
4E
  3
B2
350
4F
  3
B3
350
50
  3
B4
350
51
  3
B5
350
52
  3
B6
350
53
  0
DICTIONARY
  5
63
102
{ACAD_REACTORS
330
C
102
}
330
C
100
AcDbDictionary
281
     1
  3
Standard
350
64
  0
DICTIONARY
  5
29
102
{ACAD_REACTORS
330
C
102
}
330
C
100
AcDbDictionary
281
     1
  3
2dWireframe
350
2F
  3
3D Hidden
350
71A
  3
3dWireframe
350
4D8
  3
Basic
350
2E
  3
Brighten
350
35
  3
ColorChange
350
39
  3
Conceptual
350
32
  3
Dim
350
34
  3
EdgeColorOff
350
41
  3
Facepattern
350
38
  3
Flat
350
2A
  3
FlatWithEdges
350
2B
  3
Gouraud
350
2C
  3
GouraudWithEdges
350
2D
  3
Hidden
350
31
  3
JitterOff
350
3F
  3
Linepattern
350
37
  3
OverhangOff
350
40
  3
Realistic
350
33
  3
Shaded
350
3E
  3
Shaded with edges
350
3D
  3
Shades of Gray
350
3A
  3
Sketchy
350
3B
  3
Thicken
350
36
  3
Wireframe
350
30
  3
X-Ray
350
3C
  0
DICTIONARY
  5
C47
102
{ACAD_REACTORS
330
C
102
}
330
C
100
AcDbDictionary
281
     1
  3
COLORDICT
350
C48
  3
MATERIALDICT
350
C49
  0
DICTIONARY
  5
6C9
102
{ACAD_REACTORS
330
C
102
}
330
C
100
AcDbDictionary
281
     1
  3
CANNOSCALE
350
C4D
  3
CMLEADERSTYLE
350
6CB
  3
CTABLESTYLE
350
6CA
  3
DIMASSOC
350
6CF
  3
HIDETEXT
350
C01
  3
INDEXCTL
350
6CE
  3
MSLTSCALE
350
BFE
  3
SORTENTS
350
6CD
  3
XCLIPFRAME
350
B85
  0
XRECORD
  5
C4A
102
{ACAD_REACTORS
330
C
102
}
330
C
100
AcDbXrecord
280
     1
  1
DWGPROPS COOKIE
  2

  3

  4

  6

  7

  8
nakashinde
  9

300
=
301
=
302
=
303
=
304
=
305
=
306
=
307
=
308
=
309
=
 40
0.0
 41
2455670.213283079
 42
2460074.383922708
  1

 90
        0
  0
XRECORD
  5
C4C
102
{ACAD_REACTORS
330
C4B
102
}
330
C4B
100
AcDbXrecord
280
     1
102
VTR_0.000_0.000_1.000_1.000_VISUALSTYLE
340
2F
102
VTR_0.000_0.000_1.000_1.000_GRIDDISPLAY
 70
     3
102
VTR_0.000_0.000_1.000_1.000_GRIDMAJOR
 70
     5
102
VTR_0.000_0.000_1.000_1.000_DEFAULTLIGHTING
280
     1
102
VTR_0.000_0.000_1.000_1.000_DEFAULTLIGHTINGTYPE
 70
     1
102
VTR_0.000_0.000_1.000_1.000_BRIGHTNESS
141
0.0
102
VTR_0.000_0.000_1.000_1.000_CONTRAST
142
0.0
  0
DICTIONARY
  5
4DA
102
{ACAD_REACTORS
330
4D9
102
}
330
4D9
100
AcDbDictionary
281
     1
  0
XRECORD
  5
6C4
102
{ACAD_REACTORS
330
6C3
102
}
330
6C3
100
AcDbXrecord
280
     1
290
     1
  0
SORTENTSTABLE
  5
75D
102
{ACAD_REACTORS
330
75C
102
}
330
75C
100
AcDbSortentsTable
330
6B
331
E9
  5
E9
331
EA
  5
EA
331
EB
  5
EB
331
EC
  5
EC
331
ED
  5
ED
331
EE
  5
EE
331
EF
  5
EF
331
104
  5
104
331
105
  5
105
331
106
  5
106
331
107
  5
107
331
108
  5
108
331
109
  5
109
331
10A
  5
10A
331
10B
  5
10B
331
10C
  5
10C
331
10D
  5
10D
331
10E
  5
10E
331
10F
  5
10F
331
110
  5
110
331
111
  5
111
331
112
  5
112
331
113
  5
113
331
114
  5
114
331
115
  5
115
331
116
  5
116
331
117
  5
117
331
118
  5
118
331
119
  5
119
331
11A
  5
11A
331
11B
  5
11B
331
11C
  5
11C
331
11D
  5
11D
331
11E
  5
11E
331
11F
  5
11F
331
120
  5
120
331
121
  5
121
331
122
  5
122
331
123
  5
123
331
124
  5
124
331
125
  5
125
331
126
  5
126
331
127
  5
127
331
128
  5
128
331
129
  5
129
331
12A
  5
12A
331
12B
  5
12B
331
12C
  5
12C
331
12D
  5
12D
331
12E
  5
12E
331
12F
  5
12F
331
130
  5
130
331
131
  5
131
331
132
  5
132
331
133
  5
133
331
134
  5
134
331
135
  5
135
331
136
  5
136
331
137
  5
137
331
138
  5
138
331
139
  5
139
331
13A
  5
13A
331
13B
  5
13B
331
13C
  5
13C
331
13D
  5
13D
331
13E
  5
13E
331
13F
  5
13F
331
140
  5
140
331
141
  5
141
331
142
  5
142
331
143
  5
143
331
144
  5
144
331
145
  5
145
331
146
  5
146
331
147
  5
147
331
148
  5
148
331
149
  5
149
331
14A
  5
14A
331
14B
  5
14B
331
14C
  5
14C
331
14D
  5
14D
331
14E
  5
14E
331
14F
  5
14F
331
150
  5
150
331
151
  5
151
331
152
  5
152
331
153
  5
153
331
154
  5
154
331
155
  5
155
331
156
  5
156
331
157
  5
157
331
158
  5
158
331
159
  5
159
331
15A
  5
15A
331
15B
  5
15B
331
15C
  5
15C
331
15D
  5
15D
331
161
  5
161
331
162
  5
162
331
163
  5
163
331
164
  5
164
331
168
  5
168
331
169
  5
169
331
16A
  5
16A
331
16B
  5
16B
331
16F
  5
16F
331
170
  5
170
331
171
  5
171
331
172
  5
172
331
173
  5
173
331
174
  5
174
331
175
  5
175
331
176
  5
176
331
177
  5
177
331
178
  5
178
331
179
  5
179
331
17A
  5
17A
331
17B
  5
17B
331
17C
  5
17C
331
17D
  5
17D
331
17E
  5
17E
331
17F
  5
17F
331
180
  5
180
331
181
  5
181
331
182
  5
182
331
183
  5
183
331
184
  5
184
331
185
  5
185
331
186
  5
186
331
187
  5
187
331
188
  5
188
331
189
  5
189
331
18D
  5
18D
331
18E
  5
18E
331
18F
  5
18F
331
190
  5
190
331
191
  5
191
331
192
  5
192
331
193
  5
193
331
194
  5
194
331
195
  5
195
331
196
  5
196
331
197
  5
197
331
198
  5
198
331
199
  5
199
331
19A
  5
19A
331
19B
  5
19B
331
19C
  5
19C
331
19D
  5
19D
331
19E
  5
19E
331
19F
  5
19F
331
1A0
  5
1A0
331
1A1
  5
1A1
331
1A2
  5
1A2
331
1A3
  5
1A3
331
1A4
  5
1A4
331
1A5
  5
1A5
331
1A6
  5
1A6
331
1A7
  5
1A7
331
1A8
  5
1A8
331
1A9
  5
1A9
331
1AA
  5
1AA
331
1AB
  5
1AB
331
1AC
  5
1AC
331
1AD
  5
1AD
331
1AE
  5
1AE
331
1AF
  5
1AF
331
1B0
  5
1B0
331
1B1
  5
1B1
331
1B2
  5
1B2
331
1B3
  5
1B3
331
1B4
  5
1B4
331
1B5
  5
1B5
331
1B6
  5
1B6
331
1B7
  5
1B7
331
1B8
  5
1B8
331
1B9
  5
1B9
331
1BA
  5
1BA
331
1BB
  5
1BB
331
1BC
  5
1BC
331
1BD
  5
1BD
331
1BE
  5
1BE
331
1BF
  5
1BF
331
1C0
  5
1C0
331
1C1
  5
1C1
331
1C2
  5
1C2
331
1C3
  5
1C3
331
1C4
  5
1C4
331
1C5
  5
1C5
331
1C6
  5
1C6
331
1C7
  5
1C7
331
1C8
  5
1C8
331
1C9
  5
1C9
331
1CA
  5
1CA
331
1CB
  5
1CB
331
1CC
  5
1CC
331
1CD
  5
1CD
331
1CE
  5
1CE
331
1CF
  5
1CF
331
1D0
  5
1D0
331
1D1
  5
1D1
331
1D2
  5
1D2
331
1D3
  5
1D3
331
1D4
  5
1D4
331
1D5
  5
1D5
331
1D6
  5
1D6
331
1D7
  5
1D7
331
1D8
  5
1D8
331
1D9
  5
1D9
331
1DA
  5
1DA
331
1DB
  5
1DB
331
1E3
  5
1E3
331
1E4
  5
1E4
331
1E5
  5
1E5
331
1E6
  5
1E6
331
1E7
  5
1E7
331
1E8
  5
1E8
331
1E9
  5
1E9
331
1EA
  5
1EA
331
1EB
  5
1EB
331
1EC
  5
1EC
331
1ED
  5
1ED
331
1EE
  5
1EE
331
1EF
  5
1EF
331
1F0
  5
1F0
331
1F1
  5
1F1
331
1F2
  5
1F2
331
1F3
  5
1F3
331
1F4
  5
1F4
331
1F5
  5
1F5
331
1F6
  5
1F6
331
1F7
  5
1F7
331
1F8
  5
1F8
331
1F9
  5
1F9
331
1FA
  5
1FA
331
1FB
  5
1FB
331
1FC
  5
1FC
331
1FD
  5
1FD
331
1FE
  5
1FE
331
1FF
  5
1FF
331
200
  5
200
331
201
  5
201
331
202
  5
202
331
203
  5
203
331
204
  5
204
331
205
  5
205
331
206
  5
206
331
207
  5
207
331
208
  5
208
331
209
  5
209
331
20A
  5
20A
331
20B
  5
20B
331
20C
  5
20C
331
20D
  5
20D
331
20E
  5
20E
331
20F
  5
20F
331
210
  5
210
331
211
  5
211
331
212
  5
212
331
213
  5
213
331
214
  5
214
331
215
  5
215
331
216
  5
216
331
217
  5
217
331
218
  5
218
331
219
  5
219
331
21A
  5
21A
331
21B
  5
21B
331
21C
  5
21C
331
21D
  5
21D
331
21E
  5
21E
331
21F
  5
21F
331
220
  5
220
331
221
  5
221
331
222
  5
222
331
223
  5
223
331
224
  5
224
331
225
  5
225
331
226
  5
226
331
227
  5
227
331
228
  5
228
331
229
  5
229
331
22A
  5
22A
331
22B
  5
22B
331
22C
  5
22C
331
22D
  5
22D
331
22E
  5
22E
331
22F
  5
22F
331
230
  5
230
331
231
  5
231
331
232
  5
232
331
233
  5
233
331
234
  5
234
331
235
  5
235
331
236
  5
236
331
237
  5
237
331
238
  5
238
331
239
  5
239
331
23A
  5
23A
331
23B
  5
23B
331
23C
  5
23C
331
23D
  5
23D
331
23E
  5
23E
331
23F
  5
23F
331
240
  5
240
331
241
  5
241
331
242
  5
242
331
243
  5
243
331
244
  5
244
331
245
  5
245
331
246
  5
246
331
247
  5
247
331
248
  5
248
331
249
  5
249
331
24A
  5
24A
331
24B
  5
24B
331
24C
  5
24C
331
24D
  5
24D
331
24E
  5
24E
331
24F
  5
24F
331
250
  5
250
331
251
  5
251
331
252
  5
252
331
253
  5
253
331
254
  5
254
331
255
  5
255
331
256
  5
256
331
257
  5
257
331
258
  5
258
331
259
  5
259
331
25A
  5
25A
331
25B
  5
25B
331
25C
  5
25C
331
25D
  5
25D
331
25E
  5
25E
331
25F
  5
25F
331
260
  5
260
331
261
  5
261
331
262
  5
262
331
263
  5
263
331
264
  5
264
331
265
  5
265
331
266
  5
266
331
267
  5
267
331
268
  5
268
331
269
  5
269
331
26A
  5
26A
331
26B
  5
26B
331
26C
  5
26C
331
26D
  5
26D
331
26E
  5
26E
331
26F
  5
26F
331
270
  5
270
331
271
  5
271
331
272
  5
272
331
273
  5
273
331
274
  5
274
331
275
  5
275
331
276
  5
276
331
277
  5
277
331
278
  5
278
331
279
  5
279
331
27A
  5
27A
331
27B
  5
27B
331
27C
  5
27C
331
27D
  5
27D
331
27E
  5
27E
331
27F
  5
27F
331
280
  5
280
331
281
  5
281
331
282
  5
282
331
283
  5
283
331
284
  5
284
331
285
  5
285
331
286
  5
286
331
287
  5
287
331
288
  5
288
331
289
  5
289
331
28A
  5
28A
331
28B
  5
28B
331
28C
  5
28C
331
28D
  5
28D
331
28E
  5
28E
331
28F
  5
28F
331
290
  5
290
331
291
  5
291
331
292
  5
292
331
293
  5
293
331
294
  5
294
331
295
  5
295
331
296
  5
296
331
297
  5
297
331
298
  5
298
331
299
  5
299
331
29A
  5
29A
331
29B
  5
29B
331
29C
  5
29C
331
29D
  5
29D
331
29E
  5
29E
331
29F
  5
29F
331
2A0
  5
2A0
331
2A1
  5
2A1
331
2A2
  5
2A2
331
2A3
  5
2A3
331
2A4
  5
2A4
331
2A5
  5
2A5
331
2A6
  5
2A6
331
2A7
  5
2A7
331
2A8
  5
2A8
331
2A9
  5
2A9
331
2AA
  5
2AA
331
2AB
  5
2AB
331
2AC
  5
2AC
331
2AD
  5
2AD
331
2AE
  5
2AE
331
2AF
  5
2AF
331
2B0
  5
2B0
331
2B1
  5
2B1
331
2B2
  5
2B2
331
2B3
  5
2B3
331
2B4
  5
2B4
331
2B5
  5
2B5
331
2B6
  5
2B6
331
2B7
  5
2B7
331
2B8
  5
2B8
331
2B9
  5
2B9
331
2BA
  5
2BA
331
2BB
  5
2BB
331
2BC
  5
2BC
331
2BD
  5
2BD
331
2BE
  5
2BE
331
2BF
  5
2BF
331
2C0
  5
2C0
331
2C1
  5
2C1
331
2C2
  5
2C2
331
2C3
  5
2C3
331
2C4
  5
2C4
331
2C5
  5
2C5
331
2C6
  5
2C6
331
2C7
  5
2C7
331
2C8
  5
2C8
331
2C9
  5
2C9
331
2CA
  5
2CA
331
2CB
  5
2CB
331
2CC
  5
2CC
331
2CD
  5
2CD
331
2CE
  5
2CE
331
2CF
  5
2CF
331
2D0
  5
2D0
331
2D1
  5
2D1
331
2D2
  5
2D2
331
2D3
  5
2D3
331
2D4
  5
2D4
331
2D5
  5
2D5
331
2D6
  5
2D6
331
2D7
  5
2D7
331
2D8
  5
2D8
331
2D9
  5
2D9
331
2DA
  5
2DA
331
2DB
  5
2DB
331
2DC
  5
2DC
331
2DD
  5
2DD
331
2DE
  5
2DE
331
2DF
  5
2DF
331
2E0
  5
2E0
331
2E1
  5
2E1
331
2E2
  5
2E2
331
2E3
  5
2E3
331
2E4
  5
2E4
331
2E5
  5
2E5
331
2E6
  5
2E6
331
2E7
  5
2E7
331
2E8
  5
2E8
331
2E9
  5
2E9
331
2EA
  5
2EA
331
2EB
  5
2EB
331
2EC
  5
2EC
331
2ED
  5
2ED
331
2EE
  5
2EE
331
2EF
  5
2EF
331
2F0
  5
2F0
331
2F1
  5
2F1
331
2F2
  5
2F2
331
2F3
  5
2F3
331
2F4
  5
2F4
331
2F5
  5
2F5
331
2F6
  5
2F6
331
2F7
  5
2F7
331
2F8
  5
2F8
331
2F9
  5
2F9
331
2FA
  5
2FA
331
2FB
  5
2FB
331
2FC
  5
2FC
331
2FD
  5
2FD
331
2FE
  5
2FE
331
2FF
  5
2FF
331
300
  5
300
331
301
  5
301
331
302
  5
302
331
303
  5
303
331
304
  5
304
331
305
  5
305
331
306
  5
306
331
307
  5
307
331
308
  5
308
331
309
  5
309
331
30A
  5
30A
331
30B
  5
30B
331
30C
  5
30C
331
30D
  5
30D
331
30E
  5
30E
331
30F
  5
30F
331
310
  5
310
331
311
  5
311
331
312
  5
312
331
313
  5
313
331
314
  5
314
331
315
  5
315
331
316
  5
316
331
317
  5
317
331
318
  5
318
331
319
  5
319
331
31A
  5
31A
331
31B
  5
31B
331
31C
  5
31C
331
31D
  5
31D
331
31E
  5
31E
331
31F
  5
31F
331
320
  5
320
331
321
  5
321
331
322
  5
322
331
323
  5
323
331
324
  5
324
331
325
  5
325
331
326
  5
326
331
327
  5
327
331
328
  5
328
331
329
  5
329
331
32A
  5
32A
331
32B
  5
32B
331
32C
  5
32C
331
32D
  5
32D
331
32E
  5
32E
331
32F
  5
32F
331
330
  5
330
331
331
  5
331
331
332
  5
332
331
333
  5
333
331
334
  5
334
331
335
  5
335
331
336
  5
336
331
337
  5
337
331
338
  5
338
331
339
  5
339
331
33A
  5
33A
331
33B
  5
33B
331
33C
  5
33C
331
33D
  5
33D
331
33E
  5
33E
331
33F
  5
33F
331
340
  5
340
331
341
  5
341
331
342
  5
342
331
343
  5
343
331
344
  5
344
331
345
  5
345
331
346
  5
346
331
347
  5
347
331
348
  5
348
331
349
  5
349
331
34A
  5
34A
331
34B
  5
34B
331
34C
  5
34C
331
34F
  5
34F
331
351
  5
351
331
353
  5
353
331
354
  5
354
331
355
  5
355
331
356
  5
356
331
357
  5
357
331
358
  5
358
331
359
  5
359
331
35A
  5
35A
331
35B
  5
35B
331
35C
  5
35C
331
35D
  5
35D
331
35E
  5
35E
331
363
  5
363
331
364
  5
364
331
365
  5
365
331
366
  5
366
331
367
  5
367
331
368
  5
368
331
369
  5
369
331
36A
  5
36A
331
36B
  5
36B
331
36C
  5
36C
331
36D
  5
36D
331
36E
  5
36E
331
36F
  5
36F
331
371
  5
371
331
373
  5
373
331
379
  5
379
331
37F
  5
37F
331
380
  5
380
331
381
  5
381
331
382
  5
382
331
383
  5
383
331
384
  5
384
331
385
  5
385
331
386
  5
386
331
387
  5
387
331
388
  5
388
331
389
  5
389
331
38A
  5
38A
331
38B
  5
38B
331
38C
  5
38C
331
38D
  5
38D
331
38E
  5
38E
331
38F
  5
38F
331
390
  5
390
331
391
  5
391
331
392
  5
392
331
393
  5
393
331
394
  5
394
331
395
  5
395
331
396
  5
396
331
397
  5
397
331
398
  5
398
331
399
  5
399
331
39A
  5
39A
331
39B
  5
39B
331
39C
  5
39C
331
39D
  5
39D
331
39E
  5
39E
331
39F
  5
39F
331
3A1
  5
3A1
331
3A2
  5
3A2
331
3A3
  5
3A3
331
3A4
  5
3A4
331
3A5
  5
3A5
331
3A6
  5
3A6
331
3A7
  5
3A7
331
3A8
  5
3A8
331
3AB
  5
3AB
331
3AC
  5
3AC
331
3B0
  5
3B0
331
3B1
  5
3B1
331
3B2
  5
3B2
331
3B4
  5
3B4
331
3B5
  5
3B5
331
3B7
  5
3B7
331
3B8
  5
3B8
331
3B9
  5
3B9
331
3BA
  5
3BA
331
3BB
  5
3BB
331
3BC
  5
3BC
331
3BD
  5
3BD
331
3BE
  5
3BE
331
3BF
  5
3BF
331
3C0
  5
3C0
331
3C1
  5
3C1
331
3C2
  5
3C2
331
3C3
  5
3C3
331
3C4
  5
3C4
331
3C5
  5
3C5
331
3C6
  5
3C6
331
3C7
  5
3C7
331
3C8
  5
3C8
331
3C9
  5
3C9
331
3CA
  5
3CA
331
3CB
  5
3CB
331
3CC
  5
3CC
331
3CD
  5
3CD
331
3CE
  5
3CE
331
3CF
  5
3CF
331
3D0
  5
3D0
331
3D1
  5
3D1
331
3D2
  5
3D2
331
3D3
  5
3D3
331
3D4
  5
3D4
331
3D5
  5
3D5
331
3D6
  5
3D6
331
3D7
  5
3D7
331
3D8
  5
3D8
331
3D9
  5
3D9
331
3DA
  5
3DA
331
3DB
  5
3DB
331
3DC
  5
3DC
331
3DD
  5
3DD
331
3DE
  5
3DE
331
3DF
  5
3DF
331
3E0
  5
3E0
331
3E1
  5
3E1
331
3E2
  5
3E2
331
3E3
  5
3E3
331
3E4
  5
3E4
331
3E5
  5
3E5
331
3E6
  5
3E6
331
3E7
  5
3E7
331
3E8
  5
3E8
331
3E9
  5
3E9
331
3EA
  5
3EA
331
3EB
  5
3EB
331
3EC
  5
3EC
331
3ED
  5
3ED
331
3F1
  5
3F1
331
3F2
  5
3F2
331
3F3
  5
3F3
331
3F4
  5
3F4
331
3F8
  5
3F8
331
3F9
  5
3F9
331
3FA
  5
3FA
331
3FB
  5
3FB
331
3FF
  5
3FF
331
400
  5
400
331
401
  5
401
331
402
  5
402
331
406
  5
406
331
407
  5
407
331
408
  5
408
331
409
  5
409
331
40D
  5
40D
331
40E
  5
40E
331
40F
  5
40F
331
410
  5
410
331
414
  5
414
331
415
  5
415
331
416
  5
416
331
417
  5
417
331
41B
  5
41B
331
41C
  5
41C
331
41D
  5
41D
331
41E
  5
41E
331
41F
  5
41F
331
42A
  5
42B
331
42B
  5
42C
331
42C
  5
42D
331
42D
  5
42E
331
42E
  5
42F
331
42F
  5
430
331
430
  5
431
331
431
  5
432
331
432
  5
6BC
331
6BC
  5
75B
331
75B
  5
42A
331
76E
  5
76E
331
76F
  5
76F
331
770
  5
770
331
771
  5
771
331
772
  5
772
331
773
  5
773
331
774
  5
774
331
775
  5
775
331
776
  5
776
331
777
  5
777
  0
XRECORD
  5
B8B
102
{ACAD_REACTORS
330
B89
102
}
330
B89
100
AcDbXrecord
280
     1
 70
     2
  0
XRECORD
  5
B8A
102
{ACAD_REACTORS
330
B89
102
}
330
B89
100
AcDbXrecord
280
     1
 40
1.25
  0
XRECORD
  5
B8C
102
{ACAD_REACTORS
330
B89
102
}
330
B89
100
AcDbXrecord
280
     1
 40
1.570796326794896
  0
LAYOUT
  5
6E
102
{ACAD_REACTORS
330
61
102
}
330
61
100
AcDbPlotSettings
  1

  2
FX DP 205
  4

  6

 40
0.0
 41
0.0
 42
0.0
 43
0.0
 44
0.0
 45
0.0
 46
0.0
 47
0.0
 48
0.0
 49
0.0
140
0.0
141
0.0
142
1.0
143
1.0
 70
  1712
 72
     0
 73
     0
 74
     0
  7

 75
     0
147
1.0
148
0.0
149
0.0
100
AcDbLayout
  1
Model
 70
     1
 71
     0
 10
0.0
 20
0.0
 11
12.0
 21
9.0
 12
0.0
 22
0.0
 32
0.0
 14
0.0
 24
0.0
 34
0.0
 15
138.5
 25
98.472617
 35
0.0
146
0.0
 13
0.0
 23
0.0
 33
0.0
 16
1.0
 26
0.0
 36
0.0
 17
0.0
 27
1.0
 37
0.0
 76
     0
330
6B
331
8C
  0
LAYOUT
  5
6A
102
{ACAD_REACTORS
330
61
102
}
330
61
100
AcDbPlotSettings
  1

  2
FX DP 205
  4

  6

 40
0.0
 41
0.0
 42
0.0
 43
0.0
 44
0.0
 45
0.0
 46
0.0
 47
0.0
 48
0.0
 49
0.0
140
0.0
141
0.0
142
1.0
143
1.0
 70
   688
 72
     0
 73
     0
 74
     5
  7

 75
    16
147
1.0
148
0.0
149
0.0
100
AcDbLayout
  1
レイアウト1
 70
     1
 71
     1
 10
0.0
 20
0.0
 11
12.0
 21
9.0
 12
0.0
 22
0.0
 32
0.0
 14
1.000000000000000E+20
 24
1.000000000000000E+20
 34
1.000000000000000E+20
 15
-1.000000000000000E+20
 25
-1.000000000000000E+20
 35
-1.000000000000000E+20
146
0.0
 13
0.0
 23
0.0
 33
0.0
 16
1.0
 26
0.0
 36
0.0
 17
0.0
 27
1.0
 37
0.0
 76
     0
330
67
  0
MATERIAL
  5
19
102
{ACAD_REACTORS
330
10
102
}
102
{ACAD_XDICTIONARY
360
C4E
102
}
330
10
100
AcDbMaterial
  1
ByBlock
 72
     0
 43
0.0208333333333333
 43
0.0
 43
0.0
 43
0.0
 43
0.0
 43
0.0208333333333333
 43
0.0
 43
0.0
 43
0.0
 43
0.0
 43
1.0
 43
0.0
 43
0.0
 43
0.0
 43
0.0
 43
1.0
 77
     0
 47
0.0208333333333333
 47
0.0
 47
0.0
 47
0.0
 47
0.0
 47
0.0208333333333333
 47
0.0
 47
0.0
 47
0.0
 47
0.0
 47
1.0
 47
0.0
 47
0.0
 47
0.0
 47
0.0
 47
1.0
171
     0
 49
0.0208333333333333
 49
0.0
 49
0.0
 49
0.0
 49
0.0
 49
0.0208333333333333
 49
0.0
 49
0.0
 49
0.0
 49
0.0
 49
1.0
 49
0.0
 49
0.0
 49
0.0
 49
0.0
 49
1.0
175
     0
142
0.0208333333333333
142
0.0
142
0.0
142
0.0
142
0.0
142
0.0208333333333333
142
0.0
142
0.0
142
0.0
142
0.0
142
1.0
142
0.0
142
0.0
142
0.0
142
0.0
142
1.0
179
     0
144
0.0208333333333333
144
0.0
144
0.0
144
0.0
144
0.0
144
0.0208333333333333
144
0.0
144
0.0
144
0.0
144
0.0
144
1.0
144
0.0
144
0.0
144
0.0
144
0.0
144
1.0
147
0.0208333333333333
147
0.0
147
0.0
147
0.0
147
0.0
147
0.0208333333333333
147
0.0
147
0.0
147
0.0
147
0.0
147
1.0
147
0.0
147
0.0
147
0.0
147
0.0
147
1.0
  0
MATERIAL
  5
11
102
{ACAD_REACTORS
330
10
102
}
102
{ACAD_XDICTIONARY
360
C50
102
}
330
10
100
AcDbMaterial
  1
ByLayer
 72
     0
 43
0.0208333333333333
 43
0.0
 43
0.0
 43
0.0
 43
0.0
 43
0.0208333333333333
 43
0.0
 43
0.0
 43
0.0
 43
0.0
 43
1.0
 43
0.0
 43
0.0
 43
0.0
 43
0.0
 43
1.0
 77
     0
 47
0.0208333333333333
 47
0.0
 47
0.0
 47
0.0
 47
0.0
 47
0.0208333333333333
 47
0.0
 47
0.0
 47
0.0
 47
0.0
 47
1.0
 47
0.0
 47
0.0
 47
0.0
 47
0.0
 47
1.0
171
     0
 49
0.0208333333333333
 49
0.0
 49
0.0
 49
0.0
 49
0.0
 49
0.0208333333333333
 49
0.0
 49
0.0
 49
0.0
 49
0.0
 49
1.0
 49
0.0
 49
0.0
 49
0.0
 49
0.0
 49
1.0
175
     0
142
0.0208333333333333
142
0.0
142
0.0
142
0.0
142
0.0
142
0.0208333333333333
142
0.0
142
0.0
142
0.0
142
0.0
142
1.0
142
0.0
142
0.0
142
0.0
142
0.0
142
1.0
179
     0
144
0.0208333333333333
144
0.0
144
0.0
144
0.0
144
0.0
144
0.0208333333333333
144
0.0
144
0.0
144
0.0
144
0.0
144
1.0
144
0.0
144
0.0
144
0.0
144
0.0
144
1.0
147
0.0208333333333333
147
0.0
147
0.0
147
0.0
147
0.0
147
0.0208333333333333
147
0.0
147
0.0
147
0.0
147
0.0
147
1.0
147
0.0
147
0.0
147
0.0
147
0.0
147
1.0
  0
MATERIAL
  5
21
102
{ACAD_REACTORS
330
10
102
}
102
{ACAD_XDICTIONARY
360
C52
102
}
330
10
100
AcDbMaterial
  1
Global
 72
     0
 43
0.0208333333333333
 43
0.0
 43
0.0
 43
0.0
 43
0.0
 43
0.0208333333333333
 43
0.0
 43
0.0
 43
0.0
 43
0.0
 43
1.0
 43
0.0
 43
0.0
 43
0.0
 43
0.0
 43
1.0
 77
     0
 47
0.0208333333333333
 47
0.0
 47
0.0
 47
0.0
 47
0.0
 47
0.0208333333333333
 47
0.0
 47
0.0
 47
0.0
 47
0.0
 47
1.0
 47
0.0
 47
0.0
 47
0.0
 47
0.0
 47
1.0
171
     0
 49
0.0208333333333333
 49
0.0
 49
0.0
 49
0.0
 49
0.0
 49
0.0208333333333333
 49
0.0
 49
0.0
 49
0.0
 49
0.0
 49
1.0
 49
0.0
 49
0.0
 49
0.0
 49
0.0
 49
1.0
175
     0
142
0.0208333333333333
142
0.0
142
0.0
142
0.0
142
0.0
142
0.0208333333333333
142
0.0
142
0.0
142
0.0
142
0.0
142
1.0
142
0.0
142
0.0
142
0.0
142
0.0
142
1.0
179
     0
144
0.0208333333333333
144
0.0
144
0.0
144
0.0
144
0.0
144
0.0208333333333333
144
0.0
144
0.0
144
0.0
144
0.0
144
1.0
144
0.0
144
0.0
144
0.0
144
0.0
144
1.0
147
0.0208333333333333
147
0.0
147
0.0
147
0.0
147
0.0
147
0.0208333333333333
147
0.0
147
0.0
147
0.0
147
0.0
147
1.0
147
0.0
147
0.0
147
0.0
147
0.0
147
1.0
  0
MLEADERSTYLE
  5
66
102
{ACAD_REACTORS
330
65
102
}
102
{ACAD_XDICTIONARY
360
C54
102
}
330
65
100
AcDbMLeaderStyle
170
     2
171
     1
172
     0
 90
        2
 40
0.0
 41
0.0
173
     1
 91
-1056964608
340
5A
 92
       -2
290
     1
 42
0.09
291
     1
 43
0.36
  3
Standard
341
0
 44
0.18
300

342
55
174
     1
178
     6
175
     1
176
     0
 93
-1056964608
 45
0.18
292
     0
297
     0
 46
0.18
343
0
 94
-1056964608
 47
1.0
 49
1.0
140
1.0
293
     1
141
0.0
294
     1
177
     0
142
1.0
295
     0
296
     0
143
0.125
1001
ACAD
1000
AcRTDxfName
1000
MLEADERSTYLE
1001
ACAD_MLEADERVER
1070
     2
  0
MLINESTYLE
  5
5F
102
{ACAD_REACTORS
330
5E
102
}
330
5E
100
AcDbMlineStyle
  2
STANDARD
 70
     0
  3

 62
   256
 51
90.0
 52
90.0
 71
     2
 49
0.5
 62
   256
  6
BYLAYER
 49
-0.5
 62
   256
  6
BYLAYER
  0
ACDBPLACEHOLDER
  5
F
102
{ACAD_REACTORS
330
E
102
}
330
E
  0
SCALE
  5
43
102
{ACAD_REACTORS
330
42
102
}
330
42
100
AcDbScale
 70
     0
300
1:1
140
1.0
141
1.0
290
     1
1001
ACAD
1000
AcRTDxfName
1000
SCALE
  0
SCALE
  5
44
102
{ACAD_REACTORS
330
42
102
}
330
42
100
AcDbScale
 70
     0
300
1/128" = 1'-0"
140
0.0078125
141
12.0
290
     0
1001
ACAD
1000
AcRTDxfName
1000
SCALE
  0
SCALE
  5
45
102
{ACAD_REACTORS
330
42
102
}
330
42
100
AcDbScale
 70
     0
300
1/64" = 1'-0"
140
0.015625
141
12.0
290
     0
1001
ACAD
1000
AcRTDxfName
1000
SCALE
  0
SCALE
  5
46
102
{ACAD_REACTORS
330
42
102
}
330
42
100
AcDbScale
 70
     0
300
1/32" = 1'-0"
140
0.03125
141
12.0
290
     0
1001
ACAD
1000
AcRTDxfName
1000
SCALE
  0
SCALE
  5
47
102
{ACAD_REACTORS
330
42
102
}
330
42
100
AcDbScale
 70
     0
300
1/16" = 1'-0"
140
0.0625
141
12.0
290
     0
1001
ACAD
1000
AcRTDxfName
1000
SCALE
  0
SCALE
  5
48
102
{ACAD_REACTORS
330
42
102
}
330
42
100
AcDbScale
 70
     0
300
3/32" = 1'-0"
140
0.09375
141
12.0
290
     0
1001
ACAD
1000
AcRTDxfName
1000
SCALE
  0
SCALE
  5
49
102
{ACAD_REACTORS
330
42
102
}
330
42
100
AcDbScale
 70
     0
300
1/8" = 1'-0"
140
0.125
141
12.0
290
     0
1001
ACAD
1000
AcRTDxfName
1000
SCALE
  0
SCALE
  5
4A
102
{ACAD_REACTORS
330
42
102
}
330
42
100
AcDbScale
 70
     0
300
3/16" = 1'-0"
140
0.1875
141
12.0
290
     0
1001
ACAD
1000
AcRTDxfName
1000
SCALE
  0
SCALE
  5
4B
102
{ACAD_REACTORS
330
42
102
}
330
42
100
AcDbScale
 70
     0
300
1/4" = 1'-0"
140
0.25
141
12.0
290
     0
1001
ACAD
1000
AcRTDxfName
1000
SCALE
  0
SCALE
  5
4C
102
{ACAD_REACTORS
330
42
102
}
330
42
100
AcDbScale
 70
     0
300
3/8" = 1'-0"
140
0.375
141
12.0
290
     0
1001
ACAD
1000
AcRTDxfName
1000
SCALE
  0
SCALE
  5
4D
102
{ACAD_REACTORS
330
42
102
}
330
42
100
AcDbScale
 70
     0
300
1/2" = 1'-0"
140
0.5
141
12.0
290
     0
1001
ACAD
1000
AcRTDxfName
1000
SCALE
  0
SCALE
  5
4E
102
{ACAD_REACTORS
330
42
102
}
330
42
100
AcDbScale
 70
     0
300
3/4" = 1'-0"
140
0.75
141
12.0
290
     0
1001
ACAD
1000
AcRTDxfName
1000
SCALE
  0
SCALE
  5
4F
102
{ACAD_REACTORS
330
42
102
}
330
42
100
AcDbScale
 70
     0
300
1" = 1'-0"
140
1.0
141
12.0
290
     0
1001
ACAD
1000
AcRTDxfName
1000
SCALE
  0
SCALE
  5
50
102
{ACAD_REACTORS
330
42
102
}
330
42
100
AcDbScale
 70
     0
300
1-1/2" = 1'-0"
140
1.5
141
12.0
290
     0
1001
ACAD
1000
AcRTDxfName
1000
SCALE
  0
SCALE
  5
51
102
{ACAD_REACTORS
330
42
102
}
330
42
100
AcDbScale
 70
     0
300
3" = 1'-0"
140
3.0
141
12.0
290
     0
1001
ACAD
1000
AcRTDxfName
1000
SCALE
  0
SCALE
  5
52
102
{ACAD_REACTORS
330
42
102
}
330
42
100
AcDbScale
 70
     0
300
6" = 1'-0"
140
6.0
141
12.0
290
     0
1001
ACAD
1000
AcRTDxfName
1000
SCALE
  0
SCALE
  5
53
102
{ACAD_REACTORS
330
42
102
}
330
42
100
AcDbScale
 70
     0
300
1'-0" = 1'-0"
140
12.0
141
12.0
290
     0
1001
ACAD
1000
AcRTDxfName
1000
SCALE
  0
TABLESTYLE
  5
64
102
{ACAD_REACTORS
330
63
102
}
330
63
100
AcDbTableStyle
  3
Standard
 70
     0
 71
     0
 40
0.06
 41
0.06
280
     0
281
     0
  7
STANDARD
140
0.18
170
     2
 62
     0
 63
   257
283
     0
274
    -2
284
     1
 64
     0
275
    -2
285
     1
 65
     0
276
    -2
286
     1
 66
     0
277
    -2
287
     1
 67
     0
278
    -2
288
     1
 68
     0
279
    -2
289
     1
 69
     0
  7
STANDARD
140
0.25
170
     5
 62
     0
 63
   257
283
     0
274
    -2
284
     1
 64
     0
275
    -2
285
     1
 65
     0
276
    -2
286
     1
 66
     0
277
    -2
287
     1
 67
     0
278
    -2
288
     1
 68
     0
279
    -2
289
     1
 69
     0
  7
STANDARD
140
0.18
170
     5
 62
     0
 63
   257
283
     0
274
    -2
284
     1
 64
     0
275
    -2
285
     1
 65
     0
276
    -2
286
     1
 66
     0
277
    -2
287
     1
 67
     0
278
    -2
288
     1
 68
     0
279
    -2
289
     1
 69
     0
  0
VISUALSTYLE
  5
2F
102
{ACAD_REACTORS
330
29
102
}
102
{ACAD_XDICTIONARY
360
C56
102
}
330
29
100
AcDbVisualStyle
  2

 70
     4
 71
     0
 72
     2
 73
     0
 90
        0
 40
-0.6
 41
-30.0
 62
     5
 63
     7
 74
     1
 91
        4
 64
     7
 65
   257
 75
     1
175
     1
 42
1.0
 92
        0
 66
   257
 43
1.0
 76
     1
 77
     6
 78
     2
 67
     7
 79
     5
170
     0
171
     0
290
     0
174
     0
 93
        1
 44
0.0
173
     0
291
     0
 45
0.0
1001
ACAD
1000
AcDbSavedByObjectVersion
1070
     0
  0
VISUALSTYLE
  5
71A
102
{ACAD_REACTORS
330
29
102
}
102
{ACAD_XDICTIONARY
360
C58
102
}
330
29
100
AcDbVisualStyle
  2

 70
     6
 71
     1
 72
     2
 73
     2
 90
        0
 40
-0.6
 41
-30.0
 62
     5
 63
     7
 74
     2
 91
        2
 64
     7
 65
   257
 75
     2
175
     1
 42
40.0
 92
        0
 66
   257
 43
1.0
 76
     1
 77
     6
 78
     2
 67
     7
 79
     3
170
     0
171
     0
290
     0
174
     0
 93
        1
 44
0.0
173
     0
291
     0
 45
0.0
1001
ACAD
1000
AcDbSavedByObjectVersion
1070
     0
  0
VISUALSTYLE
  5
4D8
102
{ACAD_REACTORS
330
29
102
}
102
{ACAD_XDICTIONARY
360
C5A
102
}
330
29
100
AcDbVisualStyle
  2

 70
     5
 71
     0
 72
     2
 73
     1
 90
        0
 40
-0.6
 41
-30.0
 62
     5
 63
     7
 74
     1
 91
        4
 64
     7
 65
   257
 75
     1
175
     1
 42
1.0
 92
        0
 66
   257
 43
1.0
 76
     1
 77
     6
 78
     2
 67
     7
 79
     5
170
     0
171
     0
290
     0
174
     0
 93
        1
 44
0.0
173
     0
291
     0
 45
0.0
1001
ACAD
1000
AcDbSavedByObjectVersion
1070
     0
  0
VISUALSTYLE
  5
2E
102
{ACAD_REACTORS
330
29
102
}
102
{ACAD_XDICTIONARY
360
C5C
102
}
330
29
100
AcDbVisualStyle
  2

 70
     7
 71
     1
 72
     0
 73
     1
 90
        0
 40
-0.6
 41
-30.0
 62
     5
 63
     7
 74
     0
 91
        4
 64
     7
 65
   257
 75
     1
175
     1
 42
1.0
 92
        8
 66
     7
 43
1.0
 76
     1
 77
     6
 78
     2
 67
     7
 79
     5
170
     0
171
     0
290
     0
174
     0
 93
        1
 44
0.0
173
     0
291
     1
 45
0.0
1001
ACAD
1000
AcDbSavedByObjectVersion
1070
     0
  0
VISUALSTYLE
  5
35
102
{ACAD_REACTORS
330
29
102
}
102
{ACAD_XDICTIONARY
360
C5E
102
}
330
29
100
AcDbVisualStyle
  2

 70
    12
 71
     2
 72
     2
 73
     0
 90
        0
 40
-0.6
 41
-30.0
 62
     5
 63
     7
 74
     1
 91
        4
 64
     7
 65
   257
 75
     1
175
     1
 42
1.0
 92
        8
 66
     7
 43
1.0
 76
     1
 77
     6
 78
     2
 67
     7
 79
     5
170
     0
171
     0
290
     0
174
     0
 93
        1
 44
50.0
173
     0
291
     1
 45
0.0
1001
ACAD
1000
AcDbSavedByObjectVersion
1070
     0
  0
VISUALSTYLE
  5
39
102
{ACAD_REACTORS
330
29
102
}
102
{ACAD_XDICTIONARY
360
C60
102
}
330
29
100
AcDbVisualStyle
  2

 70
    16
 71
     2
 72
     2
 73
     3
 90
        0
 40
-0.6
 41
-30.0
 62
     5
 63
     8
 74
     1
 91
        4
 64
     7
 65
   257
 75
     1
175
     1
 42
1.0
 92
        8
 66
     8
 43
1.0
 76
     1
 77
     6
 78
     2
 67
     7
 79
     5
170
     0
171
     0
290
     0
174
     0
 93
        1
 44
0.0
173
     0
291
     1
 45
0.0
1001
ACAD
1000
AcDbSavedByObjectVersion
1070
     0
  0
VISUALSTYLE
  5
32
102
{ACAD_REACTORS
330
29
102
}
102
{ACAD_XDICTIONARY
360
C62
102
}
330
29
100
AcDbVisualStyle
  2

 70
     9
 71
     3
 72
     2
 73
     0
 90
        0
 40
-0.6
 41
-30.0
 62
     5
 63
     7
 74
     2
 91
        2
 64
     7
 65
   257
 75
     1
175
     1
 42
179.0
 92
        8
 66
     7
 43
1.0
 76
     1
 77
     6
 78
     2
 67
     7
 79
     3
170
     0
171
     0
290
     0
174
     0
 93
        1
 44
0.0
173
     0
291
     0
 45
0.0
1001
ACAD
1000
AcDbSavedByObjectVersion
1070
     0
  0
VISUALSTYLE
  5
34
102
{ACAD_REACTORS
330
29
102
}
102
{ACAD_XDICTIONARY
360
C64
102
}
330
29
100
AcDbVisualStyle
  2

 70
    11
 71
     2
 72
     2
 73
     0
 90
        0
 40
-0.6
 41
-30.0
 62
     5
 63
     7
 74
     1
 91
        4
 64
     7
 65
   257
 75
     1
175
     1
 42
1.0
 92
        8
 66
     7
 43
1.0
 76
     1
 77
     6
 78
     2
 67
     7
 79
     5
170
     0
171
     0
290
     0
174
     0
 93
        1
 44
-50.0
173
     0
291
     1
 45
0.0
1001
ACAD
1000
AcDbSavedByObjectVersion
1070
     0
  0
VISUALSTYLE
  5
41
102
{ACAD_REACTORS
330
29
102
}
102
{ACAD_XDICTIONARY
360
C66
102
}
330
29
100
AcDbVisualStyle
  2

 70
    22
 71
     2
 72
     2
 73
     0
 90
        0
 40
-0.6
 41
-30.0
 62
     5
 63
     7
 74
     1
 91
        4
 64
     7
 65
   257
 75
     1
175
     1
 42
1.0
 92
        8
 66
     7
 43
1.0
 76
     1
 77
     6
 78
     2
 67
     7
 79
     5
170
     0
171
     0
290
     0
174
     0
 93
        1
 44
0.0
173
     0
291
     1
 45
0.0
1001
ACAD
1000
AcDbSavedByObjectVersion
1070
     0
  0
VISUALSTYLE
  5
38
102
{ACAD_REACTORS
330
29
102
}
102
{ACAD_XDICTIONARY
360
C68
102
}
330
29
100
AcDbVisualStyle
  2

 70
    15
 71
     2
 72
     2
 73
     0
 90
        0
 40
-0.6
 41
-30.0
 62
     5
 63
     7
 74
     1
 91
        4
 64
     7
 65
   257
 75
     1
175
     1
 42
1.0
 92
        8
 66
     7
 43
1.0
 76
     1
 77
     6
 78
     2
 67
     7
 79
     5
170
     0
171
     0
290
     0
174
     0
 93
        1
 44
0.0
173
     0
291
     1
 45
0.0
1001
ACAD
1000
AcDbSavedByObjectVersion
1070
     0
  0
VISUALSTYLE
  5
2A
102
{ACAD_REACTORS
330
29
102
}
102
{ACAD_XDICTIONARY
360
C6A
102
}
330
29
100
AcDbVisualStyle
  2

 70
     0
 71
     2
 72
     1
 73
     1
 90
        2
 40
-0.6
 41
30.0
 62
     5
 63
     7
 74
     0
 91
        0
 64
     7
 65
   257
 75
     1
175
     1
 42
1.0
 92
        8
 66
     7
 43
1.0
 76
     1
 77
     6
 78
     2
 67
     7
 79
     5
170
     0
171
     0
290
     0
174
     0
 93
       13
 44
0.0
173
     0
291
     1
 45
0.0
1001
ACAD
1000
AcDbSavedByObjectVersion
1070
     0
  0
VISUALSTYLE
  5
2B
102
{ACAD_REACTORS
330
29
102
}
102
{ACAD_XDICTIONARY
360
C6C
102
}
330
29
100
AcDbVisualStyle
  2

 70
     1
 71
     2
 72
     1
 73
     1
 90
        2
 40
-0.6
 41
30.0
 62
     5
 63
     7
 74
     1
 91
        0
 64
     7
 65
   257
 75
     1
175
     1
 42
1.0
 92
        0
 66
   257
 43
1.0
 76
     1
 77
     6
 78
     2
 67
     7
 79
     5
170
     0
171
     0
290
     0
174
     0
 93
       13
 44
0.0
173
     0
291
     1
 45
0.0
1001
ACAD
1000
AcDbSavedByObjectVersion
1070
     0
  0
VISUALSTYLE
  5
2C
102
{ACAD_REACTORS
330
29
102
}
102
{ACAD_XDICTIONARY
360
C6E
102
}
330
29
100
AcDbVisualStyle
  2

 70
     2
 71
     2
 72
     2
 73
     1
 90
        2
 40
-0.6
 41
30.0
 62
     5
 63
     7
 74
     0
 91
        0
 64
     7
 65
   257
 75
     1
175
     1
 42
1.0
 92
        0
 66
     7
 43
1.0
 76
     1
 77
     6
 78
     2
 67
     7
 79
     5
170
     0
171
     0
290
     0
174
     0
 93
       13
 44
0.0
173
     0
291
     1
 45
0.0
1001
ACAD
1000
AcDbSavedByObjectVersion
1070
     0
  0
VISUALSTYLE
  5
2D
102
{ACAD_REACTORS
330
29
102
}
102
{ACAD_XDICTIONARY
360
C70
102
}
330
29
100
AcDbVisualStyle
  2

 70
     3
 71
     2
 72
     2
 73
     1
 90
        2
 40
-0.6
 41
30.0
 62
     5
 63
     7
 74
     1
 91
        0
 64
     7
 65
   257
 75
     1
175
     1
 42
1.0
 92
        0
 66
   257
 43
1.0
 76
     1
 77
     6
 78
     2
 67
     7
 79
     5
170
     0
171
     0
290
     0
174
     0
 93
       13
 44
0.0
173
     0
291
     1
 45
0.0
1001
ACAD
1000
AcDbSavedByObjectVersion
1070
     0
  0
VISUALSTYLE
  5
31
102
{ACAD_REACTORS
330
29
102
}
102
{ACAD_XDICTIONARY
360
C72
102
}
330
29
100
AcDbVisualStyle
  2

 70
     6
 71
     1
 72
     2
 73
     2
 90
        0
 40
-0.6
 41
-30.0
 62
     5
 63
     7
 74
     2
 91
        2
 64
     7
 65
   257
 75
     2
175
     1
 42
40.0
 92
        0
 66
   257
 43
1.0
 76
     1
 77
     6
 78
     2
 67
     7
 79
     3
170
     0
171
     0
290
     0
174
     0
 93
        1
 44
0.0
173
     0
291
     0
 45
0.0
1001
ACAD
1000
AcDbSavedByObjectVersion
1070
     0
  0
VISUALSTYLE
  5
3F
102
{ACAD_REACTORS
330
29
102
}
102
{ACAD_XDICTIONARY
360
C74
102
}
330
29
100
AcDbVisualStyle
  2

 70
    20
 71
     2
 72
     2
 73
     0
 90
        0
 40
-0.6
 41
-30.0
 62
     5
 63
     7
 74
     1
 91
        4
 64
     7
 65
   257
 75
     1
175
     1
 42
1.0
 92
       10
 66
     7
 43
1.0
 76
     1
 77
     6
 78
     2
 67
     7
 79
     5
170
     0
171
     0
290
     0
174
     0
 93
        1
 44
0.0
173
     0
291
     1
 45
0.0
1001
ACAD
1000
AcDbSavedByObjectVersion
1070
     0
  0
VISUALSTYLE
  5
37
102
{ACAD_REACTORS
330
29
102
}
102
{ACAD_XDICTIONARY
360
C76
102
}
330
29
100
AcDbVisualStyle
  2

 70
    14
 71
     2
 72
     2
 73
     0
 90
        0
 40
-0.6
 41
-30.0
 62
     5
 63
     7
 74
     1
 91
        4
 64
     7
 65
   257
 75
     7
175
     7
 42
1.0
 92
        8
 66
     7
 43
1.0
 76
     1
 77
     6
 78
     2
 67
     7
 79
     5
170
     0
171
     0
290
     0
174
     0
 93
        1
 44
0.0
173
     0
291
     1
 45
0.0
1001
ACAD
1000
AcDbSavedByObjectVersion
1070
     0
  0
VISUALSTYLE
  5
40
102
{ACAD_REACTORS
330
29
102
}
102
{ACAD_XDICTIONARY
360
C78
102
}
330
29
100
AcDbVisualStyle
  2

 70
    21
 71
     2
 72
     2
 73
     0
 90
        0
 40
-0.6
 41
-30.0
 62
     5
 63
     7
 74
     1
 91
        4
 64
     7
 65
   257
 75
     1
175
     1
 42
1.0
 92
        9
 66
     7
 43
1.0
 76
     1
 77
     6
 78
     2
 67
     7
 79
     5
170
     0
171
     0
290
     0
174
     0
 93
        1
 44
0.0
173
     0
291
     1
 45
0.0
1001
ACAD
1000
AcDbSavedByObjectVersion
1070
     0
  0
VISUALSTYLE
  5
33
102
{ACAD_REACTORS
330
29
102
}
102
{ACAD_XDICTIONARY
360
C7A
102
}
330
29
100
AcDbVisualStyle
  2

 70
     8
 71
     2
 72
     3
 73
     0
 90
        2
 40
-0.6
 41
30.0
 62
     5
 63
     7
 74
     0
 91
        0
 64
     7
 65
   257
 75
     1
175
     1
 42
1.0
 92
        8
 66
   257
 43
1.0
 76
     1
 77
     6
 78
     2
 67
     7
 79
     3
170
     0
171
     0
290
     0
174
     0
 93
       13
 44
0.0
173
     0
291
     0
 45
0.0
1001
ACAD
1000
AcDbSavedByObjectVersion
1070
     0
  0
VISUALSTYLE
  5
3E
102
{ACAD_REACTORS
330
29
102
}
102
{ACAD_XDICTIONARY
360
C7C
102
}
330
29
100
AcDbVisualStyle
  2

 70
    27
 71
     2
 72
     2
 73
     1
 90
        2
 40
-0.6
 41
30.0
 62
     5
 63
     7
 74
     0
 91
        4
 64
     7
 65
   257
 75
     1
175
     1
 42
1.0
 92
        8
 66
   257
 43
1.0
 76
     1
 77
     6
 78
     2
 67
     8
 79
     3
170
     0
171
     0
290
     0
174
     0
 93
        5
 44
0.0
173
     0
291
     0
 45
0.0
1001
ACAD
1000
AcDbSavedByObjectVersion
1070
     0
  0
VISUALSTYLE
  5
3D
102
{ACAD_REACTORS
330
29
102
}
102
{ACAD_XDICTIONARY
360
C7E
102
}
330
29
100
AcDbVisualStyle
  2

 70
    26
 71
     2
 72
     2
 73
     1
 90
        2
 40
-0.6
 41
30.0
 62
     5
 63
     7
 74
     1
 91
       10
 64
     7
 65
   257
 75
     2
175
     1
 42
1.0
 92
        8
 66
   257
 43
1.0
 76
     1
 77
     6
 78
     2
 67
     7
 79
     3
170
     0
171
     0
290
     0
174
     0
 93
        5
 44
0.0
173
     0
291
     0
 45
0.0
1001
ACAD
1000
AcDbSavedByObjectVersion
1070
     0
  0
VISUALSTYLE
  5
3A
102
{ACAD_REACTORS
330
29
102
}
102
{ACAD_XDICTIONARY
360
C80
102
}
330
29
100
AcDbVisualStyle
  2

 70
    23
 71
     2
 72
     2
 73
     3
 90
        0
 40
-0.6
 41
-30.0
 62
     5
 63
     7
 74
     2
 91
        2
 64
     7
 65
     7
 75
     1
175
     1
 42
40.0
 92
        8
 66
     7
 43
1.0
 76
     1
 77
     6
 78
     2
 67
     7
 79
     3
170
     0
171
     0
290
     0
174
     0
 93
        1
 44
0.0
173
     0
291
     0
 45
0.0
1001
ACAD
1000
AcDbSavedByObjectVersion
1070
     0
  0
VISUALSTYLE
  5
3B
102
{ACAD_REACTORS
330
29
102
}
102
{ACAD_XDICTIONARY
360
C82
102
}
330
29
100
AcDbVisualStyle
  2

 70
    24
 71
     1
 72
     2
 73
     2
 90
        0
 40
-0.6
 41
-30.0
 62
     5
 63
     7
 74
     2
 91
        2
 64
     7
 65
     7
 75
     1
175
     1
 42
40.0
 92
       11
 66
     7
 43
1.0
 76
     1
 77
     6
 78
     2
 67
     7
 79
     6
170
     0
171
     0
290
     0
174
     0
 93
        1
 44
0.0
173
     0
291
     0
 45
0.0
1001
ACAD
1000
AcDbSavedByObjectVersion
1070
     0
  0
VISUALSTYLE
  5
36
102
{ACAD_REACTORS
330
29
102
}
102
{ACAD_XDICTIONARY
360
C84
102
}
330
29
100
AcDbVisualStyle
  2

 70
    13
 71
     2
 72
     2
 73
     0
 90
        0
 40
-0.6
 41
-30.0
 62
     5
 63
     7
 74
     1
 91
        4
 64
     7
 65
   257
 75
     1
175
     1
 42
1.0
 92
       12
 66
     7
 43
1.0
 76
     1
 77
     6
 78
     2
 67
     7
 79
     5
170
     0
171
     0
290
     0
174
     0
 93
        1
 44
0.0
173
     0
291
     1
 45
0.0
1001
ACAD
1000
AcDbSavedByObjectVersion
1070
     0
  0
VISUALSTYLE
  5
30
102
{ACAD_REACTORS
330
29
102
}
102
{ACAD_XDICTIONARY
360
C86
102
}
330
29
100
AcDbVisualStyle
  2

 70
     5
 71
     0
 72
     2
 73
     0
 90
        0
 40
-0.6
 41
-30.0
 62
     5
 63
     7
 74
     1
 91
        4
 64
     7
 65
   257
 75
     1
175
     1
 42
1.0
 92
        0
 66
   257
 43
1.0
 76
     1
 77
     6
 78
     2
 67
     7
 79
     3
170
     0
171
     0
290
     0
174
     0
 93
        1
 44
0.0
173
     0
291
     0
 45
0.0
1001
ACAD
1000
AcDbSavedByObjectVersion
1070
     0
  0
VISUALSTYLE
  5
3C
102
{ACAD_REACTORS
330
29
102
}
102
{ACAD_XDICTIONARY
360
C88
102
}
330
29
100
AcDbVisualStyle
  2

 70
    25
 71
     2
 72
     2
 73
     1
 90
        1
 40
0.5
 41
-30.0
 62
     5
 63
     7
 74
     1
 91
        0
 64
     7
 65
   257
 75
     1
175
     1
 42
1.0
 92
        8
 66
     7
 43
1.0
 76
     1
 77
     6
 78
     2
 67
     7
 79
     3
170
     0
171
     0
290
     0
174
     0
 93
       13
 44
0.0
173
     0
291
     0
 45
0.0
1001
ACAD
1000
AcDbSavedByObjectVersion
1070
     0
  0
XRECORD
  5
C48
102
{ACAD_REACTORS
330
C47
102
}
330
C47
100
AcDbXrecord
280
     1
340
62
  0
XRECORD
  5
C49
102
{ACAD_REACTORS
330
C47
102
}
330
C47
100
AcDbXrecord
280
     1
340
10
  0
DICTIONARYVAR
  5
C4D
102
{ACAD_REACTORS
330
6C9
102
}
330
6C9
100
DictionaryVariables
280
     0
  1
1:1
  0
DICTIONARYVAR
  5
6CB
102
{ACAD_REACTORS
330
6C9
102
}
330
6C9
100
DictionaryVariables
280
     0
  1
Standard
  0
DICTIONARYVAR
  5
6CA
102
{ACAD_REACTORS
330
6C9
102
}
330
6C9
100
DictionaryVariables
280
     0
  1
Standard
  0
DICTIONARYVAR
  5
6CF
102
{ACAD_REACTORS
330
6C9
102
}
330
6C9
100
DictionaryVariables
280
     0
  1
1
  0
DICTIONARYVAR
  5
C01
102
{ACAD_REACTORS
330
6C9
102
}
330
6C9
100
DictionaryVariables
280
     0
  1
1
  0
DICTIONARYVAR
  5
6CE
102
{ACAD_REACTORS
330
6C9
102
}
330
6C9
100
DictionaryVariables
280
     0
  1
0
  0
DICTIONARYVAR
  5
BFE
102
{ACAD_REACTORS
330
6C9
102
}
330
6C9
100
DictionaryVariables
280
     0
  1
0
  0
DICTIONARYVAR
  5
6CD
102
{ACAD_REACTORS
330
6C9
102
}
330
6C9
100
DictionaryVariables
280
     0
  1
127
  0
DICTIONARYVAR
  5
B85
102
{ACAD_REACTORS
330
6C9
102
}
330
6C9
100
DictionaryVariables
280
     0
  1
2
  0
DICTIONARY
  5
C4E
330
19
100
AcDbDictionary
280
     1
281
     1
  3
ACAD_XREC_ROUNDTRIP
360
C4F
  0
DICTIONARY
  5
C50
330
11
100
AcDbDictionary
280
     1
281
     1
  3
ACAD_XREC_ROUNDTRIP
360
C51
  0
DICTIONARY
  5
C52
330
21
100
AcDbDictionary
280
     1
281
     1
  3
ACAD_XREC_ROUNDTRIP
360
C53
  0
DICTIONARY
  5
C54
330
66
100
AcDbDictionary
280
     1
281
     1
  3
ACAD_XREC_ROUNDTRIP
360
C55
  0
DICTIONARY
  5
C56
330
2F
100
AcDbDictionary
280
     1
281
     1
  3
ACAD_XREC_ROUNDTRIP
360
C57
  0
DICTIONARY
  5
C58
330
71A
100
AcDbDictionary
280
     1
281
     1
  3
ACAD_XREC_ROUNDTRIP
360
C59
  0
DICTIONARY
  5
C5A
330
4D8
100
AcDbDictionary
280
     1
281
     1
  3
ACAD_XREC_ROUNDTRIP
360
C5B
  0
DICTIONARY
  5
C5C
330
2E
100
AcDbDictionary
280
     1
281
     1
  3
ACAD_XREC_ROUNDTRIP
360
C5D
  0
DICTIONARY
  5
C5E
330
35
100
AcDbDictionary
280
     1
281
     1
  3
ACAD_XREC_ROUNDTRIP
360
C5F
  0
DICTIONARY
  5
C60
330
39
100
AcDbDictionary
280
     1
281
     1
  3
ACAD_XREC_ROUNDTRIP
360
C61
  0
DICTIONARY
  5
C62
330
32
100
AcDbDictionary
280
     1
281
     1
  3
ACAD_XREC_ROUNDTRIP
360
C63
  0
DICTIONARY
  5
C64
330
34
100
AcDbDictionary
280
     1
281
     1
  3
ACAD_XREC_ROUNDTRIP
360
C65
  0
DICTIONARY
  5
C66
330
41
100
AcDbDictionary
280
     1
281
     1
  3
ACAD_XREC_ROUNDTRIP
360
C67
  0
DICTIONARY
  5
C68
330
38
100
AcDbDictionary
280
     1
281
     1
  3
ACAD_XREC_ROUNDTRIP
360
C69
  0
DICTIONARY
  5
C6A
330
2A
100
AcDbDictionary
280
     1
281
     1
  3
ACAD_XREC_ROUNDTRIP
360
C6B
  0
DICTIONARY
  5
C6C
330
2B
100
AcDbDictionary
280
     1
281
     1
  3
ACAD_XREC_ROUNDTRIP
360
C6D
  0
DICTIONARY
  5
C6E
330
2C
100
AcDbDictionary
280
     1
281
     1
  3
ACAD_XREC_ROUNDTRIP
360
C6F
  0
DICTIONARY
  5
C70
330
2D
100
AcDbDictionary
280
     1
281
     1
  3
ACAD_XREC_ROUNDTRIP
360
C71
  0
DICTIONARY
  5
C72
330
31
100
AcDbDictionary
280
     1
281
     1
  3
ACAD_XREC_ROUNDTRIP
360
C73
  0
DICTIONARY
  5
C74
330
3F
100
AcDbDictionary
280
     1
281
     1
  3
ACAD_XREC_ROUNDTRIP
360
C75
  0
DICTIONARY
  5
C76
330
37
100
AcDbDictionary
280
     1
281
     1
  3
ACAD_XREC_ROUNDTRIP
360
C77
  0
DICTIONARY
  5
C78
330
40
100
AcDbDictionary
280
     1
281
     1
  3
ACAD_XREC_ROUNDTRIP
360
C79
  0
DICTIONARY
  5
C7A
330
33
100
AcDbDictionary
280
     1
281
     1
  3
ACAD_XREC_ROUNDTRIP
360
C7B
  0
DICTIONARY
  5
C7C
330
3E
100
AcDbDictionary
280
     1
281
     1
  3
ACAD_XREC_ROUNDTRIP
360
C7D
  0
DICTIONARY
  5
C7E
330
3D
100
AcDbDictionary
280
     1
281
     1
  3
ACAD_XREC_ROUNDTRIP
360
C7F
  0
DICTIONARY
  5
C80
330
3A
100
AcDbDictionary
280
     1
281
     1
  3
ACAD_XREC_ROUNDTRIP
360
C81
  0
DICTIONARY
  5
C82
330
3B
100
AcDbDictionary
280
     1
281
     1
  3
ACAD_XREC_ROUNDTRIP
360
C83
  0
DICTIONARY
  5
C84
330
36
100
AcDbDictionary
280
     1
281
     1
  3
ACAD_XREC_ROUNDTRIP
360
C85
  0
DICTIONARY
  5
C86
330
30
100
AcDbDictionary
280
     1
281
     1
  3
ACAD_XREC_ROUNDTRIP
360
C87
  0
DICTIONARY
  5
C88
330
3C
100
AcDbDictionary
280
     1
281
     1
  3
ACAD_XREC_ROUNDTRIP
360
C89
  0
XRECORD
  5
C4F
102
{ACAD_REACTORS
330
C4E
102
}
330
C4E
100
AcDbXrecord
280
     1
102
MATERIAL
148
0.0
149
0.0
149
0.0
 93
        0
 94
      127
282
     0
 72
     0
 77
     0
171
     0
175
     0
179
     0
273
     0
  0
XRECORD
  5
C51
102
{ACAD_REACTORS
330
C50
102
}
330
C50
100
AcDbXrecord
280
     1
102
MATERIAL
148
0.0
149
0.0
149
0.0
 93
        0
 94
      127
282
     0
 72
     0
 77
     0
171
     0
175
     0
179
     0
273
     0
  0
XRECORD
  5
C53
102
{ACAD_REACTORS
330
C52
102
}
330
C52
100
AcDbXrecord
280
     1
102
MATERIAL
148
0.0
149
0.0
149
0.0
 93
        0
 94
      127
282
     0
 72
     0
 77
     0
171
     0
175
     0
179
     0
273
     0
  0
XRECORD
  5
C55
102
{ACAD_REACTORS
330
C54
102
}
330
C54
100
AcDbXrecord
280
     1
102
ACAD_ROUNDTRIP_2010_MLEADER_STYLE
  0
XRECORD
  5
C57
102
{ACAD_REACTORS
330
C56
102
}
330
C56
100
AcDbXrecord
280
     1
102
RTVSPropertyOp0
 70
     1
102
RTVSPropertyOp1
 70
     1
102
RTVSPropertyOp2
 70
     1
102
RTVSPropertyOp3
 70
     1
102
RTVSPropertyOp4
 70
     1
102
RTVSPropertyOp5
 70
     1
102
RTVSPropertyOp6
 70
     1
102
RTVSPropertyOp7
 70
     1
102
RTVSPropertyOp8
 70
     1
102
RTVSPropertyOp9
 70
     1
102
RTVSPropertyOp10
 70
     1
102
RTVSPropertyOp11
 70
     1
102
RTVSPropertyOp12
 70
     1
102
RTVSPropertyOp13
 70
     1
102
RTVSPropertyOp14
 70
     1
102
RTVSPropertyOp15
 70
     1
102
RTVSPropertyOp16
 70
     1
102
RTVSPropertyOp17
 70
     1
102
RTVSPropertyOp18
 70
     1
102
RTVSPropertyOp19
 70
     1
102
RTVSPropertyOp20
 70
     1
102
RTVSPropertyOp21
 70
     1
102
RTVSPropertyOp22
 70
     1
102
RTVSPropertyOp23
 70
     1
102
RTVSPropertyOp24
 70
     1
102
RTVSPropertyOp25
 70
     1
102
RTVSPropertyOp26
 70
     1
102
RTVSPropertyOp27
 70
     1
102
RTVSPropertyOp28
 70
     1
102
RTVSPropertyOp29
 70
     1
102
RTVSPropertyOp30
 70
     1
102
RTVSPropertyOp31
 70
     1
102
RTVSPropertyOp32
 70
     1
102
RTVSPropertyOp33
 70
     1
102
RTVSPropertyOp34
 70
     1
102
RTVSPropertyOp35
 70
     1
102
RTVSPropertyOp36
 70
     1
102
RTVSPropertyOp37
 70
     1
102
RTVSPropertyOp38
 70
     1
102
RTVSPropertyOp39
 70
     1
102
RTVSPropertyOp40
 70
     1
102
RTVSPropertyOp41
 70
     1
102
RTVSPropertyOp42
 70
     1
102
RTVSPropertyOp43
 70
     1
102
RTVSPropertyOp44
 70
     1
102
RTVSPropertyOp45
 70
     1
102
RTVSPropertyOp46
 70
     1
102
RTVSPropertyOp47
 70
     1
102
RTVSPropertyOp48
 70
     1
102
RTVSPropertyOp49
 70
     1
102
RTVSPropertyOp50
 70
     1
102
RTVSPropertyOp51
 70
     0
102
RTVSPropertyOp52
 70
     0
102
RTVSPropertyOp53
 70
     1
102
RTVSPropertyOp54
 70
     1
102
RTVSPropertyOp55
 70
     1
102
RTVSPropertyOp56
 70
     1
102
RTVSPropertyOp57
 70
     1
102
RTVSPost2010Prop28
280
     1
102
RTVSPost2010PropOp28
 70
     1
102
RTVSPost2010Prop29
280
     1
102
RTVSPost2010PropOp29
 70
     1
102
RTVSPost2010Prop30
280
     0
102
RTVSPost2010PropOp30
 70
     1
102
RTVSPost2010Prop31
280
     0
102
RTVSPost2010PropOp31
 70
     1
102
RTVSPost2010Prop32
280
     0
102
RTVSPost2010PropOp32
 70
     1
102
RTVSPost2010Prop33
280
     0
102
RTVSPost2010PropOp33
 70
     1
102
RTVSPost2010Prop34
280
     0
102
RTVSPost2010PropOp34
 70
     1
102
RTVSPost2010Prop35
280
     0
102
RTVSPost2010PropOp35
 70
     1
102
RTVSPost2010Prop36
280
     0
102
RTVSPost2010PropOp36
 70
     1
102
RTVSPost2010Prop37
 90
       50
102
RTVSPost2010PropOp37
 70
     1
102
RTVSPost2010Prop38
140
0.0
102
RTVSPost2010PropOp38
 70
     1
102
RTVSPost2010Prop39
140
1.0
102
RTVSPost2010PropOp39
 70
     1
102
RTVSPost2010Prop40
 90
        0
102
RTVSPost2010PropOp40
 70
     1
102
RTVSPost2010Prop41ColorIndex
 90
       18
102
RTVSPost2010Prop41ColorRGB
 90
        0
102
RTVSPost2010PropOp41
 70
     1
102
RTVSPost2010Prop42
 90
       50
102
RTVSPost2010PropOp42
 70
     1
102
RTVSPost2010Prop43
 90
        3
102
RTVSPost2010PropOp43
 70
     1
102
RTVSPost2010Prop44ColorIndex
 90
        5
102
RTVSPost2010Prop44ColorRGB
 90
      255
102
RTVSPost2010PropOp44
 70
     1
102
RTVSPost2010Prop45
280
     0
102
RTVSPost2010PropOp45
 70
     1
102
RTVSPost2010Prop46
 90
       50
102
RTVSPost2010PropOp46
 70
     1
102
RTVSPost2010Prop47
 90
       50
102
RTVSPost2010PropOp47
 70
     1
102
RTVSPost2010Prop48
 90
       50
102
RTVSPost2010PropOp48
 70
     1
102
RTVSPost2010Prop49
280
     0
102
RTVSPost2010PropOp49
 70
     1
102
RTVSPost2010Prop50
 90
       50
102
RTVSPost2010PropOp50
 70
     1
102
RTVSPost2010Prop51ColorIndex
 90
      256
102
RTVSPost2010Prop51ColorRGB
 90
-16777216
102
RTVSPost2010PropOp51
 70
     0
102
RTVSPost2010Prop52
140
1.0
102
RTVSPost2010PropOp52
 70
     0
102
RTVSPost2010Prop53
 90
        2
102
RTVSPost2010PropOp53
 70
     1
102
RTVSPost2010Prop54
  1
strokes_ogs.tif
102
RTVSPost2010PropOp54
 70
     1
102
RTVSPost2010Prop55
280
     0
102
RTVSPost2010PropOp55
 70
     1
102
RTVSPost2010Prop56
140
1.0
102
RTVSPost2010PropOp56
 70
     1
102
RTVSPost2010Prop57
140
1.0
102
RTVSPost2010PropOp57
 70
     1
  0
XRECORD
  5
C59
102
{ACAD_REACTORS
330
C58
102
}
330
C58
100
AcDbXrecord
280
     1
102
RTVSPropertyOp0
 70
     1
102
RTVSPropertyOp1
 70
     1
102
RTVSPropertyOp2
 70
     1
102
RTVSPropertyOp3
 70
     1
102
RTVSPropertyOp4
 70
     1
102
RTVSPropertyOp5
 70
     1
102
RTVSPropertyOp6
 70
     1
102
RTVSPropertyOp7
 70
     1
102
RTVSPropertyOp8
 70
     1
102
RTVSPropertyOp9
 70
     1
102
RTVSPropertyOp10
 70
     1
102
RTVSPropertyOp11
 70
     1
102
RTVSPropertyOp12
 70
     1
102
RTVSPropertyOp13
 70
     1
102
RTVSPropertyOp14
 70
     1
102
RTVSPropertyOp15
 70
     1
102
RTVSPropertyOp16
 70
     1
102
RTVSPropertyOp17
 70
     1
102
RTVSPropertyOp18
 70
     1
102
RTVSPropertyOp19
 70
     1
102
RTVSPropertyOp20
 70
     1
102
RTVSPropertyOp21
 70
     1
102
RTVSPropertyOp22
 70
     1
102
RTVSPropertyOp23
 70
     1
102
RTVSPropertyOp24
 70
     1
102
RTVSPropertyOp25
 70
     1
102
RTVSPropertyOp26
 70
     1
102
RTVSPropertyOp27
 70
     1
102
RTVSPropertyOp28
 70
     1
102
RTVSPropertyOp29
 70
     1
102
RTVSPropertyOp30
 70
     1
102
RTVSPropertyOp31
 70
     1
102
RTVSPropertyOp32
 70
     1
102
RTVSPropertyOp33
 70
     1
102
RTVSPropertyOp34
 70
     1
102
RTVSPropertyOp35
 70
     1
102
RTVSPropertyOp36
 70
     1
102
RTVSPropertyOp37
 70
     1
102
RTVSPropertyOp38
 70
     1
102
RTVSPropertyOp39
 70
     1
102
RTVSPropertyOp40
 70
     1
102
RTVSPropertyOp41
 70
     1
102
RTVSPropertyOp42
 70
     1
102
RTVSPropertyOp43
 70
     1
102
RTVSPropertyOp44
 70
     1
102
RTVSPropertyOp45
 70
     1
102
RTVSPropertyOp46
 70
     1
102
RTVSPropertyOp47
 70
     1
102
RTVSPropertyOp48
 70
     1
102
RTVSPropertyOp49
 70
     1
102
RTVSPropertyOp50
 70
     1
102
RTVSPropertyOp51
 70
     0
102
RTVSPropertyOp52
 70
     0
102
RTVSPropertyOp53
 70
     1
102
RTVSPropertyOp54
 70
     1
102
RTVSPropertyOp55
 70
     1
102
RTVSPropertyOp56
 70
     1
102
RTVSPropertyOp57
 70
     1
102
RTVSPost2010Prop28
280
     0
102
RTVSPost2010PropOp28
 70
     1
102
RTVSPost2010Prop29
280
     1
102
RTVSPost2010PropOp29
 70
     1
102
RTVSPost2010Prop30
280
     1
102
RTVSPost2010PropOp30
 70
     1
102
RTVSPost2010Prop31
280
     0
102
RTVSPost2010PropOp31
 70
     1
102
RTVSPost2010Prop32
280
     0
102
RTVSPost2010PropOp32
 70
     1
102
RTVSPost2010Prop33
280
     0
102
RTVSPost2010PropOp33
 70
     1
102
RTVSPost2010Prop34
280
     0
102
RTVSPost2010PropOp34
 70
     1
102
RTVSPost2010Prop35
280
     0
102
RTVSPost2010PropOp35
 70
     1
102
RTVSPost2010Prop36
280
     0
102
RTVSPost2010PropOp36
 70
     1
102
RTVSPost2010Prop37
 90
       50
102
RTVSPost2010PropOp37
 70
     1
102
RTVSPost2010Prop38
140
0.0
102
RTVSPost2010PropOp38
 70
     1
102
RTVSPost2010Prop39
140
1.0
102
RTVSPost2010PropOp39
 70
     1
102
RTVSPost2010Prop40
 90
        0
102
RTVSPost2010PropOp40
 70
     1
102
RTVSPost2010Prop41ColorIndex
 90
       18
102
RTVSPost2010Prop41ColorRGB
 90
        0
102
RTVSPost2010PropOp41
 70
     1
102
RTVSPost2010Prop42
 90
       50
102
RTVSPost2010PropOp42
 70
     1
102
RTVSPost2010Prop43
 90
        3
102
RTVSPost2010PropOp43
 70
     1
102
RTVSPost2010Prop44ColorIndex
 90
        5
102
RTVSPost2010Prop44ColorRGB
 90
      255
102
RTVSPost2010PropOp44
 70
     1
102
RTVSPost2010Prop45
280
     0
102
RTVSPost2010PropOp45
 70
     1
102
RTVSPost2010Prop46
 90
       50
102
RTVSPost2010PropOp46
 70
     1
102
RTVSPost2010Prop47
 90
       50
102
RTVSPost2010PropOp47
 70
     1
102
RTVSPost2010Prop48
 90
       50
102
RTVSPost2010PropOp48
 70
     1
102
RTVSPost2010Prop49
280
     0
102
RTVSPost2010PropOp49
 70
     1
102
RTVSPost2010Prop50
 90
       50
102
RTVSPost2010PropOp50
 70
     1
102
RTVSPost2010Prop51ColorIndex
 90
      256
102
RTVSPost2010Prop51ColorRGB
 90
-16777216
102
RTVSPost2010PropOp51
 70
     0
102
RTVSPost2010Prop52
140
1.0
102
RTVSPost2010PropOp52
 70
     0
102
RTVSPost2010Prop53
 90
        2
102
RTVSPost2010PropOp53
 70
     1
102
RTVSPost2010Prop54
  1
strokes_ogs.tif
102
RTVSPost2010PropOp54
 70
     1
102
RTVSPost2010Prop55
280
     0
102
RTVSPost2010PropOp55
 70
     1
102
RTVSPost2010Prop56
140
1.0
102
RTVSPost2010PropOp56
 70
     1
102
RTVSPost2010Prop57
140
1.0
102
RTVSPost2010PropOp57
 70
     1
  0
XRECORD
  5
C5B
102
{ACAD_REACTORS
330
C5A
102
}
330
C5A
100
AcDbXrecord
280
     1
102
RTVSPropertyOp0
 70
     1
102
RTVSPropertyOp1
 70
     1
102
RTVSPropertyOp2
 70
     1
102
RTVSPropertyOp3
 70
     1
102
RTVSPropertyOp4
 70
     1
102
RTVSPropertyOp5
 70
     1
102
RTVSPropertyOp6
 70
     1
102
RTVSPropertyOp7
 70
     1
102
RTVSPropertyOp8
 70
     1
102
RTVSPropertyOp9
 70
     1
102
RTVSPropertyOp10
 70
     1
102
RTVSPropertyOp11
 70
     1
102
RTVSPropertyOp12
 70
     1
102
RTVSPropertyOp13
 70
     1
102
RTVSPropertyOp14
 70
     1
102
RTVSPropertyOp15
 70
     1
102
RTVSPropertyOp16
 70
     1
102
RTVSPropertyOp17
 70
     1
102
RTVSPropertyOp18
 70
     1
102
RTVSPropertyOp19
 70
     1
102
RTVSPropertyOp20
 70
     1
102
RTVSPropertyOp21
 70
     1
102
RTVSPropertyOp22
 70
     1
102
RTVSPropertyOp23
 70
     1
102
RTVSPropertyOp24
 70
     1
102
RTVSPropertyOp25
 70
     1
102
RTVSPropertyOp26
 70
     1
102
RTVSPropertyOp27
 70
     1
102
RTVSPropertyOp28
 70
     1
102
RTVSPropertyOp29
 70
     1
102
RTVSPropertyOp30
 70
     1
102
RTVSPropertyOp31
 70
     1
102
RTVSPropertyOp32
 70
     1
102
RTVSPropertyOp33
 70
     1
102
RTVSPropertyOp34
 70
     1
102
RTVSPropertyOp35
 70
     1
102
RTVSPropertyOp36
 70
     1
102
RTVSPropertyOp37
 70
     1
102
RTVSPropertyOp38
 70
     1
102
RTVSPropertyOp39
 70
     1
102
RTVSPropertyOp40
 70
     1
102
RTVSPropertyOp41
 70
     1
102
RTVSPropertyOp42
 70
     1
102
RTVSPropertyOp43
 70
     1
102
RTVSPropertyOp44
 70
     1
102
RTVSPropertyOp45
 70
     1
102
RTVSPropertyOp46
 70
     1
102
RTVSPropertyOp47
 70
     1
102
RTVSPropertyOp48
 70
     1
102
RTVSPropertyOp49
 70
     1
102
RTVSPropertyOp50
 70
     1
102
RTVSPropertyOp51
 70
     0
102
RTVSPropertyOp52
 70
     0
102
RTVSPropertyOp53
 70
     1
102
RTVSPropertyOp54
 70
     1
102
RTVSPropertyOp55
 70
     1
102
RTVSPropertyOp56
 70
     1
102
RTVSPropertyOp57
 70
     1
102
RTVSPost2010Prop28
280
     0
102
RTVSPost2010PropOp28
 70
     1
102
RTVSPost2010Prop29
280
     1
102
RTVSPost2010PropOp29
 70
     1
102
RTVSPost2010Prop30
280
     1
102
RTVSPost2010PropOp30
 70
     1
102
RTVSPost2010Prop31
280
     0
102
RTVSPost2010PropOp31
 70
     1
102
RTVSPost2010Prop32
280
     0
102
RTVSPost2010PropOp32
 70
     1
102
RTVSPost2010Prop33
280
     0
102
RTVSPost2010PropOp33
 70
     1
102
RTVSPost2010Prop34
280
     0
102
RTVSPost2010PropOp34
 70
     1
102
RTVSPost2010Prop35
280
     0
102
RTVSPost2010PropOp35
 70
     1
102
RTVSPost2010Prop36
280
     0
102
RTVSPost2010PropOp36
 70
     1
102
RTVSPost2010Prop37
 90
       50
102
RTVSPost2010PropOp37
 70
     1
102
RTVSPost2010Prop38
140
0.0
102
RTVSPost2010PropOp38
 70
     1
102
RTVSPost2010Prop39
140
1.0
102
RTVSPost2010PropOp39
 70
     1
102
RTVSPost2010Prop40
 90
        0
102
RTVSPost2010PropOp40
 70
     1
102
RTVSPost2010Prop41ColorIndex
 90
       18
102
RTVSPost2010Prop41ColorRGB
 90
        0
102
RTVSPost2010PropOp41
 70
     1
102
RTVSPost2010Prop42
 90
       50
102
RTVSPost2010PropOp42
 70
     1
102
RTVSPost2010Prop43
 90
        3
102
RTVSPost2010PropOp43
 70
     1
102
RTVSPost2010Prop44ColorIndex
 90
        5
102
RTVSPost2010Prop44ColorRGB
 90
      255
102
RTVSPost2010PropOp44
 70
     1
102
RTVSPost2010Prop45
280
     0
102
RTVSPost2010PropOp45
 70
     1
102
RTVSPost2010Prop46
 90
       50
102
RTVSPost2010PropOp46
 70
     1
102
RTVSPost2010Prop47
 90
       50
102
RTVSPost2010PropOp47
 70
     1
102
RTVSPost2010Prop48
 90
       50
102
RTVSPost2010PropOp48
 70
     1
102
RTVSPost2010Prop49
280
     0
102
RTVSPost2010PropOp49
 70
     1
102
RTVSPost2010Prop50
 90
       50
102
RTVSPost2010PropOp50
 70
     1
102
RTVSPost2010Prop51ColorIndex
 90
      256
102
RTVSPost2010Prop51ColorRGB
 90
-16777216
102
RTVSPost2010PropOp51
 70
     0
102
RTVSPost2010Prop52
140
1.0
102
RTVSPost2010PropOp52
 70
     0
102
RTVSPost2010Prop53
 90
        2
102
RTVSPost2010PropOp53
 70
     1
102
RTVSPost2010Prop54
  1
strokes_ogs.tif
102
RTVSPost2010PropOp54
 70
     1
102
RTVSPost2010Prop55
280
     0
102
RTVSPost2010PropOp55
 70
     1
102
RTVSPost2010Prop56
140
1.0
102
RTVSPost2010PropOp56
 70
     1
102
RTVSPost2010Prop57
140
1.0
102
RTVSPost2010PropOp57
 70
     1
  0
XRECORD
  5
C5D
102
{ACAD_REACTORS
330
C5C
102
}
330
C5C
100
AcDbXrecord
280
     1
102
RTVSPropertyOp0
 70
     1
102
RTVSPropertyOp1
 70
     1
102
RTVSPropertyOp2
 70
     1
102
RTVSPropertyOp3
 70
     1
102
RTVSPropertyOp4
 70
     1
102
RTVSPropertyOp5
 70
     1
102
RTVSPropertyOp6
 70
     1
102
RTVSPropertyOp7
 70
     1
102
RTVSPropertyOp8
 70
     1
102
RTVSPropertyOp9
 70
     1
102
RTVSPropertyOp10
 70
     1
102
RTVSPropertyOp11
 70
     1
102
RTVSPropertyOp12
 70
     1
102
RTVSPropertyOp13
 70
     1
102
RTVSPropertyOp14
 70
     1
102
RTVSPropertyOp15
 70
     1
102
RTVSPropertyOp16
 70
     1
102
RTVSPropertyOp17
 70
     1
102
RTVSPropertyOp18
 70
     1
102
RTVSPropertyOp19
 70
     1
102
RTVSPropertyOp20
 70
     1
102
RTVSPropertyOp21
 70
     1
102
RTVSPropertyOp22
 70
     1
102
RTVSPropertyOp23
 70
     1
102
RTVSPropertyOp24
 70
     1
102
RTVSPropertyOp25
 70
     1
102
RTVSPropertyOp26
 70
     1
102
RTVSPropertyOp27
 70
     1
102
RTVSPropertyOp28
 70
     1
102
RTVSPropertyOp29
 70
     1
102
RTVSPropertyOp30
 70
     1
102
RTVSPropertyOp31
 70
     1
102
RTVSPropertyOp32
 70
     1
102
RTVSPropertyOp33
 70
     1
102
RTVSPropertyOp34
 70
     1
102
RTVSPropertyOp35
 70
     1
102
RTVSPropertyOp36
 70
     1
102
RTVSPropertyOp37
 70
     1
102
RTVSPropertyOp38
 70
     1
102
RTVSPropertyOp39
 70
     1
102
RTVSPropertyOp40
 70
     1
102
RTVSPropertyOp41
 70
     1
102
RTVSPropertyOp42
 70
     1
102
RTVSPropertyOp43
 70
     1
102
RTVSPropertyOp44
 70
     1
102
RTVSPropertyOp45
 70
     1
102
RTVSPropertyOp46
 70
     1
102
RTVSPropertyOp47
 70
     1
102
RTVSPropertyOp48
 70
     1
102
RTVSPropertyOp49
 70
     1
102
RTVSPropertyOp50
 70
     1
102
RTVSPropertyOp51
 70
     0
102
RTVSPropertyOp52
 70
     0
102
RTVSPropertyOp53
 70
     1
102
RTVSPropertyOp54
 70
     1
102
RTVSPropertyOp55
 70
     1
102
RTVSPropertyOp56
 70
     1
102
RTVSPropertyOp57
 70
     1
102
RTVSPost2010Prop28
280
     0
102
RTVSPost2010PropOp28
 70
     1
102
RTVSPost2010Prop29
280
     1
102
RTVSPost2010PropOp29
 70
     1
102
RTVSPost2010Prop30
280
     1
102
RTVSPost2010PropOp30
 70
     1
102
RTVSPost2010Prop31
280
     0
102
RTVSPost2010PropOp31
 70
     1
102
RTVSPost2010Prop32
280
     0
102
RTVSPost2010PropOp32
 70
     1
102
RTVSPost2010Prop33
280
     0
102
RTVSPost2010PropOp33
 70
     1
102
RTVSPost2010Prop34
280
     0
102
RTVSPost2010PropOp34
 70
     1
102
RTVSPost2010Prop35
280
     0
102
RTVSPost2010PropOp35
 70
     1
102
RTVSPost2010Prop36
280
     0
102
RTVSPost2010PropOp36
 70
     1
102
RTVSPost2010Prop37
 90
       50
102
RTVSPost2010PropOp37
 70
     1
102
RTVSPost2010Prop38
140
0.0
102
RTVSPost2010PropOp38
 70
     1
102
RTVSPost2010Prop39
140
1.0
102
RTVSPost2010PropOp39
 70
     1
102
RTVSPost2010Prop40
 90
        0
102
RTVSPost2010PropOp40
 70
     1
102
RTVSPost2010Prop41ColorIndex
 90
       18
102
RTVSPost2010Prop41ColorRGB
 90
        0
102
RTVSPost2010PropOp41
 70
     1
102
RTVSPost2010Prop42
 90
       50
102
RTVSPost2010PropOp42
 70
     1
102
RTVSPost2010Prop43
 90
        3
102
RTVSPost2010PropOp43
 70
     1
102
RTVSPost2010Prop44ColorIndex
 90
        5
102
RTVSPost2010Prop44ColorRGB
 90
      255
102
RTVSPost2010PropOp44
 70
     1
102
RTVSPost2010Prop45
280
     0
102
RTVSPost2010PropOp45
 70
     1
102
RTVSPost2010Prop46
 90
       50
102
RTVSPost2010PropOp46
 70
     1
102
RTVSPost2010Prop47
 90
       50
102
RTVSPost2010PropOp47
 70
     1
102
RTVSPost2010Prop48
 90
       50
102
RTVSPost2010PropOp48
 70
     1
102
RTVSPost2010Prop49
280
     0
102
RTVSPost2010PropOp49
 70
     1
102
RTVSPost2010Prop50
 90
       50
102
RTVSPost2010PropOp50
 70
     1
102
RTVSPost2010Prop51ColorIndex
 90
      256
102
RTVSPost2010Prop51ColorRGB
 90
-16777216
102
RTVSPost2010PropOp51
 70
     0
102
RTVSPost2010Prop52
140
1.0
102
RTVSPost2010PropOp52
 70
     0
102
RTVSPost2010Prop53
 90
        2
102
RTVSPost2010PropOp53
 70
     1
102
RTVSPost2010Prop54
  1
strokes_ogs.tif
102
RTVSPost2010PropOp54
 70
     1
102
RTVSPost2010Prop55
280
     0
102
RTVSPost2010PropOp55
 70
     1
102
RTVSPost2010Prop56
140
1.0
102
RTVSPost2010PropOp56
 70
     1
102
RTVSPost2010Prop57
140
1.0
102
RTVSPost2010PropOp57
 70
     1
  0
XRECORD
  5
C5F
102
{ACAD_REACTORS
330
C5E
102
}
330
C5E
100
AcDbXrecord
280
     1
102
RTVSPropertyOp0
 70
     1
102
RTVSPropertyOp1
 70
     1
102
RTVSPropertyOp2
 70
     1
102
RTVSPropertyOp3
 70
     1
102
RTVSPropertyOp4
 70
     1
102
RTVSPropertyOp5
 70
     1
102
RTVSPropertyOp6
 70
     1
102
RTVSPropertyOp7
 70
     1
102
RTVSPropertyOp8
 70
     1
102
RTVSPropertyOp9
 70
     1
102
RTVSPropertyOp10
 70
     1
102
RTVSPropertyOp11
 70
     1
102
RTVSPropertyOp12
 70
     1
102
RTVSPropertyOp13
 70
     1
102
RTVSPropertyOp14
 70
     1
102
RTVSPropertyOp15
 70
     1
102
RTVSPropertyOp16
 70
     1
102
RTVSPropertyOp17
 70
     1
102
RTVSPropertyOp18
 70
     1
102
RTVSPropertyOp19
 70
     1
102
RTVSPropertyOp20
 70
     1
102
RTVSPropertyOp21
 70
     1
102
RTVSPropertyOp22
 70
     1
102
RTVSPropertyOp23
 70
     1
102
RTVSPropertyOp24
 70
     1
102
RTVSPropertyOp25
 70
     1
102
RTVSPropertyOp26
 70
     1
102
RTVSPropertyOp27
 70
     1
102
RTVSPropertyOp28
 70
     1
102
RTVSPropertyOp29
 70
     1
102
RTVSPropertyOp30
 70
     1
102
RTVSPropertyOp31
 70
     1
102
RTVSPropertyOp32
 70
     1
102
RTVSPropertyOp33
 70
     1
102
RTVSPropertyOp34
 70
     1
102
RTVSPropertyOp35
 70
     1
102
RTVSPropertyOp36
 70
     1
102
RTVSPropertyOp37
 70
     1
102
RTVSPropertyOp38
 70
     1
102
RTVSPropertyOp39
 70
     1
102
RTVSPropertyOp40
 70
     1
102
RTVSPropertyOp41
 70
     1
102
RTVSPropertyOp42
 70
     1
102
RTVSPropertyOp43
 70
     1
102
RTVSPropertyOp44
 70
     1
102
RTVSPropertyOp45
 70
     1
102
RTVSPropertyOp46
 70
     1
102
RTVSPropertyOp47
 70
     1
102
RTVSPropertyOp48
 70
     1
102
RTVSPropertyOp49
 70
     1
102
RTVSPropertyOp50
 70
     1
102
RTVSPropertyOp51
 70
     0
102
RTVSPropertyOp52
 70
     0
102
RTVSPropertyOp53
 70
     1
102
RTVSPropertyOp54
 70
     1
102
RTVSPropertyOp55
 70
     1
102
RTVSPropertyOp56
 70
     1
102
RTVSPropertyOp57
 70
     1
102
RTVSPost2010Prop28
280
     0
102
RTVSPost2010PropOp28
 70
     1
102
RTVSPost2010Prop29
280
     1
102
RTVSPost2010PropOp29
 70
     1
102
RTVSPost2010Prop30
280
     1
102
RTVSPost2010PropOp30
 70
     1
102
RTVSPost2010Prop31
280
     0
102
RTVSPost2010PropOp31
 70
     1
102
RTVSPost2010Prop32
280
     0
102
RTVSPost2010PropOp32
 70
     1
102
RTVSPost2010Prop33
280
     0
102
RTVSPost2010PropOp33
 70
     1
102
RTVSPost2010Prop34
280
     0
102
RTVSPost2010PropOp34
 70
     1
102
RTVSPost2010Prop35
280
     0
102
RTVSPost2010PropOp35
 70
     1
102
RTVSPost2010Prop36
280
     0
102
RTVSPost2010PropOp36
 70
     1
102
RTVSPost2010Prop37
 90
       50
102
RTVSPost2010PropOp37
 70
     1
102
RTVSPost2010Prop38
140
0.0
102
RTVSPost2010PropOp38
 70
     1
102
RTVSPost2010Prop39
140
1.0
102
RTVSPost2010PropOp39
 70
     1
102
RTVSPost2010Prop40
 90
        0
102
RTVSPost2010PropOp40
 70
     1
102
RTVSPost2010Prop41ColorIndex
 90
       18
102
RTVSPost2010Prop41ColorRGB
 90
        0
102
RTVSPost2010PropOp41
 70
     1
102
RTVSPost2010Prop42
 90
       50
102
RTVSPost2010PropOp42
 70
     1
102
RTVSPost2010Prop43
 90
        3
102
RTVSPost2010PropOp43
 70
     1
102
RTVSPost2010Prop44ColorIndex
 90
        5
102
RTVSPost2010Prop44ColorRGB
 90
      255
102
RTVSPost2010PropOp44
 70
     1
102
RTVSPost2010Prop45
280
     0
102
RTVSPost2010PropOp45
 70
     1
102
RTVSPost2010Prop46
 90
       50
102
RTVSPost2010PropOp46
 70
     1
102
RTVSPost2010Prop47
 90
       50
102
RTVSPost2010PropOp47
 70
     1
102
RTVSPost2010Prop48
 90
       50
102
RTVSPost2010PropOp48
 70
     1
102
RTVSPost2010Prop49
280
     0
102
RTVSPost2010PropOp49
 70
     1
102
RTVSPost2010Prop50
 90
       50
102
RTVSPost2010PropOp50
 70
     1
102
RTVSPost2010Prop51ColorIndex
 90
      256
102
RTVSPost2010Prop51ColorRGB
 90
-16777216
102
RTVSPost2010PropOp51
 70
     0
102
RTVSPost2010Prop52
140
1.0
102
RTVSPost2010PropOp52
 70
     0
102
RTVSPost2010Prop53
 90
        2
102
RTVSPost2010PropOp53
 70
     1
102
RTVSPost2010Prop54
  1
strokes_ogs.tif
102
RTVSPost2010PropOp54
 70
     1
102
RTVSPost2010Prop55
280
     0
102
RTVSPost2010PropOp55
 70
     1
102
RTVSPost2010Prop56
140
1.0
102
RTVSPost2010PropOp56
 70
     1
102
RTVSPost2010Prop57
140
1.0
102
RTVSPost2010PropOp57
 70
     1
  0
XRECORD
  5
C61
102
{ACAD_REACTORS
330
C60
102
}
330
C60
100
AcDbXrecord
280
     1
102
RTVSPropertyOp0
 70
     1
102
RTVSPropertyOp1
 70
     1
102
RTVSPropertyOp2
 70
     1
102
RTVSPropertyOp3
 70
     1
102
RTVSPropertyOp4
 70
     1
102
RTVSPropertyOp5
 70
     1
102
RTVSPropertyOp6
 70
     1
102
RTVSPropertyOp7
 70
     1
102
RTVSPropertyOp8
 70
     1
102
RTVSPropertyOp9
 70
     1
102
RTVSPropertyOp10
 70
     1
102
RTVSPropertyOp11
 70
     1
102
RTVSPropertyOp12
 70
     1
102
RTVSPropertyOp13
 70
     1
102
RTVSPropertyOp14
 70
     1
102
RTVSPropertyOp15
 70
     1
102
RTVSPropertyOp16
 70
     1
102
RTVSPropertyOp17
 70
     1
102
RTVSPropertyOp18
 70
     1
102
RTVSPropertyOp19
 70
     1
102
RTVSPropertyOp20
 70
     1
102
RTVSPropertyOp21
 70
     1
102
RTVSPropertyOp22
 70
     1
102
RTVSPropertyOp23
 70
     1
102
RTVSPropertyOp24
 70
     1
102
RTVSPropertyOp25
 70
     1
102
RTVSPropertyOp26
 70
     1
102
RTVSPropertyOp27
 70
     1
102
RTVSPropertyOp28
 70
     1
102
RTVSPropertyOp29
 70
     1
102
RTVSPropertyOp30
 70
     1
102
RTVSPropertyOp31
 70
     1
102
RTVSPropertyOp32
 70
     1
102
RTVSPropertyOp33
 70
     1
102
RTVSPropertyOp34
 70
     1
102
RTVSPropertyOp35
 70
     1
102
RTVSPropertyOp36
 70
     1
102
RTVSPropertyOp37
 70
     1
102
RTVSPropertyOp38
 70
     1
102
RTVSPropertyOp39
 70
     1
102
RTVSPropertyOp40
 70
     1
102
RTVSPropertyOp41
 70
     1
102
RTVSPropertyOp42
 70
     1
102
RTVSPropertyOp43
 70
     1
102
RTVSPropertyOp44
 70
     1
102
RTVSPropertyOp45
 70
     1
102
RTVSPropertyOp46
 70
     1
102
RTVSPropertyOp47
 70
     1
102
RTVSPropertyOp48
 70
     1
102
RTVSPropertyOp49
 70
     1
102
RTVSPropertyOp50
 70
     1
102
RTVSPropertyOp51
 70
     0
102
RTVSPropertyOp52
 70
     0
102
RTVSPropertyOp53
 70
     1
102
RTVSPropertyOp54
 70
     1
102
RTVSPropertyOp55
 70
     1
102
RTVSPropertyOp56
 70
     1
102
RTVSPropertyOp57
 70
     1
102
RTVSPost2010Prop28
280
     0
102
RTVSPost2010PropOp28
 70
     1
102
RTVSPost2010Prop29
280
     1
102
RTVSPost2010PropOp29
 70
     1
102
RTVSPost2010Prop30
280
     1
102
RTVSPost2010PropOp30
 70
     1
102
RTVSPost2010Prop31
280
     0
102
RTVSPost2010PropOp31
 70
     1
102
RTVSPost2010Prop32
280
     0
102
RTVSPost2010PropOp32
 70
     1
102
RTVSPost2010Prop33
280
     0
102
RTVSPost2010PropOp33
 70
     1
102
RTVSPost2010Prop34
280
     0
102
RTVSPost2010PropOp34
 70
     1
102
RTVSPost2010Prop35
280
     0
102
RTVSPost2010PropOp35
 70
     1
102
RTVSPost2010Prop36
280
     0
102
RTVSPost2010PropOp36
 70
     1
102
RTVSPost2010Prop37
 90
       50
102
RTVSPost2010PropOp37
 70
     1
102
RTVSPost2010Prop38
140
0.0
102
RTVSPost2010PropOp38
 70
     1
102
RTVSPost2010Prop39
140
1.0
102
RTVSPost2010PropOp39
 70
     1
102
RTVSPost2010Prop40
 90
        0
102
RTVSPost2010PropOp40
 70
     1
102
RTVSPost2010Prop41ColorIndex
 90
       18
102
RTVSPost2010Prop41ColorRGB
 90
        0
102
RTVSPost2010PropOp41
 70
     1
102
RTVSPost2010Prop42
 90
       50
102
RTVSPost2010PropOp42
 70
     1
102
RTVSPost2010Prop43
 90
        3
102
RTVSPost2010PropOp43
 70
     1
102
RTVSPost2010Prop44ColorIndex
 90
        5
102
RTVSPost2010Prop44ColorRGB
 90
      255
102
RTVSPost2010PropOp44
 70
     1
102
RTVSPost2010Prop45
280
     0
102
RTVSPost2010PropOp45
 70
     1
102
RTVSPost2010Prop46
 90
       50
102
RTVSPost2010PropOp46
 70
     1
102
RTVSPost2010Prop47
 90
       50
102
RTVSPost2010PropOp47
 70
     1
102
RTVSPost2010Prop48
 90
       50
102
RTVSPost2010PropOp48
 70
     1
102
RTVSPost2010Prop49
280
     0
102
RTVSPost2010PropOp49
 70
     1
102
RTVSPost2010Prop50
 90
       50
102
RTVSPost2010PropOp50
 70
     1
102
RTVSPost2010Prop51ColorIndex
 90
      256
102
RTVSPost2010Prop51ColorRGB
 90
-16777216
102
RTVSPost2010PropOp51
 70
     0
102
RTVSPost2010Prop52
140
1.0
102
RTVSPost2010PropOp52
 70
     0
102
RTVSPost2010Prop53
 90
        2
102
RTVSPost2010PropOp53
 70
     1
102
RTVSPost2010Prop54
  1
strokes_ogs.tif
102
RTVSPost2010PropOp54
 70
     1
102
RTVSPost2010Prop55
280
     0
102
RTVSPost2010PropOp55
 70
     1
102
RTVSPost2010Prop56
140
1.0
102
RTVSPost2010PropOp56
 70
     1
102
RTVSPost2010Prop57
140
1.0
102
RTVSPost2010PropOp57
 70
     1
  0
XRECORD
  5
C63
102
{ACAD_REACTORS
330
C62
102
}
330
C62
100
AcDbXrecord
280
     1
102
RTVSPropertyOp0
 70
     1
102
RTVSPropertyOp1
 70
     1
102
RTVSPropertyOp2
 70
     1
102
RTVSPropertyOp3
 70
     1
102
RTVSPropertyOp4
 70
     1
102
RTVSPropertyOp5
 70
     1
102
RTVSPropertyOp6
 70
     1
102
RTVSPropertyOp7
 70
     1
102
RTVSPropertyOp8
 70
     1
102
RTVSPropertyOp9
 70
     1
102
RTVSPropertyOp10
 70
     1
102
RTVSPropertyOp11
 70
     1
102
RTVSPropertyOp12
 70
     1
102
RTVSPropertyOp13
 70
     1
102
RTVSPropertyOp14
 70
     1
102
RTVSPropertyOp15
 70
     1
102
RTVSPropertyOp16
 70
     1
102
RTVSPropertyOp17
 70
     1
102
RTVSPropertyOp18
 70
     1
102
RTVSPropertyOp19
 70
     1
102
RTVSPropertyOp20
 70
     1
102
RTVSPropertyOp21
 70
     1
102
RTVSPropertyOp22
 70
     1
102
RTVSPropertyOp23
 70
     1
102
RTVSPropertyOp24
 70
     1
102
RTVSPropertyOp25
 70
     1
102
RTVSPropertyOp26
 70
     1
102
RTVSPropertyOp27
 70
     1
102
RTVSPropertyOp28
 70
     1
102
RTVSPropertyOp29
 70
     1
102
RTVSPropertyOp30
 70
     1
102
RTVSPropertyOp31
 70
     1
102
RTVSPropertyOp32
 70
     1
102
RTVSPropertyOp33
 70
     1
102
RTVSPropertyOp34
 70
     1
102
RTVSPropertyOp35
 70
     1
102
RTVSPropertyOp36
 70
     1
102
RTVSPropertyOp37
 70
     1
102
RTVSPropertyOp38
 70
     1
102
RTVSPropertyOp39
 70
     1
102
RTVSPropertyOp40
 70
     1
102
RTVSPropertyOp41
 70
     1
102
RTVSPropertyOp42
 70
     1
102
RTVSPropertyOp43
 70
     1
102
RTVSPropertyOp44
 70
     1
102
RTVSPropertyOp45
 70
     1
102
RTVSPropertyOp46
 70
     1
102
RTVSPropertyOp47
 70
     1
102
RTVSPropertyOp48
 70
     1
102
RTVSPropertyOp49
 70
     1
102
RTVSPropertyOp50
 70
     1
102
RTVSPropertyOp51
 70
     0
102
RTVSPropertyOp52
 70
     0
102
RTVSPropertyOp53
 70
     1
102
RTVSPropertyOp54
 70
     1
102
RTVSPropertyOp55
 70
     1
102
RTVSPropertyOp56
 70
     1
102
RTVSPropertyOp57
 70
     1
102
RTVSPost2010Prop28
280
     0
102
RTVSPost2010PropOp28
 70
     1
102
RTVSPost2010Prop29
280
     1
102
RTVSPost2010PropOp29
 70
     1
102
RTVSPost2010Prop30
280
     1
102
RTVSPost2010PropOp30
 70
     1
102
RTVSPost2010Prop31
280
     0
102
RTVSPost2010PropOp31
 70
     1
102
RTVSPost2010Prop32
280
     0
102
RTVSPost2010PropOp32
 70
     1
102
RTVSPost2010Prop33
280
     0
102
RTVSPost2010PropOp33
 70
     1
102
RTVSPost2010Prop34
280
     0
102
RTVSPost2010PropOp34
 70
     1
102
RTVSPost2010Prop35
280
     0
102
RTVSPost2010PropOp35
 70
     1
102
RTVSPost2010Prop36
280
     0
102
RTVSPost2010PropOp36
 70
     1
102
RTVSPost2010Prop37
 90
       50
102
RTVSPost2010PropOp37
 70
     1
102
RTVSPost2010Prop38
140
0.0
102
RTVSPost2010PropOp38
 70
     1
102
RTVSPost2010Prop39
140
1.0
102
RTVSPost2010PropOp39
 70
     1
102
RTVSPost2010Prop40
 90
        0
102
RTVSPost2010PropOp40
 70
     1
102
RTVSPost2010Prop41ColorIndex
 90
       18
102
RTVSPost2010Prop41ColorRGB
 90
        0
102
RTVSPost2010PropOp41
 70
     1
102
RTVSPost2010Prop42
 90
       50
102
RTVSPost2010PropOp42
 70
     1
102
RTVSPost2010Prop43
 90
        3
102
RTVSPost2010PropOp43
 70
     1
102
RTVSPost2010Prop44ColorIndex
 90
        5
102
RTVSPost2010Prop44ColorRGB
 90
      255
102
RTVSPost2010PropOp44
 70
     1
102
RTVSPost2010Prop45
280
     0
102
RTVSPost2010PropOp45
 70
     1
102
RTVSPost2010Prop46
 90
       50
102
RTVSPost2010PropOp46
 70
     1
102
RTVSPost2010Prop47
 90
       50
102
RTVSPost2010PropOp47
 70
     1
102
RTVSPost2010Prop48
 90
       50
102
RTVSPost2010PropOp48
 70
     1
102
RTVSPost2010Prop49
280
     0
102
RTVSPost2010PropOp49
 70
     1
102
RTVSPost2010Prop50
 90
       50
102
RTVSPost2010PropOp50
 70
     1
102
RTVSPost2010Prop51ColorIndex
 90
      256
102
RTVSPost2010Prop51ColorRGB
 90
-16777216
102
RTVSPost2010PropOp51
 70
     0
102
RTVSPost2010Prop52
140
1.0
102
RTVSPost2010PropOp52
 70
     0
102
RTVSPost2010Prop53
 90
        2
102
RTVSPost2010PropOp53
 70
     1
102
RTVSPost2010Prop54
  1
strokes_ogs.tif
102
RTVSPost2010PropOp54
 70
     1
102
RTVSPost2010Prop55
280
     0
102
RTVSPost2010PropOp55
 70
     1
102
RTVSPost2010Prop56
140
1.0
102
RTVSPost2010PropOp56
 70
     1
102
RTVSPost2010Prop57
140
1.0
102
RTVSPost2010PropOp57
 70
     1
  0
XRECORD
  5
C65
102
{ACAD_REACTORS
330
C64
102
}
330
C64
100
AcDbXrecord
280
     1
102
RTVSPropertyOp0
 70
     1
102
RTVSPropertyOp1
 70
     1
102
RTVSPropertyOp2
 70
     1
102
RTVSPropertyOp3
 70
     1
102
RTVSPropertyOp4
 70
     1
102
RTVSPropertyOp5
 70
     1
102
RTVSPropertyOp6
 70
     1
102
RTVSPropertyOp7
 70
     1
102
RTVSPropertyOp8
 70
     1
102
RTVSPropertyOp9
 70
     1
102
RTVSPropertyOp10
 70
     1
102
RTVSPropertyOp11
 70
     1
102
RTVSPropertyOp12
 70
     1
102
RTVSPropertyOp13
 70
     1
102
RTVSPropertyOp14
 70
     1
102
RTVSPropertyOp15
 70
     1
102
RTVSPropertyOp16
 70
     1
102
RTVSPropertyOp17
 70
     1
102
RTVSPropertyOp18
 70
     1
102
RTVSPropertyOp19
 70
     1
102
RTVSPropertyOp20
 70
     1
102
RTVSPropertyOp21
 70
     1
102
RTVSPropertyOp22
 70
     1
102
RTVSPropertyOp23
 70
     1
102
RTVSPropertyOp24
 70
     1
102
RTVSPropertyOp25
 70
     1
102
RTVSPropertyOp26
 70
     1
102
RTVSPropertyOp27
 70
     1
102
RTVSPropertyOp28
 70
     1
102
RTVSPropertyOp29
 70
     1
102
RTVSPropertyOp30
 70
     1
102
RTVSPropertyOp31
 70
     1
102
RTVSPropertyOp32
 70
     1
102
RTVSPropertyOp33
 70
     1
102
RTVSPropertyOp34
 70
     1
102
RTVSPropertyOp35
 70
     1
102
RTVSPropertyOp36
 70
     1
102
RTVSPropertyOp37
 70
     1
102
RTVSPropertyOp38
 70
     1
102
RTVSPropertyOp39
 70
     1
102
RTVSPropertyOp40
 70
     1
102
RTVSPropertyOp41
 70
     1
102
RTVSPropertyOp42
 70
     1
102
RTVSPropertyOp43
 70
     1
102
RTVSPropertyOp44
 70
     1
102
RTVSPropertyOp45
 70
     1
102
RTVSPropertyOp46
 70
     1
102
RTVSPropertyOp47
 70
     1
102
RTVSPropertyOp48
 70
     1
102
RTVSPropertyOp49
 70
     1
102
RTVSPropertyOp50
 70
     1
102
RTVSPropertyOp51
 70
     0
102
RTVSPropertyOp52
 70
     0
102
RTVSPropertyOp53
 70
     1
102
RTVSPropertyOp54
 70
     1
102
RTVSPropertyOp55
 70
     1
102
RTVSPropertyOp56
 70
     1
102
RTVSPropertyOp57
 70
     1
102
RTVSPost2010Prop28
280
     0
102
RTVSPost2010PropOp28
 70
     1
102
RTVSPost2010Prop29
280
     1
102
RTVSPost2010PropOp29
 70
     1
102
RTVSPost2010Prop30
280
     1
102
RTVSPost2010PropOp30
 70
     1
102
RTVSPost2010Prop31
280
     0
102
RTVSPost2010PropOp31
 70
     1
102
RTVSPost2010Prop32
280
     0
102
RTVSPost2010PropOp32
 70
     1
102
RTVSPost2010Prop33
280
     0
102
RTVSPost2010PropOp33
 70
     1
102
RTVSPost2010Prop34
280
     0
102
RTVSPost2010PropOp34
 70
     1
102
RTVSPost2010Prop35
280
     0
102
RTVSPost2010PropOp35
 70
     1
102
RTVSPost2010Prop36
280
     0
102
RTVSPost2010PropOp36
 70
     1
102
RTVSPost2010Prop37
 90
       50
102
RTVSPost2010PropOp37
 70
     1
102
RTVSPost2010Prop38
140
0.0
102
RTVSPost2010PropOp38
 70
     1
102
RTVSPost2010Prop39
140
1.0
102
RTVSPost2010PropOp39
 70
     1
102
RTVSPost2010Prop40
 90
        0
102
RTVSPost2010PropOp40
 70
     1
102
RTVSPost2010Prop41ColorIndex
 90
       18
102
RTVSPost2010Prop41ColorRGB
 90
        0
102
RTVSPost2010PropOp41
 70
     1
102
RTVSPost2010Prop42
 90
       50
102
RTVSPost2010PropOp42
 70
     1
102
RTVSPost2010Prop43
 90
        3
102
RTVSPost2010PropOp43
 70
     1
102
RTVSPost2010Prop44ColorIndex
 90
        5
102
RTVSPost2010Prop44ColorRGB
 90
      255
102
RTVSPost2010PropOp44
 70
     1
102
RTVSPost2010Prop45
280
     0
102
RTVSPost2010PropOp45
 70
     1
102
RTVSPost2010Prop46
 90
       50
102
RTVSPost2010PropOp46
 70
     1
102
RTVSPost2010Prop47
 90
       50
102
RTVSPost2010PropOp47
 70
     1
102
RTVSPost2010Prop48
 90
       50
102
RTVSPost2010PropOp48
 70
     1
102
RTVSPost2010Prop49
280
     0
102
RTVSPost2010PropOp49
 70
     1
102
RTVSPost2010Prop50
 90
       50
102
RTVSPost2010PropOp50
 70
     1
102
RTVSPost2010Prop51ColorIndex
 90
      256
102
RTVSPost2010Prop51ColorRGB
 90
-16777216
102
RTVSPost2010PropOp51
 70
     0
102
RTVSPost2010Prop52
140
1.0
102
RTVSPost2010PropOp52
 70
     0
102
RTVSPost2010Prop53
 90
        2
102
RTVSPost2010PropOp53
 70
     1
102
RTVSPost2010Prop54
  1
strokes_ogs.tif
102
RTVSPost2010PropOp54
 70
     1
102
RTVSPost2010Prop55
280
     0
102
RTVSPost2010PropOp55
 70
     1
102
RTVSPost2010Prop56
140
1.0
102
RTVSPost2010PropOp56
 70
     1
102
RTVSPost2010Prop57
140
1.0
102
RTVSPost2010PropOp57
 70
     1
  0
XRECORD
  5
C67
102
{ACAD_REACTORS
330
C66
102
}
330
C66
100
AcDbXrecord
280
     1
102
RTVSPropertyOp0
 70
     0
102
RTVSPropertyOp1
 70
     0
102
RTVSPropertyOp2
 70
     0
102
RTVSPropertyOp3
 70
     0
102
RTVSPropertyOp4
 70
     0
102
RTVSPropertyOp5
 70
     0
102
RTVSPropertyOp6
 70
     0
102
RTVSPropertyOp7
 70
     0
102
RTVSPropertyOp8
 70
     0
102
RTVSPropertyOp9
 70
     0
102
RTVSPropertyOp10
 70
     0
102
RTVSPropertyOp11
 70
     0
102
RTVSPropertyOp12
 70
     0
102
RTVSPropertyOp13
 70
     0
102
RTVSPropertyOp14
 70
     2
102
RTVSPropertyOp15
 70
     0
102
RTVSPropertyOp16
 70
     0
102
RTVSPropertyOp17
 70
     0
102
RTVSPropertyOp18
 70
     0
102
RTVSPropertyOp19
 70
     0
102
RTVSPropertyOp20
 70
     0
102
RTVSPropertyOp21
 70
     0
102
RTVSPropertyOp22
 70
     0
102
RTVSPropertyOp23
 70
     0
102
RTVSPropertyOp24
 70
     0
102
RTVSPropertyOp25
 70
     0
102
RTVSPropertyOp26
 70
     0
102
RTVSPropertyOp27
 70
     0
102
RTVSPropertyOp28
 70
     0
102
RTVSPropertyOp29
 70
     0
102
RTVSPropertyOp30
 70
     0
102
RTVSPropertyOp31
 70
     0
102
RTVSPropertyOp32
 70
     0
102
RTVSPropertyOp33
 70
     1
102
RTVSPropertyOp34
 70
     1
102
RTVSPropertyOp35
 70
     1
102
RTVSPropertyOp36
 70
     1
102
RTVSPropertyOp37
 70
     1
102
RTVSPropertyOp38
 70
     1
102
RTVSPropertyOp39
 70
     1
102
RTVSPropertyOp40
 70
     1
102
RTVSPropertyOp41
 70
     1
102
RTVSPropertyOp42
 70
     1
102
RTVSPropertyOp43
 70
     1
102
RTVSPropertyOp44
 70
     1
102
RTVSPropertyOp45
 70
     1
102
RTVSPropertyOp46
 70
     1
102
RTVSPropertyOp47
 70
     1
102
RTVSPropertyOp48
 70
     1
102
RTVSPropertyOp49
 70
     1
102
RTVSPropertyOp50
 70
     1
102
RTVSPropertyOp51
 70
     0
102
RTVSPropertyOp52
 70
     0
102
RTVSPropertyOp53
 70
     1
102
RTVSPropertyOp54
 70
     1
102
RTVSPropertyOp55
 70
     1
102
RTVSPropertyOp56
 70
     1
102
RTVSPropertyOp57
 70
     1
102
RTVSPost2010Prop28
280
     0
102
RTVSPost2010PropOp28
 70
     0
102
RTVSPost2010Prop29
280
     1
102
RTVSPost2010PropOp29
 70
     0
102
RTVSPost2010Prop30
280
     1
102
RTVSPost2010PropOp30
 70
     0
102
RTVSPost2010Prop31
280
     0
102
RTVSPost2010PropOp31
 70
     0
102
RTVSPost2010Prop32
280
     0
102
RTVSPost2010PropOp32
 70
     0
102
RTVSPost2010Prop33
280
     0
102
RTVSPost2010PropOp33
 70
     1
102
RTVSPost2010Prop34
280
     0
102
RTVSPost2010PropOp34
 70
     1
102
RTVSPost2010Prop35
280
     0
102
RTVSPost2010PropOp35
 70
     1
102
RTVSPost2010Prop36
280
     0
102
RTVSPost2010PropOp36
 70
     1
102
RTVSPost2010Prop37
 90
       50
102
RTVSPost2010PropOp37
 70
     1
102
RTVSPost2010Prop38
140
0.0
102
RTVSPost2010PropOp38
 70
     1
102
RTVSPost2010Prop39
140
1.0
102
RTVSPost2010PropOp39
 70
     1
102
RTVSPost2010Prop40
 90
        0
102
RTVSPost2010PropOp40
 70
     1
102
RTVSPost2010Prop41ColorIndex
 90
       18
102
RTVSPost2010Prop41ColorRGB
 90
        0
102
RTVSPost2010PropOp41
 70
     1
102
RTVSPost2010Prop42
 90
       50
102
RTVSPost2010PropOp42
 70
     1
102
RTVSPost2010Prop43
 90
        3
102
RTVSPost2010PropOp43
 70
     1
102
RTVSPost2010Prop44ColorIndex
 90
        5
102
RTVSPost2010Prop44ColorRGB
 90
      255
102
RTVSPost2010PropOp44
 70
     1
102
RTVSPost2010Prop45
280
     0
102
RTVSPost2010PropOp45
 70
     1
102
RTVSPost2010Prop46
 90
       50
102
RTVSPost2010PropOp46
 70
     1
102
RTVSPost2010Prop47
 90
       50
102
RTVSPost2010PropOp47
 70
     1
102
RTVSPost2010Prop48
 90
       50
102
RTVSPost2010PropOp48
 70
     1
102
RTVSPost2010Prop49
280
     0
102
RTVSPost2010PropOp49
 70
     1
102
RTVSPost2010Prop50
 90
       50
102
RTVSPost2010PropOp50
 70
     1
102
RTVSPost2010Prop51ColorIndex
 90
      256
102
RTVSPost2010Prop51ColorRGB
 90
-16777216
102
RTVSPost2010PropOp51
 70
     0
102
RTVSPost2010Prop52
140
1.0
102
RTVSPost2010PropOp52
 70
     0
102
RTVSPost2010Prop53
 90
        2
102
RTVSPost2010PropOp53
 70
     1
102
RTVSPost2010Prop54
  1
strokes_ogs.tif
102
RTVSPost2010PropOp54
 70
     1
102
RTVSPost2010Prop55
280
     0
102
RTVSPost2010PropOp55
 70
     1
102
RTVSPost2010Prop56
140
1.0
102
RTVSPost2010PropOp56
 70
     1
102
RTVSPost2010Prop57
140
1.0
102
RTVSPost2010PropOp57
 70
     1
  0
XRECORD
  5
C69
102
{ACAD_REACTORS
330
C68
102
}
330
C68
100
AcDbXrecord
280
     1
102
RTVSPropertyOp0
 70
     1
102
RTVSPropertyOp1
 70
     1
102
RTVSPropertyOp2
 70
     1
102
RTVSPropertyOp3
 70
     1
102
RTVSPropertyOp4
 70
     1
102
RTVSPropertyOp5
 70
     1
102
RTVSPropertyOp6
 70
     1
102
RTVSPropertyOp7
 70
     1
102
RTVSPropertyOp8
 70
     1
102
RTVSPropertyOp9
 70
     1
102
RTVSPropertyOp10
 70
     1
102
RTVSPropertyOp11
 70
     1
102
RTVSPropertyOp12
 70
     1
102
RTVSPropertyOp13
 70
     1
102
RTVSPropertyOp14
 70
     1
102
RTVSPropertyOp15
 70
     1
102
RTVSPropertyOp16
 70
     1
102
RTVSPropertyOp17
 70
     1
102
RTVSPropertyOp18
 70
     1
102
RTVSPropertyOp19
 70
     1
102
RTVSPropertyOp20
 70
     1
102
RTVSPropertyOp21
 70
     1
102
RTVSPropertyOp22
 70
     1
102
RTVSPropertyOp23
 70
     1
102
RTVSPropertyOp24
 70
     1
102
RTVSPropertyOp25
 70
     1
102
RTVSPropertyOp26
 70
     1
102
RTVSPropertyOp27
 70
     1
102
RTVSPropertyOp28
 70
     1
102
RTVSPropertyOp29
 70
     1
102
RTVSPropertyOp30
 70
     1
102
RTVSPropertyOp31
 70
     1
102
RTVSPropertyOp32
 70
     1
102
RTVSPropertyOp33
 70
     1
102
RTVSPropertyOp34
 70
     1
102
RTVSPropertyOp35
 70
     1
102
RTVSPropertyOp36
 70
     1
102
RTVSPropertyOp37
 70
     1
102
RTVSPropertyOp38
 70
     1
102
RTVSPropertyOp39
 70
     1
102
RTVSPropertyOp40
 70
     1
102
RTVSPropertyOp41
 70
     1
102
RTVSPropertyOp42
 70
     1
102
RTVSPropertyOp43
 70
     1
102
RTVSPropertyOp44
 70
     1
102
RTVSPropertyOp45
 70
     1
102
RTVSPropertyOp46
 70
     1
102
RTVSPropertyOp47
 70
     1
102
RTVSPropertyOp48
 70
     1
102
RTVSPropertyOp49
 70
     1
102
RTVSPropertyOp50
 70
     1
102
RTVSPropertyOp51
 70
     0
102
RTVSPropertyOp52
 70
     0
102
RTVSPropertyOp53
 70
     1
102
RTVSPropertyOp54
 70
     1
102
RTVSPropertyOp55
 70
     1
102
RTVSPropertyOp56
 70
     1
102
RTVSPropertyOp57
 70
     1
102
RTVSPost2010Prop28
280
     0
102
RTVSPost2010PropOp28
 70
     1
102
RTVSPost2010Prop29
280
     1
102
RTVSPost2010PropOp29
 70
     1
102
RTVSPost2010Prop30
280
     1
102
RTVSPost2010PropOp30
 70
     1
102
RTVSPost2010Prop31
280
     0
102
RTVSPost2010PropOp31
 70
     1
102
RTVSPost2010Prop32
280
     0
102
RTVSPost2010PropOp32
 70
     1
102
RTVSPost2010Prop33
280
     0
102
RTVSPost2010PropOp33
 70
     1
102
RTVSPost2010Prop34
280
     0
102
RTVSPost2010PropOp34
 70
     1
102
RTVSPost2010Prop35
280
     0
102
RTVSPost2010PropOp35
 70
     1
102
RTVSPost2010Prop36
280
     0
102
RTVSPost2010PropOp36
 70
     1
102
RTVSPost2010Prop37
 90
       50
102
RTVSPost2010PropOp37
 70
     1
102
RTVSPost2010Prop38
140
0.0
102
RTVSPost2010PropOp38
 70
     1
102
RTVSPost2010Prop39
140
1.0
102
RTVSPost2010PropOp39
 70
     1
102
RTVSPost2010Prop40
 90
        0
102
RTVSPost2010PropOp40
 70
     1
102
RTVSPost2010Prop41ColorIndex
 90
       18
102
RTVSPost2010Prop41ColorRGB
 90
        0
102
RTVSPost2010PropOp41
 70
     1
102
RTVSPost2010Prop42
 90
       50
102
RTVSPost2010PropOp42
 70
     1
102
RTVSPost2010Prop43
 90
        3
102
RTVSPost2010PropOp43
 70
     1
102
RTVSPost2010Prop44ColorIndex
 90
        5
102
RTVSPost2010Prop44ColorRGB
 90
      255
102
RTVSPost2010PropOp44
 70
     1
102
RTVSPost2010Prop45
280
     0
102
RTVSPost2010PropOp45
 70
     1
102
RTVSPost2010Prop46
 90
       50
102
RTVSPost2010PropOp46
 70
     1
102
RTVSPost2010Prop47
 90
       50
102
RTVSPost2010PropOp47
 70
     1
102
RTVSPost2010Prop48
 90
       50
102
RTVSPost2010PropOp48
 70
     1
102
RTVSPost2010Prop49
280
     0
102
RTVSPost2010PropOp49
 70
     1
102
RTVSPost2010Prop50
 90
       50
102
RTVSPost2010PropOp50
 70
     1
102
RTVSPost2010Prop51ColorIndex
 90
      256
102
RTVSPost2010Prop51ColorRGB
 90
-16777216
102
RTVSPost2010PropOp51
 70
     0
102
RTVSPost2010Prop52
140
1.0
102
RTVSPost2010PropOp52
 70
     0
102
RTVSPost2010Prop53
 90
        2
102
RTVSPost2010PropOp53
 70
     1
102
RTVSPost2010Prop54
  1
strokes_ogs.tif
102
RTVSPost2010PropOp54
 70
     1
102
RTVSPost2010Prop55
280
     0
102
RTVSPost2010PropOp55
 70
     1
102
RTVSPost2010Prop56
140
1.0
102
RTVSPost2010PropOp56
 70
     1
102
RTVSPost2010Prop57
140
1.0
102
RTVSPost2010PropOp57
 70
     1
  0
XRECORD
  5
C6B
102
{ACAD_REACTORS
330
C6A
102
}
330
C6A
100
AcDbXrecord
280
     1
102
RTVSPropertyOp0
 70
     1
102
RTVSPropertyOp1
 70
     1
102
RTVSPropertyOp2
 70
     1
102
RTVSPropertyOp3
 70
     1
102
RTVSPropertyOp4
 70
     1
102
RTVSPropertyOp5
 70
     1
102
RTVSPropertyOp6
 70
     1
102
RTVSPropertyOp7
 70
     1
102
RTVSPropertyOp8
 70
     1
102
RTVSPropertyOp9
 70
     1
102
RTVSPropertyOp10
 70
     1
102
RTVSPropertyOp11
 70
     1
102
RTVSPropertyOp12
 70
     1
102
RTVSPropertyOp13
 70
     1
102
RTVSPropertyOp14
 70
     1
102
RTVSPropertyOp15
 70
     1
102
RTVSPropertyOp16
 70
     1
102
RTVSPropertyOp17
 70
     1
102
RTVSPropertyOp18
 70
     1
102
RTVSPropertyOp19
 70
     1
102
RTVSPropertyOp20
 70
     1
102
RTVSPropertyOp21
 70
     1
102
RTVSPropertyOp22
 70
     1
102
RTVSPropertyOp23
 70
     1
102
RTVSPropertyOp24
 70
     1
102
RTVSPropertyOp25
 70
     1
102
RTVSPropertyOp26
 70
     1
102
RTVSPropertyOp27
 70
     1
102
RTVSPropertyOp28
 70
     1
102
RTVSPropertyOp29
 70
     1
102
RTVSPropertyOp30
 70
     1
102
RTVSPropertyOp31
 70
     1
102
RTVSPropertyOp32
 70
     1
102
RTVSPropertyOp33
 70
     1
102
RTVSPropertyOp34
 70
     1
102
RTVSPropertyOp35
 70
     1
102
RTVSPropertyOp36
 70
     1
102
RTVSPropertyOp37
 70
     1
102
RTVSPropertyOp38
 70
     1
102
RTVSPropertyOp39
 70
     1
102
RTVSPropertyOp40
 70
     1
102
RTVSPropertyOp41
 70
     1
102
RTVSPropertyOp42
 70
     1
102
RTVSPropertyOp43
 70
     1
102
RTVSPropertyOp44
 70
     1
102
RTVSPropertyOp45
 70
     1
102
RTVSPropertyOp46
 70
     1
102
RTVSPropertyOp47
 70
     1
102
RTVSPropertyOp48
 70
     1
102
RTVSPropertyOp49
 70
     1
102
RTVSPropertyOp50
 70
     1
102
RTVSPropertyOp51
 70
     0
102
RTVSPropertyOp52
 70
     0
102
RTVSPropertyOp53
 70
     1
102
RTVSPropertyOp54
 70
     1
102
RTVSPropertyOp55
 70
     1
102
RTVSPropertyOp56
 70
     1
102
RTVSPropertyOp57
 70
     1
102
RTVSPost2010Prop28
280
     0
102
RTVSPost2010PropOp28
 70
     1
102
RTVSPost2010Prop29
280
     1
102
RTVSPost2010PropOp29
 70
     1
102
RTVSPost2010Prop30
280
     1
102
RTVSPost2010PropOp30
 70
     1
102
RTVSPost2010Prop31
280
     0
102
RTVSPost2010PropOp31
 70
     1
102
RTVSPost2010Prop32
280
     0
102
RTVSPost2010PropOp32
 70
     1
102
RTVSPost2010Prop33
280
     0
102
RTVSPost2010PropOp33
 70
     1
102
RTVSPost2010Prop34
280
     0
102
RTVSPost2010PropOp34
 70
     1
102
RTVSPost2010Prop35
280
     0
102
RTVSPost2010PropOp35
 70
     1
102
RTVSPost2010Prop36
280
     0
102
RTVSPost2010PropOp36
 70
     1
102
RTVSPost2010Prop37
 90
       50
102
RTVSPost2010PropOp37
 70
     1
102
RTVSPost2010Prop38
140
0.0
102
RTVSPost2010PropOp38
 70
     1
102
RTVSPost2010Prop39
140
1.0
102
RTVSPost2010PropOp39
 70
     1
102
RTVSPost2010Prop40
 90
        0
102
RTVSPost2010PropOp40
 70
     1
102
RTVSPost2010Prop41ColorIndex
 90
       18
102
RTVSPost2010Prop41ColorRGB
 90
        0
102
RTVSPost2010PropOp41
 70
     1
102
RTVSPost2010Prop42
 90
       50
102
RTVSPost2010PropOp42
 70
     1
102
RTVSPost2010Prop43
 90
        3
102
RTVSPost2010PropOp43
 70
     1
102
RTVSPost2010Prop44ColorIndex
 90
        5
102
RTVSPost2010Prop44ColorRGB
 90
      255
102
RTVSPost2010PropOp44
 70
     1
102
RTVSPost2010Prop45
280
     0
102
RTVSPost2010PropOp45
 70
     1
102
RTVSPost2010Prop46
 90
       50
102
RTVSPost2010PropOp46
 70
     1
102
RTVSPost2010Prop47
 90
       50
102
RTVSPost2010PropOp47
 70
     1
102
RTVSPost2010Prop48
 90
       50
102
RTVSPost2010PropOp48
 70
     1
102
RTVSPost2010Prop49
280
     0
102
RTVSPost2010PropOp49
 70
     1
102
RTVSPost2010Prop50
 90
       50
102
RTVSPost2010PropOp50
 70
     1
102
RTVSPost2010Prop51ColorIndex
 90
      256
102
RTVSPost2010Prop51ColorRGB
 90
-16777216
102
RTVSPost2010PropOp51
 70
     0
102
RTVSPost2010Prop52
140
1.0
102
RTVSPost2010PropOp52
 70
     0
102
RTVSPost2010Prop53
 90
        2
102
RTVSPost2010PropOp53
 70
     1
102
RTVSPost2010Prop54
  1
strokes_ogs.tif
102
RTVSPost2010PropOp54
 70
     1
102
RTVSPost2010Prop55
280
     0
102
RTVSPost2010PropOp55
 70
     1
102
RTVSPost2010Prop56
140
1.0
102
RTVSPost2010PropOp56
 70
     1
102
RTVSPost2010Prop57
140
1.0
102
RTVSPost2010PropOp57
 70
     1
  0
XRECORD
  5
C6D
102
{ACAD_REACTORS
330
C6C
102
}
330
C6C
100
AcDbXrecord
280
     1
102
RTVSPropertyOp0
 70
     1
102
RTVSPropertyOp1
 70
     1
102
RTVSPropertyOp2
 70
     1
102
RTVSPropertyOp3
 70
     1
102
RTVSPropertyOp4
 70
     1
102
RTVSPropertyOp5
 70
     1
102
RTVSPropertyOp6
 70
     1
102
RTVSPropertyOp7
 70
     1
102
RTVSPropertyOp8
 70
     1
102
RTVSPropertyOp9
 70
     1
102
RTVSPropertyOp10
 70
     1
102
RTVSPropertyOp11
 70
     1
102
RTVSPropertyOp12
 70
     1
102
RTVSPropertyOp13
 70
     1
102
RTVSPropertyOp14
 70
     1
102
RTVSPropertyOp15
 70
     1
102
RTVSPropertyOp16
 70
     1
102
RTVSPropertyOp17
 70
     1
102
RTVSPropertyOp18
 70
     1
102
RTVSPropertyOp19
 70
     1
102
RTVSPropertyOp20
 70
     1
102
RTVSPropertyOp21
 70
     1
102
RTVSPropertyOp22
 70
     1
102
RTVSPropertyOp23
 70
     1
102
RTVSPropertyOp24
 70
     1
102
RTVSPropertyOp25
 70
     1
102
RTVSPropertyOp26
 70
     1
102
RTVSPropertyOp27
 70
     1
102
RTVSPropertyOp28
 70
     1
102
RTVSPropertyOp29
 70
     1
102
RTVSPropertyOp30
 70
     1
102
RTVSPropertyOp31
 70
     1
102
RTVSPropertyOp32
 70
     1
102
RTVSPropertyOp33
 70
     1
102
RTVSPropertyOp34
 70
     1
102
RTVSPropertyOp35
 70
     1
102
RTVSPropertyOp36
 70
     1
102
RTVSPropertyOp37
 70
     1
102
RTVSPropertyOp38
 70
     1
102
RTVSPropertyOp39
 70
     1
102
RTVSPropertyOp40
 70
     1
102
RTVSPropertyOp41
 70
     1
102
RTVSPropertyOp42
 70
     1
102
RTVSPropertyOp43
 70
     1
102
RTVSPropertyOp44
 70
     1
102
RTVSPropertyOp45
 70
     1
102
RTVSPropertyOp46
 70
     1
102
RTVSPropertyOp47
 70
     1
102
RTVSPropertyOp48
 70
     1
102
RTVSPropertyOp49
 70
     1
102
RTVSPropertyOp50
 70
     1
102
RTVSPropertyOp51
 70
     0
102
RTVSPropertyOp52
 70
     0
102
RTVSPropertyOp53
 70
     1
102
RTVSPropertyOp54
 70
     1
102
RTVSPropertyOp55
 70
     1
102
RTVSPropertyOp56
 70
     1
102
RTVSPropertyOp57
 70
     1
102
RTVSPost2010Prop28
280
     0
102
RTVSPost2010PropOp28
 70
     1
102
RTVSPost2010Prop29
280
     1
102
RTVSPost2010PropOp29
 70
     1
102
RTVSPost2010Prop30
280
     1
102
RTVSPost2010PropOp30
 70
     1
102
RTVSPost2010Prop31
280
     0
102
RTVSPost2010PropOp31
 70
     1
102
RTVSPost2010Prop32
280
     0
102
RTVSPost2010PropOp32
 70
     1
102
RTVSPost2010Prop33
280
     0
102
RTVSPost2010PropOp33
 70
     1
102
RTVSPost2010Prop34
280
     0
102
RTVSPost2010PropOp34
 70
     1
102
RTVSPost2010Prop35
280
     0
102
RTVSPost2010PropOp35
 70
     1
102
RTVSPost2010Prop36
280
     0
102
RTVSPost2010PropOp36
 70
     1
102
RTVSPost2010Prop37
 90
       50
102
RTVSPost2010PropOp37
 70
     1
102
RTVSPost2010Prop38
140
0.0
102
RTVSPost2010PropOp38
 70
     1
102
RTVSPost2010Prop39
140
1.0
102
RTVSPost2010PropOp39
 70
     1
102
RTVSPost2010Prop40
 90
        0
102
RTVSPost2010PropOp40
 70
     1
102
RTVSPost2010Prop41ColorIndex
 90
       18
102
RTVSPost2010Prop41ColorRGB
 90
        0
102
RTVSPost2010PropOp41
 70
     1
102
RTVSPost2010Prop42
 90
       50
102
RTVSPost2010PropOp42
 70
     1
102
RTVSPost2010Prop43
 90
        3
102
RTVSPost2010PropOp43
 70
     1
102
RTVSPost2010Prop44ColorIndex
 90
        5
102
RTVSPost2010Prop44ColorRGB
 90
      255
102
RTVSPost2010PropOp44
 70
     1
102
RTVSPost2010Prop45
280
     0
102
RTVSPost2010PropOp45
 70
     1
102
RTVSPost2010Prop46
 90
       50
102
RTVSPost2010PropOp46
 70
     1
102
RTVSPost2010Prop47
 90
       50
102
RTVSPost2010PropOp47
 70
     1
102
RTVSPost2010Prop48
 90
       50
102
RTVSPost2010PropOp48
 70
     1
102
RTVSPost2010Prop49
280
     0
102
RTVSPost2010PropOp49
 70
     1
102
RTVSPost2010Prop50
 90
       50
102
RTVSPost2010PropOp50
 70
     1
102
RTVSPost2010Prop51ColorIndex
 90
      256
102
RTVSPost2010Prop51ColorRGB
 90
-16777216
102
RTVSPost2010PropOp51
 70
     0
102
RTVSPost2010Prop52
140
1.0
102
RTVSPost2010PropOp52
 70
     0
102
RTVSPost2010Prop53
 90
        2
102
RTVSPost2010PropOp53
 70
     1
102
RTVSPost2010Prop54
  1
strokes_ogs.tif
102
RTVSPost2010PropOp54
 70
     1
102
RTVSPost2010Prop55
280
     0
102
RTVSPost2010PropOp55
 70
     1
102
RTVSPost2010Prop56
140
1.0
102
RTVSPost2010PropOp56
 70
     1
102
RTVSPost2010Prop57
140
1.0
102
RTVSPost2010PropOp57
 70
     1
  0
XRECORD
  5
C6F
102
{ACAD_REACTORS
330
C6E
102
}
330
C6E
100
AcDbXrecord
280
     1
102
RTVSPropertyOp0
 70
     1
102
RTVSPropertyOp1
 70
     1
102
RTVSPropertyOp2
 70
     1
102
RTVSPropertyOp3
 70
     1
102
RTVSPropertyOp4
 70
     1
102
RTVSPropertyOp5
 70
     1
102
RTVSPropertyOp6
 70
     1
102
RTVSPropertyOp7
 70
     1
102
RTVSPropertyOp8
 70
     1
102
RTVSPropertyOp9
 70
     1
102
RTVSPropertyOp10
 70
     1
102
RTVSPropertyOp11
 70
     1
102
RTVSPropertyOp12
 70
     1
102
RTVSPropertyOp13
 70
     1
102
RTVSPropertyOp14
 70
     1
102
RTVSPropertyOp15
 70
     1
102
RTVSPropertyOp16
 70
     1
102
RTVSPropertyOp17
 70
     1
102
RTVSPropertyOp18
 70
     1
102
RTVSPropertyOp19
 70
     1
102
RTVSPropertyOp20
 70
     1
102
RTVSPropertyOp21
 70
     1
102
RTVSPropertyOp22
 70
     1
102
RTVSPropertyOp23
 70
     1
102
RTVSPropertyOp24
 70
     1
102
RTVSPropertyOp25
 70
     1
102
RTVSPropertyOp26
 70
     1
102
RTVSPropertyOp27
 70
     1
102
RTVSPropertyOp28
 70
     1
102
RTVSPropertyOp29
 70
     1
102
RTVSPropertyOp30
 70
     1
102
RTVSPropertyOp31
 70
     1
102
RTVSPropertyOp32
 70
     1
102
RTVSPropertyOp33
 70
     1
102
RTVSPropertyOp34
 70
     1
102
RTVSPropertyOp35
 70
     1
102
RTVSPropertyOp36
 70
     1
102
RTVSPropertyOp37
 70
     1
102
RTVSPropertyOp38
 70
     1
102
RTVSPropertyOp39
 70
     1
102
RTVSPropertyOp40
 70
     1
102
RTVSPropertyOp41
 70
     1
102
RTVSPropertyOp42
 70
     1
102
RTVSPropertyOp43
 70
     1
102
RTVSPropertyOp44
 70
     1
102
RTVSPropertyOp45
 70
     1
102
RTVSPropertyOp46
 70
     1
102
RTVSPropertyOp47
 70
     1
102
RTVSPropertyOp48
 70
     1
102
RTVSPropertyOp49
 70
     1
102
RTVSPropertyOp50
 70
     1
102
RTVSPropertyOp51
 70
     0
102
RTVSPropertyOp52
 70
     0
102
RTVSPropertyOp53
 70
     1
102
RTVSPropertyOp54
 70
     1
102
RTVSPropertyOp55
 70
     1
102
RTVSPropertyOp56
 70
     1
102
RTVSPropertyOp57
 70
     1
102
RTVSPost2010Prop28
280
     0
102
RTVSPost2010PropOp28
 70
     1
102
RTVSPost2010Prop29
280
     1
102
RTVSPost2010PropOp29
 70
     1
102
RTVSPost2010Prop30
280
     1
102
RTVSPost2010PropOp30
 70
     1
102
RTVSPost2010Prop31
280
     0
102
RTVSPost2010PropOp31
 70
     1
102
RTVSPost2010Prop32
280
     0
102
RTVSPost2010PropOp32
 70
     1
102
RTVSPost2010Prop33
280
     0
102
RTVSPost2010PropOp33
 70
     1
102
RTVSPost2010Prop34
280
     0
102
RTVSPost2010PropOp34
 70
     1
102
RTVSPost2010Prop35
280
     0
102
RTVSPost2010PropOp35
 70
     1
102
RTVSPost2010Prop36
280
     0
102
RTVSPost2010PropOp36
 70
     1
102
RTVSPost2010Prop37
 90
       50
102
RTVSPost2010PropOp37
 70
     1
102
RTVSPost2010Prop38
140
0.0
102
RTVSPost2010PropOp38
 70
     1
102
RTVSPost2010Prop39
140
1.0
102
RTVSPost2010PropOp39
 70
     1
102
RTVSPost2010Prop40
 90
        0
102
RTVSPost2010PropOp40
 70
     1
102
RTVSPost2010Prop41ColorIndex
 90
       18
102
RTVSPost2010Prop41ColorRGB
 90
        0
102
RTVSPost2010PropOp41
 70
     1
102
RTVSPost2010Prop42
 90
       50
102
RTVSPost2010PropOp42
 70
     1
102
RTVSPost2010Prop43
 90
        3
102
RTVSPost2010PropOp43
 70
     1
102
RTVSPost2010Prop44ColorIndex
 90
        5
102
RTVSPost2010Prop44ColorRGB
 90
      255
102
RTVSPost2010PropOp44
 70
     1
102
RTVSPost2010Prop45
280
     0
102
RTVSPost2010PropOp45
 70
     1
102
RTVSPost2010Prop46
 90
       50
102
RTVSPost2010PropOp46
 70
     1
102
RTVSPost2010Prop47
 90
       50
102
RTVSPost2010PropOp47
 70
     1
102
RTVSPost2010Prop48
 90
       50
102
RTVSPost2010PropOp48
 70
     1
102
RTVSPost2010Prop49
280
     0
102
RTVSPost2010PropOp49
 70
     1
102
RTVSPost2010Prop50
 90
       50
102
RTVSPost2010PropOp50
 70
     1
102
RTVSPost2010Prop51ColorIndex
 90
      256
102
RTVSPost2010Prop51ColorRGB
 90
-16777216
102
RTVSPost2010PropOp51
 70
     0
102
RTVSPost2010Prop52
140
1.0
102
RTVSPost2010PropOp52
 70
     0
102
RTVSPost2010Prop53
 90
        2
102
RTVSPost2010PropOp53
 70
     1
102
RTVSPost2010Prop54
  1
strokes_ogs.tif
102
RTVSPost2010PropOp54
 70
     1
102
RTVSPost2010Prop55
280
     0
102
RTVSPost2010PropOp55
 70
     1
102
RTVSPost2010Prop56
140
1.0
102
RTVSPost2010PropOp56
 70
     1
102
RTVSPost2010Prop57
140
1.0
102
RTVSPost2010PropOp57
 70
     1
  0
XRECORD
  5
C71
102
{ACAD_REACTORS
330
C70
102
}
330
C70
100
AcDbXrecord
280
     1
102
RTVSPropertyOp0
 70
     1
102
RTVSPropertyOp1
 70
     1
102
RTVSPropertyOp2
 70
     1
102
RTVSPropertyOp3
 70
     1
102
RTVSPropertyOp4
 70
     1
102
RTVSPropertyOp5
 70
     1
102
RTVSPropertyOp6
 70
     1
102
RTVSPropertyOp7
 70
     1
102
RTVSPropertyOp8
 70
     1
102
RTVSPropertyOp9
 70
     1
102
RTVSPropertyOp10
 70
     1
102
RTVSPropertyOp11
 70
     1
102
RTVSPropertyOp12
 70
     1
102
RTVSPropertyOp13
 70
     1
102
RTVSPropertyOp14
 70
     1
102
RTVSPropertyOp15
 70
     1
102
RTVSPropertyOp16
 70
     1
102
RTVSPropertyOp17
 70
     1
102
RTVSPropertyOp18
 70
     1
102
RTVSPropertyOp19
 70
     1
102
RTVSPropertyOp20
 70
     1
102
RTVSPropertyOp21
 70
     1
102
RTVSPropertyOp22
 70
     1
102
RTVSPropertyOp23
 70
     1
102
RTVSPropertyOp24
 70
     1
102
RTVSPropertyOp25
 70
     1
102
RTVSPropertyOp26
 70
     1
102
RTVSPropertyOp27
 70
     1
102
RTVSPropertyOp28
 70
     1
102
RTVSPropertyOp29
 70
     1
102
RTVSPropertyOp30
 70
     1
102
RTVSPropertyOp31
 70
     1
102
RTVSPropertyOp32
 70
     1
102
RTVSPropertyOp33
 70
     1
102
RTVSPropertyOp34
 70
     1
102
RTVSPropertyOp35
 70
     1
102
RTVSPropertyOp36
 70
     1
102
RTVSPropertyOp37
 70
     1
102
RTVSPropertyOp38
 70
     1
102
RTVSPropertyOp39
 70
     1
102
RTVSPropertyOp40
 70
     1
102
RTVSPropertyOp41
 70
     1
102
RTVSPropertyOp42
 70
     1
102
RTVSPropertyOp43
 70
     1
102
RTVSPropertyOp44
 70
     1
102
RTVSPropertyOp45
 70
     1
102
RTVSPropertyOp46
 70
     1
102
RTVSPropertyOp47
 70
     1
102
RTVSPropertyOp48
 70
     1
102
RTVSPropertyOp49
 70
     1
102
RTVSPropertyOp50
 70
     1
102
RTVSPropertyOp51
 70
     0
102
RTVSPropertyOp52
 70
     0
102
RTVSPropertyOp53
 70
     1
102
RTVSPropertyOp54
 70
     1
102
RTVSPropertyOp55
 70
     1
102
RTVSPropertyOp56
 70
     1
102
RTVSPropertyOp57
 70
     1
102
RTVSPost2010Prop28
280
     0
102
RTVSPost2010PropOp28
 70
     1
102
RTVSPost2010Prop29
280
     1
102
RTVSPost2010PropOp29
 70
     1
102
RTVSPost2010Prop30
280
     1
102
RTVSPost2010PropOp30
 70
     1
102
RTVSPost2010Prop31
280
     0
102
RTVSPost2010PropOp31
 70
     1
102
RTVSPost2010Prop32
280
     0
102
RTVSPost2010PropOp32
 70
     1
102
RTVSPost2010Prop33
280
     0
102
RTVSPost2010PropOp33
 70
     1
102
RTVSPost2010Prop34
280
     0
102
RTVSPost2010PropOp34
 70
     1
102
RTVSPost2010Prop35
280
     0
102
RTVSPost2010PropOp35
 70
     1
102
RTVSPost2010Prop36
280
     0
102
RTVSPost2010PropOp36
 70
     1
102
RTVSPost2010Prop37
 90
       50
102
RTVSPost2010PropOp37
 70
     1
102
RTVSPost2010Prop38
140
0.0
102
RTVSPost2010PropOp38
 70
     1
102
RTVSPost2010Prop39
140
1.0
102
RTVSPost2010PropOp39
 70
     1
102
RTVSPost2010Prop40
 90
        0
102
RTVSPost2010PropOp40
 70
     1
102
RTVSPost2010Prop41ColorIndex
 90
       18
102
RTVSPost2010Prop41ColorRGB
 90
        0
102
RTVSPost2010PropOp41
 70
     1
102
RTVSPost2010Prop42
 90
       50
102
RTVSPost2010PropOp42
 70
     1
102
RTVSPost2010Prop43
 90
        3
102
RTVSPost2010PropOp43
 70
     1
102
RTVSPost2010Prop44ColorIndex
 90
        5
102
RTVSPost2010Prop44ColorRGB
 90
      255
102
RTVSPost2010PropOp44
 70
     1
102
RTVSPost2010Prop45
280
     0
102
RTVSPost2010PropOp45
 70
     1
102
RTVSPost2010Prop46
 90
       50
102
RTVSPost2010PropOp46
 70
     1
102
RTVSPost2010Prop47
 90
       50
102
RTVSPost2010PropOp47
 70
     1
102
RTVSPost2010Prop48
 90
       50
102
RTVSPost2010PropOp48
 70
     1
102
RTVSPost2010Prop49
280
     0
102
RTVSPost2010PropOp49
 70
     1
102
RTVSPost2010Prop50
 90
       50
102
RTVSPost2010PropOp50
 70
     1
102
RTVSPost2010Prop51ColorIndex
 90
      256
102
RTVSPost2010Prop51ColorRGB
 90
-16777216
102
RTVSPost2010PropOp51
 70
     0
102
RTVSPost2010Prop52
140
1.0
102
RTVSPost2010PropOp52
 70
     0
102
RTVSPost2010Prop53
 90
        2
102
RTVSPost2010PropOp53
 70
     1
102
RTVSPost2010Prop54
  1
strokes_ogs.tif
102
RTVSPost2010PropOp54
 70
     1
102
RTVSPost2010Prop55
280
     0
102
RTVSPost2010PropOp55
 70
     1
102
RTVSPost2010Prop56
140
1.0
102
RTVSPost2010PropOp56
 70
     1
102
RTVSPost2010Prop57
140
1.0
102
RTVSPost2010PropOp57
 70
     1
  0
XRECORD
  5
C73
102
{ACAD_REACTORS
330
C72
102
}
330
C72
100
AcDbXrecord
280
     1
102
RTVSPropertyOp0
 70
     1
102
RTVSPropertyOp1
 70
     1
102
RTVSPropertyOp2
 70
     1
102
RTVSPropertyOp3
 70
     1
102
RTVSPropertyOp4
 70
     1
102
RTVSPropertyOp5
 70
     1
102
RTVSPropertyOp6
 70
     1
102
RTVSPropertyOp7
 70
     1
102
RTVSPropertyOp8
 70
     1
102
RTVSPropertyOp9
 70
     1
102
RTVSPropertyOp10
 70
     1
102
RTVSPropertyOp11
 70
     1
102
RTVSPropertyOp12
 70
     1
102
RTVSPropertyOp13
 70
     1
102
RTVSPropertyOp14
 70
     1
102
RTVSPropertyOp15
 70
     1
102
RTVSPropertyOp16
 70
     1
102
RTVSPropertyOp17
 70
     1
102
RTVSPropertyOp18
 70
     1
102
RTVSPropertyOp19
 70
     1
102
RTVSPropertyOp20
 70
     1
102
RTVSPropertyOp21
 70
     1
102
RTVSPropertyOp22
 70
     1
102
RTVSPropertyOp23
 70
     1
102
RTVSPropertyOp24
 70
     1
102
RTVSPropertyOp25
 70
     1
102
RTVSPropertyOp26
 70
     1
102
RTVSPropertyOp27
 70
     1
102
RTVSPropertyOp28
 70
     1
102
RTVSPropertyOp29
 70
     1
102
RTVSPropertyOp30
 70
     1
102
RTVSPropertyOp31
 70
     1
102
RTVSPropertyOp32
 70
     1
102
RTVSPropertyOp33
 70
     1
102
RTVSPropertyOp34
 70
     1
102
RTVSPropertyOp35
 70
     1
102
RTVSPropertyOp36
 70
     1
102
RTVSPropertyOp37
 70
     1
102
RTVSPropertyOp38
 70
     1
102
RTVSPropertyOp39
 70
     1
102
RTVSPropertyOp40
 70
     1
102
RTVSPropertyOp41
 70
     1
102
RTVSPropertyOp42
 70
     1
102
RTVSPropertyOp43
 70
     1
102
RTVSPropertyOp44
 70
     1
102
RTVSPropertyOp45
 70
     1
102
RTVSPropertyOp46
 70
     1
102
RTVSPropertyOp47
 70
     1
102
RTVSPropertyOp48
 70
     1
102
RTVSPropertyOp49
 70
     1
102
RTVSPropertyOp50
 70
     1
102
RTVSPropertyOp51
 70
     0
102
RTVSPropertyOp52
 70
     0
102
RTVSPropertyOp53
 70
     1
102
RTVSPropertyOp54
 70
     1
102
RTVSPropertyOp55
 70
     1
102
RTVSPropertyOp56
 70
     1
102
RTVSPropertyOp57
 70
     1
102
RTVSPost2010Prop28
280
     0
102
RTVSPost2010PropOp28
 70
     1
102
RTVSPost2010Prop29
280
     1
102
RTVSPost2010PropOp29
 70
     1
102
RTVSPost2010Prop30
280
     1
102
RTVSPost2010PropOp30
 70
     1
102
RTVSPost2010Prop31
280
     0
102
RTVSPost2010PropOp31
 70
     1
102
RTVSPost2010Prop32
280
     0
102
RTVSPost2010PropOp32
 70
     1
102
RTVSPost2010Prop33
280
     0
102
RTVSPost2010PropOp33
 70
     1
102
RTVSPost2010Prop34
280
     0
102
RTVSPost2010PropOp34
 70
     1
102
RTVSPost2010Prop35
280
     0
102
RTVSPost2010PropOp35
 70
     1
102
RTVSPost2010Prop36
280
     0
102
RTVSPost2010PropOp36
 70
     1
102
RTVSPost2010Prop37
 90
       50
102
RTVSPost2010PropOp37
 70
     1
102
RTVSPost2010Prop38
140
0.0
102
RTVSPost2010PropOp38
 70
     1
102
RTVSPost2010Prop39
140
1.0
102
RTVSPost2010PropOp39
 70
     1
102
RTVSPost2010Prop40
 90
        0
102
RTVSPost2010PropOp40
 70
     1
102
RTVSPost2010Prop41ColorIndex
 90
       18
102
RTVSPost2010Prop41ColorRGB
 90
        0
102
RTVSPost2010PropOp41
 70
     1
102
RTVSPost2010Prop42
 90
       50
102
RTVSPost2010PropOp42
 70
     1
102
RTVSPost2010Prop43
 90
        3
102
RTVSPost2010PropOp43
 70
     1
102
RTVSPost2010Prop44ColorIndex
 90
        5
102
RTVSPost2010Prop44ColorRGB
 90
      255
102
RTVSPost2010PropOp44
 70
     1
102
RTVSPost2010Prop45
280
     0
102
RTVSPost2010PropOp45
 70
     1
102
RTVSPost2010Prop46
 90
       50
102
RTVSPost2010PropOp46
 70
     1
102
RTVSPost2010Prop47
 90
       50
102
RTVSPost2010PropOp47
 70
     1
102
RTVSPost2010Prop48
 90
       50
102
RTVSPost2010PropOp48
 70
     1
102
RTVSPost2010Prop49
280
     0
102
RTVSPost2010PropOp49
 70
     1
102
RTVSPost2010Prop50
 90
       50
102
RTVSPost2010PropOp50
 70
     1
102
RTVSPost2010Prop51ColorIndex
 90
      256
102
RTVSPost2010Prop51ColorRGB
 90
-16777216
102
RTVSPost2010PropOp51
 70
     0
102
RTVSPost2010Prop52
140
1.0
102
RTVSPost2010PropOp52
 70
     0
102
RTVSPost2010Prop53
 90
        2
102
RTVSPost2010PropOp53
 70
     1
102
RTVSPost2010Prop54
  1
strokes_ogs.tif
102
RTVSPost2010PropOp54
 70
     1
102
RTVSPost2010Prop55
280
     0
102
RTVSPost2010PropOp55
 70
     1
102
RTVSPost2010Prop56
140
1.0
102
RTVSPost2010PropOp56
 70
     1
102
RTVSPost2010Prop57
140
1.0
102
RTVSPost2010PropOp57
 70
     1
  0
XRECORD
  5
C75
102
{ACAD_REACTORS
330
C74
102
}
330
C74
100
AcDbXrecord
280
     1
102
RTVSPropertyOp0
 70
     0
102
RTVSPropertyOp1
 70
     0
102
RTVSPropertyOp2
 70
     0
102
RTVSPropertyOp3
 70
     0
102
RTVSPropertyOp4
 70
     0
102
RTVSPropertyOp5
 70
     0
102
RTVSPropertyOp6
 70
     0
102
RTVSPropertyOp7
 70
     0
102
RTVSPropertyOp8
 70
     0
102
RTVSPropertyOp9
 70
     0
102
RTVSPropertyOp10
 70
     0
102
RTVSPropertyOp11
 70
     0
102
RTVSPropertyOp12
 70
     0
102
RTVSPropertyOp13
 70
     0
102
RTVSPropertyOp14
 70
     2
102
RTVSPropertyOp15
 70
     0
102
RTVSPropertyOp16
 70
     0
102
RTVSPropertyOp17
 70
     0
102
RTVSPropertyOp18
 70
     0
102
RTVSPropertyOp19
 70
     0
102
RTVSPropertyOp20
 70
     0
102
RTVSPropertyOp21
 70
     0
102
RTVSPropertyOp22
 70
     0
102
RTVSPropertyOp23
 70
     0
102
RTVSPropertyOp24
 70
     0
102
RTVSPropertyOp25
 70
     0
102
RTVSPropertyOp26
 70
     0
102
RTVSPropertyOp27
 70
     0
102
RTVSPropertyOp28
 70
     0
102
RTVSPropertyOp29
 70
     0
102
RTVSPropertyOp30
 70
     0
102
RTVSPropertyOp31
 70
     0
102
RTVSPropertyOp32
 70
     0
102
RTVSPropertyOp33
 70
     1
102
RTVSPropertyOp34
 70
     1
102
RTVSPropertyOp35
 70
     1
102
RTVSPropertyOp36
 70
     1
102
RTVSPropertyOp37
 70
     1
102
RTVSPropertyOp38
 70
     1
102
RTVSPropertyOp39
 70
     1
102
RTVSPropertyOp40
 70
     1
102
RTVSPropertyOp41
 70
     1
102
RTVSPropertyOp42
 70
     1
102
RTVSPropertyOp43
 70
     1
102
RTVSPropertyOp44
 70
     1
102
RTVSPropertyOp45
 70
     1
102
RTVSPropertyOp46
 70
     1
102
RTVSPropertyOp47
 70
     1
102
RTVSPropertyOp48
 70
     1
102
RTVSPropertyOp49
 70
     1
102
RTVSPropertyOp50
 70
     1
102
RTVSPropertyOp51
 70
     0
102
RTVSPropertyOp52
 70
     0
102
RTVSPropertyOp53
 70
     1
102
RTVSPropertyOp54
 70
     1
102
RTVSPropertyOp55
 70
     1
102
RTVSPropertyOp56
 70
     1
102
RTVSPropertyOp57
 70
     1
102
RTVSPost2010Prop28
280
     0
102
RTVSPost2010PropOp28
 70
     0
102
RTVSPost2010Prop29
280
     1
102
RTVSPost2010PropOp29
 70
     0
102
RTVSPost2010Prop30
280
     1
102
RTVSPost2010PropOp30
 70
     0
102
RTVSPost2010Prop31
280
     0
102
RTVSPost2010PropOp31
 70
     0
102
RTVSPost2010Prop32
280
     0
102
RTVSPost2010PropOp32
 70
     0
102
RTVSPost2010Prop33
280
     0
102
RTVSPost2010PropOp33
 70
     1
102
RTVSPost2010Prop34
280
     0
102
RTVSPost2010PropOp34
 70
     1
102
RTVSPost2010Prop35
280
     0
102
RTVSPost2010PropOp35
 70
     1
102
RTVSPost2010Prop36
280
     0
102
RTVSPost2010PropOp36
 70
     1
102
RTVSPost2010Prop37
 90
       50
102
RTVSPost2010PropOp37
 70
     1
102
RTVSPost2010Prop38
140
0.0
102
RTVSPost2010PropOp38
 70
     1
102
RTVSPost2010Prop39
140
1.0
102
RTVSPost2010PropOp39
 70
     1
102
RTVSPost2010Prop40
 90
        0
102
RTVSPost2010PropOp40
 70
     1
102
RTVSPost2010Prop41ColorIndex
 90
       18
102
RTVSPost2010Prop41ColorRGB
 90
        0
102
RTVSPost2010PropOp41
 70
     1
102
RTVSPost2010Prop42
 90
       50
102
RTVSPost2010PropOp42
 70
     1
102
RTVSPost2010Prop43
 90
        3
102
RTVSPost2010PropOp43
 70
     1
102
RTVSPost2010Prop44ColorIndex
 90
        5
102
RTVSPost2010Prop44ColorRGB
 90
      255
102
RTVSPost2010PropOp44
 70
     1
102
RTVSPost2010Prop45
280
     0
102
RTVSPost2010PropOp45
 70
     1
102
RTVSPost2010Prop46
 90
       50
102
RTVSPost2010PropOp46
 70
     1
102
RTVSPost2010Prop47
 90
       50
102
RTVSPost2010PropOp47
 70
     1
102
RTVSPost2010Prop48
 90
       50
102
RTVSPost2010PropOp48
 70
     1
102
RTVSPost2010Prop49
280
     0
102
RTVSPost2010PropOp49
 70
     1
102
RTVSPost2010Prop50
 90
       50
102
RTVSPost2010PropOp50
 70
     1
102
RTVSPost2010Prop51ColorIndex
 90
      256
102
RTVSPost2010Prop51ColorRGB
 90
-16777216
102
RTVSPost2010PropOp51
 70
     0
102
RTVSPost2010Prop52
140
1.0
102
RTVSPost2010PropOp52
 70
     0
102
RTVSPost2010Prop53
 90
        2
102
RTVSPost2010PropOp53
 70
     1
102
RTVSPost2010Prop54
  1
strokes_ogs.tif
102
RTVSPost2010PropOp54
 70
     1
102
RTVSPost2010Prop55
280
     0
102
RTVSPost2010PropOp55
 70
     1
102
RTVSPost2010Prop56
140
1.0
102
RTVSPost2010PropOp56
 70
     1
102
RTVSPost2010Prop57
140
1.0
102
RTVSPost2010PropOp57
 70
     1
  0
XRECORD
  5
C77
102
{ACAD_REACTORS
330
C76
102
}
330
C76
100
AcDbXrecord
280
     1
102
RTVSPropertyOp0
 70
     1
102
RTVSPropertyOp1
 70
     1
102
RTVSPropertyOp2
 70
     1
102
RTVSPropertyOp3
 70
     1
102
RTVSPropertyOp4
 70
     1
102
RTVSPropertyOp5
 70
     1
102
RTVSPropertyOp6
 70
     1
102
RTVSPropertyOp7
 70
     1
102
RTVSPropertyOp8
 70
     1
102
RTVSPropertyOp9
 70
     1
102
RTVSPropertyOp10
 70
     1
102
RTVSPropertyOp11
 70
     1
102
RTVSPropertyOp12
 70
     1
102
RTVSPropertyOp13
 70
     1
102
RTVSPropertyOp14
 70
     1
102
RTVSPropertyOp15
 70
     1
102
RTVSPropertyOp16
 70
     1
102
RTVSPropertyOp17
 70
     1
102
RTVSPropertyOp18
 70
     1
102
RTVSPropertyOp19
 70
     1
102
RTVSPropertyOp20
 70
     1
102
RTVSPropertyOp21
 70
     1
102
RTVSPropertyOp22
 70
     1
102
RTVSPropertyOp23
 70
     1
102
RTVSPropertyOp24
 70
     1
102
RTVSPropertyOp25
 70
     1
102
RTVSPropertyOp26
 70
     1
102
RTVSPropertyOp27
 70
     1
102
RTVSPropertyOp28
 70
     1
102
RTVSPropertyOp29
 70
     1
102
RTVSPropertyOp30
 70
     1
102
RTVSPropertyOp31
 70
     1
102
RTVSPropertyOp32
 70
     1
102
RTVSPropertyOp33
 70
     1
102
RTVSPropertyOp34
 70
     1
102
RTVSPropertyOp35
 70
     1
102
RTVSPropertyOp36
 70
     1
102
RTVSPropertyOp37
 70
     1
102
RTVSPropertyOp38
 70
     1
102
RTVSPropertyOp39
 70
     1
102
RTVSPropertyOp40
 70
     1
102
RTVSPropertyOp41
 70
     1
102
RTVSPropertyOp42
 70
     1
102
RTVSPropertyOp43
 70
     1
102
RTVSPropertyOp44
 70
     1
102
RTVSPropertyOp45
 70
     1
102
RTVSPropertyOp46
 70
     1
102
RTVSPropertyOp47
 70
     1
102
RTVSPropertyOp48
 70
     1
102
RTVSPropertyOp49
 70
     1
102
RTVSPropertyOp50
 70
     1
102
RTVSPropertyOp51
 70
     0
102
RTVSPropertyOp52
 70
     0
102
RTVSPropertyOp53
 70
     1
102
RTVSPropertyOp54
 70
     1
102
RTVSPropertyOp55
 70
     1
102
RTVSPropertyOp56
 70
     1
102
RTVSPropertyOp57
 70
     1
102
RTVSPost2010Prop28
280
     0
102
RTVSPost2010PropOp28
 70
     1
102
RTVSPost2010Prop29
280
     1
102
RTVSPost2010PropOp29
 70
     1
102
RTVSPost2010Prop30
280
     1
102
RTVSPost2010PropOp30
 70
     1
102
RTVSPost2010Prop31
280
     0
102
RTVSPost2010PropOp31
 70
     1
102
RTVSPost2010Prop32
280
     0
102
RTVSPost2010PropOp32
 70
     1
102
RTVSPost2010Prop33
280
     0
102
RTVSPost2010PropOp33
 70
     1
102
RTVSPost2010Prop34
280
     0
102
RTVSPost2010PropOp34
 70
     1
102
RTVSPost2010Prop35
280
     0
102
RTVSPost2010PropOp35
 70
     1
102
RTVSPost2010Prop36
280
     0
102
RTVSPost2010PropOp36
 70
     1
102
RTVSPost2010Prop37
 90
       50
102
RTVSPost2010PropOp37
 70
     1
102
RTVSPost2010Prop38
140
0.0
102
RTVSPost2010PropOp38
 70
     1
102
RTVSPost2010Prop39
140
1.0
102
RTVSPost2010PropOp39
 70
     1
102
RTVSPost2010Prop40
 90
        0
102
RTVSPost2010PropOp40
 70
     1
102
RTVSPost2010Prop41ColorIndex
 90
       18
102
RTVSPost2010Prop41ColorRGB
 90
        0
102
RTVSPost2010PropOp41
 70
     1
102
RTVSPost2010Prop42
 90
       50
102
RTVSPost2010PropOp42
 70
     1
102
RTVSPost2010Prop43
 90
        3
102
RTVSPost2010PropOp43
 70
     1
102
RTVSPost2010Prop44ColorIndex
 90
        5
102
RTVSPost2010Prop44ColorRGB
 90
      255
102
RTVSPost2010PropOp44
 70
     1
102
RTVSPost2010Prop45
280
     0
102
RTVSPost2010PropOp45
 70
     1
102
RTVSPost2010Prop46
 90
       50
102
RTVSPost2010PropOp46
 70
     1
102
RTVSPost2010Prop47
 90
       50
102
RTVSPost2010PropOp47
 70
     1
102
RTVSPost2010Prop48
 90
       50
102
RTVSPost2010PropOp48
 70
     1
102
RTVSPost2010Prop49
280
     0
102
RTVSPost2010PropOp49
 70
     1
102
RTVSPost2010Prop50
 90
       50
102
RTVSPost2010PropOp50
 70
     1
102
RTVSPost2010Prop51ColorIndex
 90
      256
102
RTVSPost2010Prop51ColorRGB
 90
-16777216
102
RTVSPost2010PropOp51
 70
     0
102
RTVSPost2010Prop52
140
1.0
102
RTVSPost2010PropOp52
 70
     0
102
RTVSPost2010Prop53
 90
        2
102
RTVSPost2010PropOp53
 70
     1
102
RTVSPost2010Prop54
  1
strokes_ogs.tif
102
RTVSPost2010PropOp54
 70
     1
102
RTVSPost2010Prop55
280
     0
102
RTVSPost2010PropOp55
 70
     1
102
RTVSPost2010Prop56
140
1.0
102
RTVSPost2010PropOp56
 70
     1
102
RTVSPost2010Prop57
140
1.0
102
RTVSPost2010PropOp57
 70
     1
  0
XRECORD
  5
C79
102
{ACAD_REACTORS
330
C78
102
}
330
C78
100
AcDbXrecord
280
     1
102
RTVSPropertyOp0
 70
     0
102
RTVSPropertyOp1
 70
     0
102
RTVSPropertyOp2
 70
     0
102
RTVSPropertyOp3
 70
     0
102
RTVSPropertyOp4
 70
     0
102
RTVSPropertyOp5
 70
     0
102
RTVSPropertyOp6
 70
     0
102
RTVSPropertyOp7
 70
     0
102
RTVSPropertyOp8
 70
     0
102
RTVSPropertyOp9
 70
     0
102
RTVSPropertyOp10
 70
     0
102
RTVSPropertyOp11
 70
     0
102
RTVSPropertyOp12
 70
     0
102
RTVSPropertyOp13
 70
     0
102
RTVSPropertyOp14
 70
     2
102
RTVSPropertyOp15
 70
     0
102
RTVSPropertyOp16
 70
     0
102
RTVSPropertyOp17
 70
     0
102
RTVSPropertyOp18
 70
     0
102
RTVSPropertyOp19
 70
     0
102
RTVSPropertyOp20
 70
     0
102
RTVSPropertyOp21
 70
     0
102
RTVSPropertyOp22
 70
     0
102
RTVSPropertyOp23
 70
     0
102
RTVSPropertyOp24
 70
     0
102
RTVSPropertyOp25
 70
     0
102
RTVSPropertyOp26
 70
     0
102
RTVSPropertyOp27
 70
     0
102
RTVSPropertyOp28
 70
     0
102
RTVSPropertyOp29
 70
     0
102
RTVSPropertyOp30
 70
     0
102
RTVSPropertyOp31
 70
     0
102
RTVSPropertyOp32
 70
     0
102
RTVSPropertyOp33
 70
     1
102
RTVSPropertyOp34
 70
     1
102
RTVSPropertyOp35
 70
     1
102
RTVSPropertyOp36
 70
     1
102
RTVSPropertyOp37
 70
     1
102
RTVSPropertyOp38
 70
     1
102
RTVSPropertyOp39
 70
     1
102
RTVSPropertyOp40
 70
     1
102
RTVSPropertyOp41
 70
     1
102
RTVSPropertyOp42
 70
     1
102
RTVSPropertyOp43
 70
     1
102
RTVSPropertyOp44
 70
     1
102
RTVSPropertyOp45
 70
     1
102
RTVSPropertyOp46
 70
     1
102
RTVSPropertyOp47
 70
     1
102
RTVSPropertyOp48
 70
     1
102
RTVSPropertyOp49
 70
     1
102
RTVSPropertyOp50
 70
     1
102
RTVSPropertyOp51
 70
     0
102
RTVSPropertyOp52
 70
     0
102
RTVSPropertyOp53
 70
     1
102
RTVSPropertyOp54
 70
     1
102
RTVSPropertyOp55
 70
     1
102
RTVSPropertyOp56
 70
     1
102
RTVSPropertyOp57
 70
     1
102
RTVSPost2010Prop28
280
     0
102
RTVSPost2010PropOp28
 70
     0
102
RTVSPost2010Prop29
280
     1
102
RTVSPost2010PropOp29
 70
     0
102
RTVSPost2010Prop30
280
     1
102
RTVSPost2010PropOp30
 70
     0
102
RTVSPost2010Prop31
280
     0
102
RTVSPost2010PropOp31
 70
     0
102
RTVSPost2010Prop32
280
     0
102
RTVSPost2010PropOp32
 70
     0
102
RTVSPost2010Prop33
280
     0
102
RTVSPost2010PropOp33
 70
     1
102
RTVSPost2010Prop34
280
     0
102
RTVSPost2010PropOp34
 70
     1
102
RTVSPost2010Prop35
280
     0
102
RTVSPost2010PropOp35
 70
     1
102
RTVSPost2010Prop36
280
     0
102
RTVSPost2010PropOp36
 70
     1
102
RTVSPost2010Prop37
 90
       50
102
RTVSPost2010PropOp37
 70
     1
102
RTVSPost2010Prop38
140
0.0
102
RTVSPost2010PropOp38
 70
     1
102
RTVSPost2010Prop39
140
1.0
102
RTVSPost2010PropOp39
 70
     1
102
RTVSPost2010Prop40
 90
        0
102
RTVSPost2010PropOp40
 70
     1
102
RTVSPost2010Prop41ColorIndex
 90
       18
102
RTVSPost2010Prop41ColorRGB
 90
        0
102
RTVSPost2010PropOp41
 70
     1
102
RTVSPost2010Prop42
 90
       50
102
RTVSPost2010PropOp42
 70
     1
102
RTVSPost2010Prop43
 90
        3
102
RTVSPost2010PropOp43
 70
     1
102
RTVSPost2010Prop44ColorIndex
 90
        5
102
RTVSPost2010Prop44ColorRGB
 90
      255
102
RTVSPost2010PropOp44
 70
     1
102
RTVSPost2010Prop45
280
     0
102
RTVSPost2010PropOp45
 70
     1
102
RTVSPost2010Prop46
 90
       50
102
RTVSPost2010PropOp46
 70
     1
102
RTVSPost2010Prop47
 90
       50
102
RTVSPost2010PropOp47
 70
     1
102
RTVSPost2010Prop48
 90
       50
102
RTVSPost2010PropOp48
 70
     1
102
RTVSPost2010Prop49
280
     0
102
RTVSPost2010PropOp49
 70
     1
102
RTVSPost2010Prop50
 90
       50
102
RTVSPost2010PropOp50
 70
     1
102
RTVSPost2010Prop51ColorIndex
 90
      256
102
RTVSPost2010Prop51ColorRGB
 90
-16777216
102
RTVSPost2010PropOp51
 70
     0
102
RTVSPost2010Prop52
140
1.0
102
RTVSPost2010PropOp52
 70
     0
102
RTVSPost2010Prop53
 90
        2
102
RTVSPost2010PropOp53
 70
     1
102
RTVSPost2010Prop54
  1
strokes_ogs.tif
102
RTVSPost2010PropOp54
 70
     1
102
RTVSPost2010Prop55
280
     0
102
RTVSPost2010PropOp55
 70
     1
102
RTVSPost2010Prop56
140
1.0
102
RTVSPost2010PropOp56
 70
     1
102
RTVSPost2010Prop57
140
1.0
102
RTVSPost2010PropOp57
 70
     1
  0
XRECORD
  5
C7B
102
{ACAD_REACTORS
330
C7A
102
}
330
C7A
100
AcDbXrecord
280
     1
102
RTVSPropertyOp0
 70
     1
102
RTVSPropertyOp1
 70
     1
102
RTVSPropertyOp2
 70
     1
102
RTVSPropertyOp3
 70
     1
102
RTVSPropertyOp4
 70
     1
102
RTVSPropertyOp5
 70
     1
102
RTVSPropertyOp6
 70
     1
102
RTVSPropertyOp7
 70
     1
102
RTVSPropertyOp8
 70
     1
102
RTVSPropertyOp9
 70
     1
102
RTVSPropertyOp10
 70
     1
102
RTVSPropertyOp11
 70
     1
102
RTVSPropertyOp12
 70
     1
102
RTVSPropertyOp13
 70
     1
102
RTVSPropertyOp14
 70
     1
102
RTVSPropertyOp15
 70
     1
102
RTVSPropertyOp16
 70
     1
102
RTVSPropertyOp17
 70
     1
102
RTVSPropertyOp18
 70
     1
102
RTVSPropertyOp19
 70
     1
102
RTVSPropertyOp20
 70
     1
102
RTVSPropertyOp21
 70
     1
102
RTVSPropertyOp22
 70
     1
102
RTVSPropertyOp23
 70
     1
102
RTVSPropertyOp24
 70
     1
102
RTVSPropertyOp25
 70
     1
102
RTVSPropertyOp26
 70
     1
102
RTVSPropertyOp27
 70
     1
102
RTVSPropertyOp28
 70
     1
102
RTVSPropertyOp29
 70
     1
102
RTVSPropertyOp30
 70
     1
102
RTVSPropertyOp31
 70
     1
102
RTVSPropertyOp32
 70
     1
102
RTVSPropertyOp33
 70
     1
102
RTVSPropertyOp34
 70
     1
102
RTVSPropertyOp35
 70
     1
102
RTVSPropertyOp36
 70
     1
102
RTVSPropertyOp37
 70
     1
102
RTVSPropertyOp38
 70
     1
102
RTVSPropertyOp39
 70
     1
102
RTVSPropertyOp40
 70
     1
102
RTVSPropertyOp41
 70
     1
102
RTVSPropertyOp42
 70
     1
102
RTVSPropertyOp43
 70
     1
102
RTVSPropertyOp44
 70
     1
102
RTVSPropertyOp45
 70
     1
102
RTVSPropertyOp46
 70
     1
102
RTVSPropertyOp47
 70
     1
102
RTVSPropertyOp48
 70
     1
102
RTVSPropertyOp49
 70
     1
102
RTVSPropertyOp50
 70
     1
102
RTVSPropertyOp51
 70
     0
102
RTVSPropertyOp52
 70
     0
102
RTVSPropertyOp53
 70
     1
102
RTVSPropertyOp54
 70
     1
102
RTVSPropertyOp55
 70
     1
102
RTVSPropertyOp56
 70
     1
102
RTVSPropertyOp57
 70
     1
102
RTVSPost2010Prop28
280
     0
102
RTVSPost2010PropOp28
 70
     1
102
RTVSPost2010Prop29
280
     1
102
RTVSPost2010PropOp29
 70
     1
102
RTVSPost2010Prop30
280
     1
102
RTVSPost2010PropOp30
 70
     1
102
RTVSPost2010Prop31
280
     0
102
RTVSPost2010PropOp31
 70
     1
102
RTVSPost2010Prop32
280
     0
102
RTVSPost2010PropOp32
 70
     1
102
RTVSPost2010Prop33
280
     0
102
RTVSPost2010PropOp33
 70
     1
102
RTVSPost2010Prop34
280
     0
102
RTVSPost2010PropOp34
 70
     1
102
RTVSPost2010Prop35
280
     0
102
RTVSPost2010PropOp35
 70
     1
102
RTVSPost2010Prop36
280
     0
102
RTVSPost2010PropOp36
 70
     1
102
RTVSPost2010Prop37
 90
       50
102
RTVSPost2010PropOp37
 70
     1
102
RTVSPost2010Prop38
140
0.0
102
RTVSPost2010PropOp38
 70
     1
102
RTVSPost2010Prop39
140
1.0
102
RTVSPost2010PropOp39
 70
     1
102
RTVSPost2010Prop40
 90
        0
102
RTVSPost2010PropOp40
 70
     1
102
RTVSPost2010Prop41ColorIndex
 90
       18
102
RTVSPost2010Prop41ColorRGB
 90
        0
102
RTVSPost2010PropOp41
 70
     1
102
RTVSPost2010Prop42
 90
       50
102
RTVSPost2010PropOp42
 70
     1
102
RTVSPost2010Prop43
 90
        3
102
RTVSPost2010PropOp43
 70
     1
102
RTVSPost2010Prop44ColorIndex
 90
        5
102
RTVSPost2010Prop44ColorRGB
 90
      255
102
RTVSPost2010PropOp44
 70
     1
102
RTVSPost2010Prop45
280
     0
102
RTVSPost2010PropOp45
 70
     1
102
RTVSPost2010Prop46
 90
       50
102
RTVSPost2010PropOp46
 70
     1
102
RTVSPost2010Prop47
 90
       50
102
RTVSPost2010PropOp47
 70
     1
102
RTVSPost2010Prop48
 90
       50
102
RTVSPost2010PropOp48
 70
     1
102
RTVSPost2010Prop49
280
     0
102
RTVSPost2010PropOp49
 70
     1
102
RTVSPost2010Prop50
 90
       50
102
RTVSPost2010PropOp50
 70
     1
102
RTVSPost2010Prop51ColorIndex
 90
      256
102
RTVSPost2010Prop51ColorRGB
 90
-16777216
102
RTVSPost2010PropOp51
 70
     0
102
RTVSPost2010Prop52
140
1.0
102
RTVSPost2010PropOp52
 70
     0
102
RTVSPost2010Prop53
 90
        2
102
RTVSPost2010PropOp53
 70
     1
102
RTVSPost2010Prop54
  1
strokes_ogs.tif
102
RTVSPost2010PropOp54
 70
     1
102
RTVSPost2010Prop55
280
     0
102
RTVSPost2010PropOp55
 70
     1
102
RTVSPost2010Prop56
140
1.0
102
RTVSPost2010PropOp56
 70
     1
102
RTVSPost2010Prop57
140
1.0
102
RTVSPost2010PropOp57
 70
     1
  0
XRECORD
  5
C7D
102
{ACAD_REACTORS
330
C7C
102
}
330
C7C
100
AcDbXrecord
280
     1
102
RTVSPropertyOp0
 70
     1
102
RTVSPropertyOp1
 70
     1
102
RTVSPropertyOp2
 70
     1
102
RTVSPropertyOp3
 70
     1
102
RTVSPropertyOp4
 70
     1
102
RTVSPropertyOp5
 70
     1
102
RTVSPropertyOp6
 70
     1
102
RTVSPropertyOp7
 70
     1
102
RTVSPropertyOp8
 70
     1
102
RTVSPropertyOp9
 70
     1
102
RTVSPropertyOp10
 70
     1
102
RTVSPropertyOp11
 70
     1
102
RTVSPropertyOp12
 70
     1
102
RTVSPropertyOp13
 70
     1
102
RTVSPropertyOp14
 70
     1
102
RTVSPropertyOp15
 70
     1
102
RTVSPropertyOp16
 70
     1
102
RTVSPropertyOp17
 70
     1
102
RTVSPropertyOp18
 70
     1
102
RTVSPropertyOp19
 70
     1
102
RTVSPropertyOp20
 70
     1
102
RTVSPropertyOp21
 70
     1
102
RTVSPropertyOp22
 70
     1
102
RTVSPropertyOp23
 70
     1
102
RTVSPropertyOp24
 70
     1
102
RTVSPropertyOp25
 70
     1
102
RTVSPropertyOp26
 70
     1
102
RTVSPropertyOp27
 70
     1
102
RTVSPropertyOp28
 70
     1
102
RTVSPropertyOp29
 70
     1
102
RTVSPropertyOp30
 70
     1
102
RTVSPropertyOp31
 70
     1
102
RTVSPropertyOp32
 70
     1
102
RTVSPropertyOp33
 70
     1
102
RTVSPropertyOp34
 70
     1
102
RTVSPropertyOp35
 70
     1
102
RTVSPropertyOp36
 70
     1
102
RTVSPropertyOp37
 70
     1
102
RTVSPropertyOp38
 70
     1
102
RTVSPropertyOp39
 70
     1
102
RTVSPropertyOp40
 70
     1
102
RTVSPropertyOp41
 70
     1
102
RTVSPropertyOp42
 70
     1
102
RTVSPropertyOp43
 70
     1
102
RTVSPropertyOp44
 70
     1
102
RTVSPropertyOp45
 70
     1
102
RTVSPropertyOp46
 70
     1
102
RTVSPropertyOp47
 70
     1
102
RTVSPropertyOp48
 70
     1
102
RTVSPropertyOp49
 70
     1
102
RTVSPropertyOp50
 70
     1
102
RTVSPropertyOp51
 70
     0
102
RTVSPropertyOp52
 70
     0
102
RTVSPropertyOp53
 70
     1
102
RTVSPropertyOp54
 70
     1
102
RTVSPropertyOp55
 70
     1
102
RTVSPropertyOp56
 70
     1
102
RTVSPropertyOp57
 70
     1
102
RTVSPost2010Prop28
280
     0
102
RTVSPost2010PropOp28
 70
     1
102
RTVSPost2010Prop29
280
     1
102
RTVSPost2010PropOp29
 70
     1
102
RTVSPost2010Prop30
280
     1
102
RTVSPost2010PropOp30
 70
     1
102
RTVSPost2010Prop31
280
     0
102
RTVSPost2010PropOp31
 70
     1
102
RTVSPost2010Prop32
280
     0
102
RTVSPost2010PropOp32
 70
     1
102
RTVSPost2010Prop33
280
     0
102
RTVSPost2010PropOp33
 70
     1
102
RTVSPost2010Prop34
280
     0
102
RTVSPost2010PropOp34
 70
     1
102
RTVSPost2010Prop35
280
     0
102
RTVSPost2010PropOp35
 70
     1
102
RTVSPost2010Prop36
280
     0
102
RTVSPost2010PropOp36
 70
     1
102
RTVSPost2010Prop37
 90
       50
102
RTVSPost2010PropOp37
 70
     1
102
RTVSPost2010Prop38
140
0.0
102
RTVSPost2010PropOp38
 70
     1
102
RTVSPost2010Prop39
140
1.0
102
RTVSPost2010PropOp39
 70
     1
102
RTVSPost2010Prop40
 90
        0
102
RTVSPost2010PropOp40
 70
     1
102
RTVSPost2010Prop41ColorIndex
 90
       18
102
RTVSPost2010Prop41ColorRGB
 90
        0
102
RTVSPost2010PropOp41
 70
     1
102
RTVSPost2010Prop42
 90
       50
102
RTVSPost2010PropOp42
 70
     1
102
RTVSPost2010Prop43
 90
        3
102
RTVSPost2010PropOp43
 70
     1
102
RTVSPost2010Prop44ColorIndex
 90
        5
102
RTVSPost2010Prop44ColorRGB
 90
      255
102
RTVSPost2010PropOp44
 70
     1
102
RTVSPost2010Prop45
280
     0
102
RTVSPost2010PropOp45
 70
     1
102
RTVSPost2010Prop46
 90
       50
102
RTVSPost2010PropOp46
 70
     1
102
RTVSPost2010Prop47
 90
       50
102
RTVSPost2010PropOp47
 70
     1
102
RTVSPost2010Prop48
 90
       50
102
RTVSPost2010PropOp48
 70
     1
102
RTVSPost2010Prop49
280
     0
102
RTVSPost2010PropOp49
 70
     1
102
RTVSPost2010Prop50
 90
       50
102
RTVSPost2010PropOp50
 70
     1
102
RTVSPost2010Prop51ColorIndex
 90
      256
102
RTVSPost2010Prop51ColorRGB
 90
-16777216
102
RTVSPost2010PropOp51
 70
     0
102
RTVSPost2010Prop52
140
1.0
102
RTVSPost2010PropOp52
 70
     0
102
RTVSPost2010Prop53
 90
        2
102
RTVSPost2010PropOp53
 70
     1
102
RTVSPost2010Prop54
  1
strokes_ogs.tif
102
RTVSPost2010PropOp54
 70
     1
102
RTVSPost2010Prop55
280
     0
102
RTVSPost2010PropOp55
 70
     1
102
RTVSPost2010Prop56
140
1.0
102
RTVSPost2010PropOp56
 70
     1
102
RTVSPost2010Prop57
140
1.0
102
RTVSPost2010PropOp57
 70
     1
  0
XRECORD
  5
C7F
102
{ACAD_REACTORS
330
C7E
102
}
330
C7E
100
AcDbXrecord
280
     1
102
RTVSPropertyOp0
 70
     1
102
RTVSPropertyOp1
 70
     1
102
RTVSPropertyOp2
 70
     1
102
RTVSPropertyOp3
 70
     1
102
RTVSPropertyOp4
 70
     1
102
RTVSPropertyOp5
 70
     1
102
RTVSPropertyOp6
 70
     1
102
RTVSPropertyOp7
 70
     1
102
RTVSPropertyOp8
 70
     1
102
RTVSPropertyOp9
 70
     1
102
RTVSPropertyOp10
 70
     1
102
RTVSPropertyOp11
 70
     1
102
RTVSPropertyOp12
 70
     1
102
RTVSPropertyOp13
 70
     1
102
RTVSPropertyOp14
 70
     1
102
RTVSPropertyOp15
 70
     1
102
RTVSPropertyOp16
 70
     1
102
RTVSPropertyOp17
 70
     1
102
RTVSPropertyOp18
 70
     1
102
RTVSPropertyOp19
 70
     1
102
RTVSPropertyOp20
 70
     1
102
RTVSPropertyOp21
 70
     1
102
RTVSPropertyOp22
 70
     1
102
RTVSPropertyOp23
 70
     1
102
RTVSPropertyOp24
 70
     1
102
RTVSPropertyOp25
 70
     1
102
RTVSPropertyOp26
 70
     1
102
RTVSPropertyOp27
 70
     1
102
RTVSPropertyOp28
 70
     1
102
RTVSPropertyOp29
 70
     1
102
RTVSPropertyOp30
 70
     1
102
RTVSPropertyOp31
 70
     1
102
RTVSPropertyOp32
 70
     1
102
RTVSPropertyOp33
 70
     1
102
RTVSPropertyOp34
 70
     1
102
RTVSPropertyOp35
 70
     1
102
RTVSPropertyOp36
 70
     1
102
RTVSPropertyOp37
 70
     1
102
RTVSPropertyOp38
 70
     1
102
RTVSPropertyOp39
 70
     1
102
RTVSPropertyOp40
 70
     1
102
RTVSPropertyOp41
 70
     1
102
RTVSPropertyOp42
 70
     1
102
RTVSPropertyOp43
 70
     1
102
RTVSPropertyOp44
 70
     1
102
RTVSPropertyOp45
 70
     1
102
RTVSPropertyOp46
 70
     1
102
RTVSPropertyOp47
 70
     1
102
RTVSPropertyOp48
 70
     1
102
RTVSPropertyOp49
 70
     1
102
RTVSPropertyOp50
 70
     1
102
RTVSPropertyOp51
 70
     0
102
RTVSPropertyOp52
 70
     0
102
RTVSPropertyOp53
 70
     1
102
RTVSPropertyOp54
 70
     1
102
RTVSPropertyOp55
 70
     1
102
RTVSPropertyOp56
 70
     1
102
RTVSPropertyOp57
 70
     1
102
RTVSPost2010Prop28
280
     0
102
RTVSPost2010PropOp28
 70
     1
102
RTVSPost2010Prop29
280
     1
102
RTVSPost2010PropOp29
 70
     1
102
RTVSPost2010Prop30
280
     1
102
RTVSPost2010PropOp30
 70
     1
102
RTVSPost2010Prop31
280
     0
102
RTVSPost2010PropOp31
 70
     1
102
RTVSPost2010Prop32
280
     0
102
RTVSPost2010PropOp32
 70
     1
102
RTVSPost2010Prop33
280
     0
102
RTVSPost2010PropOp33
 70
     1
102
RTVSPost2010Prop34
280
     0
102
RTVSPost2010PropOp34
 70
     1
102
RTVSPost2010Prop35
280
     0
102
RTVSPost2010PropOp35
 70
     1
102
RTVSPost2010Prop36
280
     0
102
RTVSPost2010PropOp36
 70
     1
102
RTVSPost2010Prop37
 90
       50
102
RTVSPost2010PropOp37
 70
     1
102
RTVSPost2010Prop38
140
0.0
102
RTVSPost2010PropOp38
 70
     1
102
RTVSPost2010Prop39
140
1.0
102
RTVSPost2010PropOp39
 70
     1
102
RTVSPost2010Prop40
 90
        0
102
RTVSPost2010PropOp40
 70
     1
102
RTVSPost2010Prop41ColorIndex
 90
       18
102
RTVSPost2010Prop41ColorRGB
 90
        0
102
RTVSPost2010PropOp41
 70
     1
102
RTVSPost2010Prop42
 90
       50
102
RTVSPost2010PropOp42
 70
     1
102
RTVSPost2010Prop43
 90
        3
102
RTVSPost2010PropOp43
 70
     1
102
RTVSPost2010Prop44ColorIndex
 90
        5
102
RTVSPost2010Prop44ColorRGB
 90
      255
102
RTVSPost2010PropOp44
 70
     1
102
RTVSPost2010Prop45
280
     0
102
RTVSPost2010PropOp45
 70
     1
102
RTVSPost2010Prop46
 90
       50
102
RTVSPost2010PropOp46
 70
     1
102
RTVSPost2010Prop47
 90
       50
102
RTVSPost2010PropOp47
 70
     1
102
RTVSPost2010Prop48
 90
       50
102
RTVSPost2010PropOp48
 70
     1
102
RTVSPost2010Prop49
280
     0
102
RTVSPost2010PropOp49
 70
     1
102
RTVSPost2010Prop50
 90
       50
102
RTVSPost2010PropOp50
 70
     1
102
RTVSPost2010Prop51ColorIndex
 90
      256
102
RTVSPost2010Prop51ColorRGB
 90
-16777216
102
RTVSPost2010PropOp51
 70
     0
102
RTVSPost2010Prop52
140
1.0
102
RTVSPost2010PropOp52
 70
     0
102
RTVSPost2010Prop53
 90
        2
102
RTVSPost2010PropOp53
 70
     1
102
RTVSPost2010Prop54
  1
strokes_ogs.tif
102
RTVSPost2010PropOp54
 70
     1
102
RTVSPost2010Prop55
280
     0
102
RTVSPost2010PropOp55
 70
     1
102
RTVSPost2010Prop56
140
1.0
102
RTVSPost2010PropOp56
 70
     1
102
RTVSPost2010Prop57
140
1.0
102
RTVSPost2010PropOp57
 70
     1
  0
XRECORD
  5
C81
102
{ACAD_REACTORS
330
C80
102
}
330
C80
100
AcDbXrecord
280
     1
102
RTVSPropertyOp0
 70
     1
102
RTVSPropertyOp1
 70
     1
102
RTVSPropertyOp2
 70
     1
102
RTVSPropertyOp3
 70
     1
102
RTVSPropertyOp4
 70
     1
102
RTVSPropertyOp5
 70
     1
102
RTVSPropertyOp6
 70
     1
102
RTVSPropertyOp7
 70
     1
102
RTVSPropertyOp8
 70
     1
102
RTVSPropertyOp9
 70
     1
102
RTVSPropertyOp10
 70
     1
102
RTVSPropertyOp11
 70
     1
102
RTVSPropertyOp12
 70
     1
102
RTVSPropertyOp13
 70
     1
102
RTVSPropertyOp14
 70
     1
102
RTVSPropertyOp15
 70
     1
102
RTVSPropertyOp16
 70
     1
102
RTVSPropertyOp17
 70
     1
102
RTVSPropertyOp18
 70
     1
102
RTVSPropertyOp19
 70
     1
102
RTVSPropertyOp20
 70
     1
102
RTVSPropertyOp21
 70
     1
102
RTVSPropertyOp22
 70
     1
102
RTVSPropertyOp23
 70
     1
102
RTVSPropertyOp24
 70
     1
102
RTVSPropertyOp25
 70
     1
102
RTVSPropertyOp26
 70
     1
102
RTVSPropertyOp27
 70
     1
102
RTVSPropertyOp28
 70
     1
102
RTVSPropertyOp29
 70
     1
102
RTVSPropertyOp30
 70
     1
102
RTVSPropertyOp31
 70
     1
102
RTVSPropertyOp32
 70
     1
102
RTVSPropertyOp33
 70
     1
102
RTVSPropertyOp34
 70
     1
102
RTVSPropertyOp35
 70
     1
102
RTVSPropertyOp36
 70
     1
102
RTVSPropertyOp37
 70
     1
102
RTVSPropertyOp38
 70
     1
102
RTVSPropertyOp39
 70
     1
102
RTVSPropertyOp40
 70
     1
102
RTVSPropertyOp41
 70
     1
102
RTVSPropertyOp42
 70
     1
102
RTVSPropertyOp43
 70
     1
102
RTVSPropertyOp44
 70
     1
102
RTVSPropertyOp45
 70
     1
102
RTVSPropertyOp46
 70
     1
102
RTVSPropertyOp47
 70
     1
102
RTVSPropertyOp48
 70
     1
102
RTVSPropertyOp49
 70
     1
102
RTVSPropertyOp50
 70
     1
102
RTVSPropertyOp51
 70
     0
102
RTVSPropertyOp52
 70
     0
102
RTVSPropertyOp53
 70
     1
102
RTVSPropertyOp54
 70
     1
102
RTVSPropertyOp55
 70
     1
102
RTVSPropertyOp56
 70
     1
102
RTVSPropertyOp57
 70
     1
102
RTVSPost2010Prop28
280
     0
102
RTVSPost2010PropOp28
 70
     1
102
RTVSPost2010Prop29
280
     1
102
RTVSPost2010PropOp29
 70
     1
102
RTVSPost2010Prop30
280
     1
102
RTVSPost2010PropOp30
 70
     1
102
RTVSPost2010Prop31
280
     0
102
RTVSPost2010PropOp31
 70
     1
102
RTVSPost2010Prop32
280
     0
102
RTVSPost2010PropOp32
 70
     1
102
RTVSPost2010Prop33
280
     0
102
RTVSPost2010PropOp33
 70
     1
102
RTVSPost2010Prop34
280
     0
102
RTVSPost2010PropOp34
 70
     1
102
RTVSPost2010Prop35
280
     0
102
RTVSPost2010PropOp35
 70
     1
102
RTVSPost2010Prop36
280
     0
102
RTVSPost2010PropOp36
 70
     1
102
RTVSPost2010Prop37
 90
       50
102
RTVSPost2010PropOp37
 70
     1
102
RTVSPost2010Prop38
140
0.0
102
RTVSPost2010PropOp38
 70
     1
102
RTVSPost2010Prop39
140
1.0
102
RTVSPost2010PropOp39
 70
     1
102
RTVSPost2010Prop40
 90
        0
102
RTVSPost2010PropOp40
 70
     1
102
RTVSPost2010Prop41ColorIndex
 90
       18
102
RTVSPost2010Prop41ColorRGB
 90
        0
102
RTVSPost2010PropOp41
 70
     1
102
RTVSPost2010Prop42
 90
       50
102
RTVSPost2010PropOp42
 70
     1
102
RTVSPost2010Prop43
 90
        3
102
RTVSPost2010PropOp43
 70
     1
102
RTVSPost2010Prop44ColorIndex
 90
        5
102
RTVSPost2010Prop44ColorRGB
 90
      255
102
RTVSPost2010PropOp44
 70
     1
102
RTVSPost2010Prop45
280
     0
102
RTVSPost2010PropOp45
 70
     1
102
RTVSPost2010Prop46
 90
       50
102
RTVSPost2010PropOp46
 70
     1
102
RTVSPost2010Prop47
 90
       50
102
RTVSPost2010PropOp47
 70
     1
102
RTVSPost2010Prop48
 90
       50
102
RTVSPost2010PropOp48
 70
     1
102
RTVSPost2010Prop49
280
     0
102
RTVSPost2010PropOp49
 70
     1
102
RTVSPost2010Prop50
 90
       50
102
RTVSPost2010PropOp50
 70
     1
102
RTVSPost2010Prop51ColorIndex
 90
      256
102
RTVSPost2010Prop51ColorRGB
 90
-16777216
102
RTVSPost2010PropOp51
 70
     0
102
RTVSPost2010Prop52
140
1.0
102
RTVSPost2010PropOp52
 70
     0
102
RTVSPost2010Prop53
 90
        2
102
RTVSPost2010PropOp53
 70
     1
102
RTVSPost2010Prop54
  1
strokes_ogs.tif
102
RTVSPost2010PropOp54
 70
     1
102
RTVSPost2010Prop55
280
     0
102
RTVSPost2010PropOp55
 70
     1
102
RTVSPost2010Prop56
140
1.0
102
RTVSPost2010PropOp56
 70
     1
102
RTVSPost2010Prop57
140
1.0
102
RTVSPost2010PropOp57
 70
     1
  0
XRECORD
  5
C83
102
{ACAD_REACTORS
330
C82
102
}
330
C82
100
AcDbXrecord
280
     1
102
RTVSPropertyOp0
 70
     1
102
RTVSPropertyOp1
 70
     1
102
RTVSPropertyOp2
 70
     1
102
RTVSPropertyOp3
 70
     1
102
RTVSPropertyOp4
 70
     1
102
RTVSPropertyOp5
 70
     1
102
RTVSPropertyOp6
 70
     1
102
RTVSPropertyOp7
 70
     1
102
RTVSPropertyOp8
 70
     1
102
RTVSPropertyOp9
 70
     1
102
RTVSPropertyOp10
 70
     1
102
RTVSPropertyOp11
 70
     1
102
RTVSPropertyOp12
 70
     1
102
RTVSPropertyOp13
 70
     1
102
RTVSPropertyOp14
 70
     1
102
RTVSPropertyOp15
 70
     1
102
RTVSPropertyOp16
 70
     1
102
RTVSPropertyOp17
 70
     1
102
RTVSPropertyOp18
 70
     1
102
RTVSPropertyOp19
 70
     1
102
RTVSPropertyOp20
 70
     1
102
RTVSPropertyOp21
 70
     1
102
RTVSPropertyOp22
 70
     1
102
RTVSPropertyOp23
 70
     1
102
RTVSPropertyOp24
 70
     1
102
RTVSPropertyOp25
 70
     1
102
RTVSPropertyOp26
 70
     1
102
RTVSPropertyOp27
 70
     1
102
RTVSPropertyOp28
 70
     1
102
RTVSPropertyOp29
 70
     1
102
RTVSPropertyOp30
 70
     1
102
RTVSPropertyOp31
 70
     1
102
RTVSPropertyOp32
 70
     1
102
RTVSPropertyOp33
 70
     1
102
RTVSPropertyOp34
 70
     1
102
RTVSPropertyOp35
 70
     1
102
RTVSPropertyOp36
 70
     1
102
RTVSPropertyOp37
 70
     1
102
RTVSPropertyOp38
 70
     1
102
RTVSPropertyOp39
 70
     1
102
RTVSPropertyOp40
 70
     1
102
RTVSPropertyOp41
 70
     1
102
RTVSPropertyOp42
 70
     1
102
RTVSPropertyOp43
 70
     1
102
RTVSPropertyOp44
 70
     1
102
RTVSPropertyOp45
 70
     1
102
RTVSPropertyOp46
 70
     1
102
RTVSPropertyOp47
 70
     1
102
RTVSPropertyOp48
 70
     1
102
RTVSPropertyOp49
 70
     1
102
RTVSPropertyOp50
 70
     1
102
RTVSPropertyOp51
 70
     0
102
RTVSPropertyOp52
 70
     0
102
RTVSPropertyOp53
 70
     1
102
RTVSPropertyOp54
 70
     1
102
RTVSPropertyOp55
 70
     1
102
RTVSPropertyOp56
 70
     1
102
RTVSPropertyOp57
 70
     1
102
RTVSPost2010Prop28
280
     0
102
RTVSPost2010PropOp28
 70
     1
102
RTVSPost2010Prop29
280
     1
102
RTVSPost2010PropOp29
 70
     1
102
RTVSPost2010Prop30
280
     1
102
RTVSPost2010PropOp30
 70
     1
102
RTVSPost2010Prop31
280
     0
102
RTVSPost2010PropOp31
 70
     1
102
RTVSPost2010Prop32
280
     0
102
RTVSPost2010PropOp32
 70
     1
102
RTVSPost2010Prop33
280
     0
102
RTVSPost2010PropOp33
 70
     1
102
RTVSPost2010Prop34
280
     0
102
RTVSPost2010PropOp34
 70
     1
102
RTVSPost2010Prop35
280
     0
102
RTVSPost2010PropOp35
 70
     1
102
RTVSPost2010Prop36
280
     0
102
RTVSPost2010PropOp36
 70
     1
102
RTVSPost2010Prop37
 90
       50
102
RTVSPost2010PropOp37
 70
     1
102
RTVSPost2010Prop38
140
0.0
102
RTVSPost2010PropOp38
 70
     1
102
RTVSPost2010Prop39
140
1.0
102
RTVSPost2010PropOp39
 70
     1
102
RTVSPost2010Prop40
 90
        0
102
RTVSPost2010PropOp40
 70
     1
102
RTVSPost2010Prop41ColorIndex
 90
       18
102
RTVSPost2010Prop41ColorRGB
 90
        0
102
RTVSPost2010PropOp41
 70
     1
102
RTVSPost2010Prop42
 90
       50
102
RTVSPost2010PropOp42
 70
     1
102
RTVSPost2010Prop43
 90
        3
102
RTVSPost2010PropOp43
 70
     1
102
RTVSPost2010Prop44ColorIndex
 90
        5
102
RTVSPost2010Prop44ColorRGB
 90
      255
102
RTVSPost2010PropOp44
 70
     1
102
RTVSPost2010Prop45
280
     0
102
RTVSPost2010PropOp45
 70
     1
102
RTVSPost2010Prop46
 90
       50
102
RTVSPost2010PropOp46
 70
     1
102
RTVSPost2010Prop47
 90
       50
102
RTVSPost2010PropOp47
 70
     1
102
RTVSPost2010Prop48
 90
       50
102
RTVSPost2010PropOp48
 70
     1
102
RTVSPost2010Prop49
280
     0
102
RTVSPost2010PropOp49
 70
     1
102
RTVSPost2010Prop50
 90
       50
102
RTVSPost2010PropOp50
 70
     1
102
RTVSPost2010Prop51ColorIndex
 90
      256
102
RTVSPost2010Prop51ColorRGB
 90
-16777216
102
RTVSPost2010PropOp51
 70
     0
102
RTVSPost2010Prop52
140
1.0
102
RTVSPost2010PropOp52
 70
     0
102
RTVSPost2010Prop53
 90
        2
102
RTVSPost2010PropOp53
 70
     1
102
RTVSPost2010Prop54
  1
strokes_ogs.tif
102
RTVSPost2010PropOp54
 70
     1
102
RTVSPost2010Prop55
280
     0
102
RTVSPost2010PropOp55
 70
     1
102
RTVSPost2010Prop56
140
1.0
102
RTVSPost2010PropOp56
 70
     1
102
RTVSPost2010Prop57
140
1.0
102
RTVSPost2010PropOp57
 70
     1
  0
XRECORD
  5
C85
102
{ACAD_REACTORS
330
C84
102
}
330
C84
100
AcDbXrecord
280
     1
102
RTVSPropertyOp0
 70
     1
102
RTVSPropertyOp1
 70
     1
102
RTVSPropertyOp2
 70
     1
102
RTVSPropertyOp3
 70
     1
102
RTVSPropertyOp4
 70
     1
102
RTVSPropertyOp5
 70
     1
102
RTVSPropertyOp6
 70
     1
102
RTVSPropertyOp7
 70
     1
102
RTVSPropertyOp8
 70
     1
102
RTVSPropertyOp9
 70
     1
102
RTVSPropertyOp10
 70
     1
102
RTVSPropertyOp11
 70
     1
102
RTVSPropertyOp12
 70
     1
102
RTVSPropertyOp13
 70
     1
102
RTVSPropertyOp14
 70
     1
102
RTVSPropertyOp15
 70
     1
102
RTVSPropertyOp16
 70
     1
102
RTVSPropertyOp17
 70
     1
102
RTVSPropertyOp18
 70
     1
102
RTVSPropertyOp19
 70
     1
102
RTVSPropertyOp20
 70
     1
102
RTVSPropertyOp21
 70
     1
102
RTVSPropertyOp22
 70
     1
102
RTVSPropertyOp23
 70
     1
102
RTVSPropertyOp24
 70
     1
102
RTVSPropertyOp25
 70
     1
102
RTVSPropertyOp26
 70
     1
102
RTVSPropertyOp27
 70
     1
102
RTVSPropertyOp28
 70
     1
102
RTVSPropertyOp29
 70
     1
102
RTVSPropertyOp30
 70
     1
102
RTVSPropertyOp31
 70
     1
102
RTVSPropertyOp32
 70
     1
102
RTVSPropertyOp33
 70
     1
102
RTVSPropertyOp34
 70
     1
102
RTVSPropertyOp35
 70
     1
102
RTVSPropertyOp36
 70
     1
102
RTVSPropertyOp37
 70
     1
102
RTVSPropertyOp38
 70
     1
102
RTVSPropertyOp39
 70
     1
102
RTVSPropertyOp40
 70
     1
102
RTVSPropertyOp41
 70
     1
102
RTVSPropertyOp42
 70
     1
102
RTVSPropertyOp43
 70
     1
102
RTVSPropertyOp44
 70
     1
102
RTVSPropertyOp45
 70
     1
102
RTVSPropertyOp46
 70
     1
102
RTVSPropertyOp47
 70
     1
102
RTVSPropertyOp48
 70
     1
102
RTVSPropertyOp49
 70
     1
102
RTVSPropertyOp50
 70
     1
102
RTVSPropertyOp51
 70
     0
102
RTVSPropertyOp52
 70
     0
102
RTVSPropertyOp53
 70
     1
102
RTVSPropertyOp54
 70
     1
102
RTVSPropertyOp55
 70
     1
102
RTVSPropertyOp56
 70
     1
102
RTVSPropertyOp57
 70
     1
102
RTVSPost2010Prop28
280
     0
102
RTVSPost2010PropOp28
 70
     1
102
RTVSPost2010Prop29
280
     1
102
RTVSPost2010PropOp29
 70
     1
102
RTVSPost2010Prop30
280
     1
102
RTVSPost2010PropOp30
 70
     1
102
RTVSPost2010Prop31
280
     0
102
RTVSPost2010PropOp31
 70
     1
102
RTVSPost2010Prop32
280
     0
102
RTVSPost2010PropOp32
 70
     1
102
RTVSPost2010Prop33
280
     0
102
RTVSPost2010PropOp33
 70
     1
102
RTVSPost2010Prop34
280
     0
102
RTVSPost2010PropOp34
 70
     1
102
RTVSPost2010Prop35
280
     0
102
RTVSPost2010PropOp35
 70
     1
102
RTVSPost2010Prop36
280
     0
102
RTVSPost2010PropOp36
 70
     1
102
RTVSPost2010Prop37
 90
       50
102
RTVSPost2010PropOp37
 70
     1
102
RTVSPost2010Prop38
140
0.0
102
RTVSPost2010PropOp38
 70
     1
102
RTVSPost2010Prop39
140
1.0
102
RTVSPost2010PropOp39
 70
     1
102
RTVSPost2010Prop40
 90
        0
102
RTVSPost2010PropOp40
 70
     1
102
RTVSPost2010Prop41ColorIndex
 90
       18
102
RTVSPost2010Prop41ColorRGB
 90
        0
102
RTVSPost2010PropOp41
 70
     1
102
RTVSPost2010Prop42
 90
       50
102
RTVSPost2010PropOp42
 70
     1
102
RTVSPost2010Prop43
 90
        3
102
RTVSPost2010PropOp43
 70
     1
102
RTVSPost2010Prop44ColorIndex
 90
        5
102
RTVSPost2010Prop44ColorRGB
 90
      255
102
RTVSPost2010PropOp44
 70
     1
102
RTVSPost2010Prop45
280
     0
102
RTVSPost2010PropOp45
 70
     1
102
RTVSPost2010Prop46
 90
       50
102
RTVSPost2010PropOp46
 70
     1
102
RTVSPost2010Prop47
 90
       50
102
RTVSPost2010PropOp47
 70
     1
102
RTVSPost2010Prop48
 90
       50
102
RTVSPost2010PropOp48
 70
     1
102
RTVSPost2010Prop49
280
     0
102
RTVSPost2010PropOp49
 70
     1
102
RTVSPost2010Prop50
 90
       50
102
RTVSPost2010PropOp50
 70
     1
102
RTVSPost2010Prop51ColorIndex
 90
      256
102
RTVSPost2010Prop51ColorRGB
 90
-16777216
102
RTVSPost2010PropOp51
 70
     0
102
RTVSPost2010Prop52
140
1.0
102
RTVSPost2010PropOp52
 70
     0
102
RTVSPost2010Prop53
 90
        2
102
RTVSPost2010PropOp53
 70
     1
102
RTVSPost2010Prop54
  1
strokes_ogs.tif
102
RTVSPost2010PropOp54
 70
     1
102
RTVSPost2010Prop55
280
     0
102
RTVSPost2010PropOp55
 70
     1
102
RTVSPost2010Prop56
140
1.0
102
RTVSPost2010PropOp56
 70
     1
102
RTVSPost2010Prop57
140
1.0
102
RTVSPost2010PropOp57
 70
     1
  0
XRECORD
  5
C87
102
{ACAD_REACTORS
330
C86
102
}
330
C86
100
AcDbXrecord
280
     1
102
RTVSPropertyOp0
 70
     1
102
RTVSPropertyOp1
 70
     1
102
RTVSPropertyOp2
 70
     1
102
RTVSPropertyOp3
 70
     1
102
RTVSPropertyOp4
 70
     1
102
RTVSPropertyOp5
 70
     1
102
RTVSPropertyOp6
 70
     1
102
RTVSPropertyOp7
 70
     1
102
RTVSPropertyOp8
 70
     1
102
RTVSPropertyOp9
 70
     1
102
RTVSPropertyOp10
 70
     1
102
RTVSPropertyOp11
 70
     1
102
RTVSPropertyOp12
 70
     1
102
RTVSPropertyOp13
 70
     1
102
RTVSPropertyOp14
 70
     1
102
RTVSPropertyOp15
 70
     1
102
RTVSPropertyOp16
 70
     1
102
RTVSPropertyOp17
 70
     1
102
RTVSPropertyOp18
 70
     1
102
RTVSPropertyOp19
 70
     1
102
RTVSPropertyOp20
 70
     1
102
RTVSPropertyOp21
 70
     1
102
RTVSPropertyOp22
 70
     1
102
RTVSPropertyOp23
 70
     1
102
RTVSPropertyOp24
 70
     1
102
RTVSPropertyOp25
 70
     1
102
RTVSPropertyOp26
 70
     1
102
RTVSPropertyOp27
 70
     1
102
RTVSPropertyOp28
 70
     1
102
RTVSPropertyOp29
 70
     1
102
RTVSPropertyOp30
 70
     1
102
RTVSPropertyOp31
 70
     1
102
RTVSPropertyOp32
 70
     1
102
RTVSPropertyOp33
 70
     1
102
RTVSPropertyOp34
 70
     1
102
RTVSPropertyOp35
 70
     1
102
RTVSPropertyOp36
 70
     1
102
RTVSPropertyOp37
 70
     1
102
RTVSPropertyOp38
 70
     1
102
RTVSPropertyOp39
 70
     1
102
RTVSPropertyOp40
 70
     1
102
RTVSPropertyOp41
 70
     1
102
RTVSPropertyOp42
 70
     1
102
RTVSPropertyOp43
 70
     1
102
RTVSPropertyOp44
 70
     1
102
RTVSPropertyOp45
 70
     1
102
RTVSPropertyOp46
 70
     1
102
RTVSPropertyOp47
 70
     1
102
RTVSPropertyOp48
 70
     1
102
RTVSPropertyOp49
 70
     1
102
RTVSPropertyOp50
 70
     1
102
RTVSPropertyOp51
 70
     0
102
RTVSPropertyOp52
 70
     0
102
RTVSPropertyOp53
 70
     1
102
RTVSPropertyOp54
 70
     1
102
RTVSPropertyOp55
 70
     1
102
RTVSPropertyOp56
 70
     1
102
RTVSPropertyOp57
 70
     1
102
RTVSPost2010Prop28
280
     0
102
RTVSPost2010PropOp28
 70
     1
102
RTVSPost2010Prop29
280
     1
102
RTVSPost2010PropOp29
 70
     1
102
RTVSPost2010Prop30
280
     1
102
RTVSPost2010PropOp30
 70
     1
102
RTVSPost2010Prop31
280
     0
102
RTVSPost2010PropOp31
 70
     1
102
RTVSPost2010Prop32
280
     0
102
RTVSPost2010PropOp32
 70
     1
102
RTVSPost2010Prop33
280
     0
102
RTVSPost2010PropOp33
 70
     1
102
RTVSPost2010Prop34
280
     0
102
RTVSPost2010PropOp34
 70
     1
102
RTVSPost2010Prop35
280
     0
102
RTVSPost2010PropOp35
 70
     1
102
RTVSPost2010Prop36
280
     0
102
RTVSPost2010PropOp36
 70
     1
102
RTVSPost2010Prop37
 90
       50
102
RTVSPost2010PropOp37
 70
     1
102
RTVSPost2010Prop38
140
0.0
102
RTVSPost2010PropOp38
 70
     1
102
RTVSPost2010Prop39
140
1.0
102
RTVSPost2010PropOp39
 70
     1
102
RTVSPost2010Prop40
 90
        0
102
RTVSPost2010PropOp40
 70
     1
102
RTVSPost2010Prop41ColorIndex
 90
       18
102
RTVSPost2010Prop41ColorRGB
 90
        0
102
RTVSPost2010PropOp41
 70
     1
102
RTVSPost2010Prop42
 90
       50
102
RTVSPost2010PropOp42
 70
     1
102
RTVSPost2010Prop43
 90
        3
102
RTVSPost2010PropOp43
 70
     1
102
RTVSPost2010Prop44ColorIndex
 90
        5
102
RTVSPost2010Prop44ColorRGB
 90
      255
102
RTVSPost2010PropOp44
 70
     1
102
RTVSPost2010Prop45
280
     0
102
RTVSPost2010PropOp45
 70
     1
102
RTVSPost2010Prop46
 90
       50
102
RTVSPost2010PropOp46
 70
     1
102
RTVSPost2010Prop47
 90
       50
102
RTVSPost2010PropOp47
 70
     1
102
RTVSPost2010Prop48
 90
       50
102
RTVSPost2010PropOp48
 70
     1
102
RTVSPost2010Prop49
280
     0
102
RTVSPost2010PropOp49
 70
     1
102
RTVSPost2010Prop50
 90
       50
102
RTVSPost2010PropOp50
 70
     1
102
RTVSPost2010Prop51ColorIndex
 90
      256
102
RTVSPost2010Prop51ColorRGB
 90
-16777216
102
RTVSPost2010PropOp51
 70
     0
102
RTVSPost2010Prop52
140
1.0
102
RTVSPost2010PropOp52
 70
     0
102
RTVSPost2010Prop53
 90
        2
102
RTVSPost2010PropOp53
 70
     1
102
RTVSPost2010Prop54
  1
strokes_ogs.tif
102
RTVSPost2010PropOp54
 70
     1
102
RTVSPost2010Prop55
280
     0
102
RTVSPost2010PropOp55
 70
     1
102
RTVSPost2010Prop56
140
1.0
102
RTVSPost2010PropOp56
 70
     1
102
RTVSPost2010Prop57
140
1.0
102
RTVSPost2010PropOp57
 70
     1
  0
XRECORD
  5
C89
102
{ACAD_REACTORS
330
C88
102
}
330
C88
100
AcDbXrecord
280
     1
102
RTVSPropertyOp0
 70
     1
102
RTVSPropertyOp1
 70
     1
102
RTVSPropertyOp2
 70
     1
102
RTVSPropertyOp3
 70
     1
102
RTVSPropertyOp4
 70
     1
102
RTVSPropertyOp5
 70
     1
102
RTVSPropertyOp6
 70
     1
102
RTVSPropertyOp7
 70
     1
102
RTVSPropertyOp8
 70
     1
102
RTVSPropertyOp9
 70
     1
102
RTVSPropertyOp10
 70
     1
102
RTVSPropertyOp11
 70
     1
102
RTVSPropertyOp12
 70
     1
102
RTVSPropertyOp13
 70
     1
102
RTVSPropertyOp14
 70
     1
102
RTVSPropertyOp15
 70
     1
102
RTVSPropertyOp16
 70
     1
102
RTVSPropertyOp17
 70
     1
102
RTVSPropertyOp18
 70
     1
102
RTVSPropertyOp19
 70
     1
102
RTVSPropertyOp20
 70
     1
102
RTVSPropertyOp21
 70
     1
102
RTVSPropertyOp22
 70
     1
102
RTVSPropertyOp23
 70
     1
102
RTVSPropertyOp24
 70
     1
102
RTVSPropertyOp25
 70
     1
102
RTVSPropertyOp26
 70
     1
102
RTVSPropertyOp27
 70
     1
102
RTVSPropertyOp28
 70
     1
102
RTVSPropertyOp29
 70
     1
102
RTVSPropertyOp30
 70
     1
102
RTVSPropertyOp31
 70
     1
102
RTVSPropertyOp32
 70
     1
102
RTVSPropertyOp33
 70
     1
102
RTVSPropertyOp34
 70
     1
102
RTVSPropertyOp35
 70
     1
102
RTVSPropertyOp36
 70
     1
102
RTVSPropertyOp37
 70
     1
102
RTVSPropertyOp38
 70
     1
102
RTVSPropertyOp39
 70
     1
102
RTVSPropertyOp40
 70
     1
102
RTVSPropertyOp41
 70
     1
102
RTVSPropertyOp42
 70
     1
102
RTVSPropertyOp43
 70
     1
102
RTVSPropertyOp44
 70
     1
102
RTVSPropertyOp45
 70
     1
102
RTVSPropertyOp46
 70
     1
102
RTVSPropertyOp47
 70
     1
102
RTVSPropertyOp48
 70
     1
102
RTVSPropertyOp49
 70
     1
102
RTVSPropertyOp50
 70
     1
102
RTVSPropertyOp51
 70
     0
102
RTVSPropertyOp52
 70
     0
102
RTVSPropertyOp53
 70
     1
102
RTVSPropertyOp54
 70
     1
102
RTVSPropertyOp55
 70
     1
102
RTVSPropertyOp56
 70
     1
102
RTVSPropertyOp57
 70
     1
102
RTVSPost2010Prop28
280
     0
102
RTVSPost2010PropOp28
 70
     1
102
RTVSPost2010Prop29
280
     1
102
RTVSPost2010PropOp29
 70
     1
102
RTVSPost2010Prop30
280
     1
102
RTVSPost2010PropOp30
 70
     1
102
RTVSPost2010Prop31
280
     0
102
RTVSPost2010PropOp31
 70
     1
102
RTVSPost2010Prop32
280
     0
102
RTVSPost2010PropOp32
 70
     1
102
RTVSPost2010Prop33
280
     0
102
RTVSPost2010PropOp33
 70
     1
102
RTVSPost2010Prop34
280
     0
102
RTVSPost2010PropOp34
 70
     1
102
RTVSPost2010Prop35
280
     0
102
RTVSPost2010PropOp35
 70
     1
102
RTVSPost2010Prop36
280
     0
102
RTVSPost2010PropOp36
 70
     1
102
RTVSPost2010Prop37
 90
       50
102
RTVSPost2010PropOp37
 70
     1
102
RTVSPost2010Prop38
140
0.0
102
RTVSPost2010PropOp38
 70
     1
102
RTVSPost2010Prop39
140
1.0
102
RTVSPost2010PropOp39
 70
     1
102
RTVSPost2010Prop40
 90
        0
102
RTVSPost2010PropOp40
 70
     1
102
RTVSPost2010Prop41ColorIndex
 90
       18
102
RTVSPost2010Prop41ColorRGB
 90
        0
102
RTVSPost2010PropOp41
 70
     1
102
RTVSPost2010Prop42
 90
       50
102
RTVSPost2010PropOp42
 70
     1
102
RTVSPost2010Prop43
 90
        3
102
RTVSPost2010PropOp43
 70
     1
102
RTVSPost2010Prop44ColorIndex
 90
        5
102
RTVSPost2010Prop44ColorRGB
 90
      255
102
RTVSPost2010PropOp44
 70
     1
102
RTVSPost2010Prop45
280
     0
102
RTVSPost2010PropOp45
 70
     1
102
RTVSPost2010Prop46
 90
       50
102
RTVSPost2010PropOp46
 70
     1
102
RTVSPost2010Prop47
 90
       50
102
RTVSPost2010PropOp47
 70
     1
102
RTVSPost2010Prop48
 90
       50
102
RTVSPost2010PropOp48
 70
     1
102
RTVSPost2010Prop49
280
     0
102
RTVSPost2010PropOp49
 70
     1
102
RTVSPost2010Prop50
 90
       50
102
RTVSPost2010PropOp50
 70
     1
102
RTVSPost2010Prop51ColorIndex
 90
      256
102
RTVSPost2010Prop51ColorRGB
 90
-16777216
102
RTVSPost2010PropOp51
 70
     0
102
RTVSPost2010Prop52
140
1.0
102
RTVSPost2010PropOp52
 70
     0
102
RTVSPost2010Prop53
 90
        2
102
RTVSPost2010PropOp53
 70
     1
102
RTVSPost2010Prop54
  1
strokes_ogs.tif
102
RTVSPost2010PropOp54
 70
     1
102
RTVSPost2010Prop55
280
     0
102
RTVSPost2010PropOp55
 70
     1
102
RTVSPost2010Prop56
140
1.0
102
RTVSPost2010PropOp56
 70
     1
102
RTVSPost2010Prop57
140
1.0
102
RTVSPost2010PropOp57
 70
     1
  0
ENDSEC
  0
EOF
