 0
SECTION
 2
HEADER
 9
$ACADVER
 1
AC1003
 9
$EXTMIN
 10
-312.024841
 20
-765.129761
 9
$EXTMAX
 10
-35.024826
 20
-574.129761
 9
$LIMMIN
 10
-312.025841
 20
-765.130761
 9
$LIMMAX
 10
-35.023826
 20
-574.128761
 9
$SNAPUNIT
 10
1
 20
1
 9
$SNAPBASE
 10
0
 20
0
 9
$GRIDMODE
 70
0
 9
$GRIDUNIT
 10
0
 20
0
 9
$LTSCALE
 40
4.616667
 9
$TEXTSIZE
 40
3.2
 9
$DIMTAD
 70
0
 9
$LUNITS
 70
2
 9
$LUPREC
 70
4
 9
$FILLETRAD
 40
0
 9
$AUNITS
 70
0
 9
$AUPREC
 70
0
 0
ENDSEC
 0
SECTION
 2
TABLES
 0
TABLE
 2
LTYPE
 70
25
  0
LTYPE
  2
CONTINUOUS
 70
    64
  3
Solid-line
 72
    65
 73
     0
 40
0.0
  0
LTYPE
  2
BORDER
 70
    64
  3
BORDER
 72
    65
 73
     6
 40
1.75
 49
0.5
 49
-0.25
 49
0.5
 49
-0.25
 49
0.0
 49
-0.25
  0
LTYPE
  2
BORDER2
 70
    64
  3
BORDER2
 72
    65
 73
     6
 40
0.875
 49
0.25
 49
-0.125
 49
0.25
 49
-0.125
 49
0.0
 49
-0.125
  0
LTYPE
  2
BORDERX2
 70
    64
  3
BORDERX2
 72
    65
 73
     6
 40
3.5
 49
1.0
 49
-0.5
 49
1.0
 49
-0.5
 49
0.0
 49
-0.5
  0
LTYPE
  2
CENTER
 70
    64
  3
CENTER
 72
    65
 73
     4
 40
2.0
 49
1.25
 49
-0.25
 49
0.25
 49
-0.25
  0
LTYPE
  2
CENTER2
 70
    64
  3
CENTER2
 72
    65
 73
     4
 40
1.125
 49
0.75
 49
-0.125
 49
0.125
 49
-0.125
  0
LTYPE
  2
CENTERX2
 70
    64
  3
CENTERX2
 72
    65
 73
     4
 40
4.0
 49
2.5
 49
-0.5
 49
0.5
 49
-0.5
  0
LTYPE
  2
DASHDOT
 70
    64
  3
DASHDOT
 72
    65
 73
     4
 40
1.0
 49
0.5
 49
-0.25
 49
0.0
 49
-0.25
  0
LTYPE
  2
DASHDOT2
 70
    64
  3
DASHDOT2
 72
    65
 73
     4
 40
0.5
 49
0.25
 49
-0.125
 49
0.0
 49
-0.125
  0
LTYPE
  2
DASHDOTX2
 70
    64
  3
DASHDOTX2
 72
    65
 73
     4
 40
2.0
 49
1.0
 49
-0.5
 49
0.0
 49
-0.5
  0
LTYPE
  2
DASHED
 70
    64
  3
DASHED
 72
    65
 73
     2
 40
0.75
 49
0.5
 49
-0.25
  0
LTYPE
  2
DASHED2
 70
    64
  3
DASHED2
 72
    65
 73
     2
 40
0.375
 49
0.25
 49
-0.125
  0
LTYPE
  2
DASHEDX2
 70
    64
  3
DASHEDX2
 72
    65
 73
     2
 40
1.5
 49
1.0
 49
-0.5
  0
LTYPE
  2
DIVIDE
 70
    64
  3
DIVIDE
 72
    65
 73
     6
 40
1.25
 49
0.5
 49
-0.25
 49
0.0
 49
-0.25
 49
0.0
 49
-0.25
  0
LTYPE
  2
DIVIDE2
 70
    64
  3
DIVIDE2
 72
    65
 73
     6
 40
0.625
 49
0.25
 49
-0.125
 49
0.0
 49
-0.125
 49
0.0
 49
-0.125
  0
LTYPE
  2
DIVIDEX2
 70
    64
  3
DIVIDEX2
 72
    65
 73
     6
 40
2.5
 49
1.0
 49
-0.5
 49
0.0
 49
-0.5
 49
0.0
 49
-0.5
  0
LTYPE
  2
DOT
 70
    64
  3
DOT
 72
    65
 73
     2
 40
0.25
 49
0.0
 49
-0.25
  0
LTYPE
  2
DOT2
 70
    64
  3
DOT2
 72
    65
 73
     2
 40
0.125
 49
0.0
 49
-0.125
  0
LTYPE
  2
DOTX2
 70
    64
  3
DOTX2
 72
    65
 73
     2
 40
0.5
 49
0.0
 49
-0.5
  0
LTYPE
  2
HIDDEN
 70
    64
  3
HIDDEN
 72
    65
 73
     2
 40
0.375
 49
0.25
 49
-0.125
  0
LTYPE
  2
HIDDEN2
 70
    64
  3
HIDDEN2
 72
    65
 73
     2
 40
0.1875
 49
0.125
 49
-0.0625
  0
LTYPE
  2
HIDDENX2
 70
    64
  3
HIDDENX2
 72
    65
 73
     2
 40
0.75
 49
0.5
 49
-0.25
  0
LTYPE
  2
PHANTOM
 70
    64
  3
PHANTOM
 72
    65
 73
     6
 40
2.5
 49
1.25
 49
-0.25
 49
0.25
 49
-0.25
 49
0.25
 49
-0.25
  0
LTYPE
  2
PHANTOM2
 70
    64
  3
PHANTOM2
 72
    65
 73
     6
 40
1.25
 49
0.625
 49
-0.125
 49
0.125
 49
-0.125
 49
0.125
 49
-0.125
  0
LTYPE
  2
PHANTOMX2
 70
    64
  3
PHANTOMX2
 72
    65
 73
     6
 40
5.0
 49
2.5
 49
-0.5
 49
0.5
 49
-0.5
 49
0.5
 49
-0.5
 0
ENDTAB
 0
TABLE
 2
LAYER
 70
1
 0
LAYER
 2
001
 70
0
 62
7
 6
CONTINUOUS
 0
ENDTAB
 0
TABLE
 2
STYLE
 70
2
 0
STYLE
 2
STANDARD
 70
0
 40
0
 41
1
 50
0
 71
0
 42
.2
 3
TXT
 4
BIGFONT
 0
STYLE
 2
TATEGAKI
 70
4
 40
1
 41
1
 50
0
 71
0
 42
.2
 3
TXT
 4
BIGFONT
 0
ENDTAB
 0
ENDSEC
 0
SECTION
 2
BLOCKS
 0
BLOCK
 8
0
 2
ARROW
 70
0
 10
0
 20
0
 0
POLYLINE
 8
0
 6
CONTINUOUS
 62
0
 66
1
 0
VERTEX
 8
0
 6
CONTINUOUS
 62
0
 10
2.000000
 20
0.535898
 0
VERTEX
 8
0
 6
CONTINUOUS
 62
0
 10
0.0
 20
0.0
 0
VERTEX
 8
0
 6
CONTINUOUS
 62
0
 10
2.000000
 20
-0.535898
 0
SEQEND
 8
0
 0
ENDBLK
 8
0
 0
BLOCK
 8
001
 2
*D0
 70
1
 10
0.0
 20
0.0
 0
LINE
 8
001
 10
-232.329799
 20
-620.679854
 11
-224.239250
 21
-620.679854
 0
LINE
 8
001
 10
-231.829799
 20
-624.679854
 11
-224.239250
 21
-624.679854
 0
LINE
 8
001
 10
-225.239250
 20
-620.679854
 11
-225.239250
 21
-624.679854
 0
INSERT
 8
001
 62
7
 2
ARROW
 6
BYBLOCK
 10
-225.239250
 20
-620.679854
 41
1.000000
 42
1.000000
 50
90.000000
 0
INSERT
 8
001
 62
7
 2
ARROW
 6
BYBLOCK
 10
-225.239250
 20
-624.679854
 41
1.000000
 42
1.000000
 50
270.000000
 0
TEXT
 8
001
 10
-226.239250
 20
-618.288518
 40
3.200000
 1
4
 50
90.000003
 41
0.859375
 7
STANDARD
 0
POINT
 8
001
 10
-233.329799
 20
-620.679854
 0
POINT
 8
001
 10
-232.829799
 20
-624.679854
 0
POINT
 8
001
 10
-225.239250
 20
-624.679854
 0
LINE
 8
001
 10
-225.239250
 20
-620.679854
 11
-225.239250
 21
-615.538518
 0
LINE
 8
001
 10
-225.239250
 20
-624.679854
 11
-225.239250
 21
-627.679854
 0
ENDBLK
 8
001
 0
BLOCK
 8
001
 2
*D1
 70
1
 10
0.0
 20
0.0
 0
LINE
 8
001
 10
-242.829799
 20
-620.179854
 11
-242.829799
 21
-612.800417
 0
LINE
 8
001
 10
-232.829799
 20
-620.179854
 11
-232.829799
 21
-612.800417
 0
LINE
 8
001
 10
-242.829799
 20
-613.800417
 11
-232.829799
 21
-613.800417
 0
INSERT
 8
001
 62
7
 2
ARROW
 6
BYBLOCK
 10
-242.829799
 20
-613.800417
 41
1.000000
 42
1.000000
 0
INSERT
 8
001
 62
7
 2
ARROW
 6
BYBLOCK
 10
-232.829799
 20
-613.800417
 41
1.000000
 42
1.000000
 50
180.000000
 0
TEXT
 8
001
 10
-241.999947
 20
-612.800417
 40
3.200000
 1
%%c10
 41
1.031250
 7
STANDARD
 0
POINT
 8
001
 10
-242.829799
 20
-621.179854
 0
POINT
 8
001
 10
-232.829799
 20
-621.179854
 0
POINT
 8
001
 10
-232.829799
 20
-613.800417
 0
ENDBLK
 8
001
 0
BLOCK
 8
001
 2
*D2
 70
1
 10
0.0
 20
0.0
 0
LINE
 8
001
 10
-233.225170
 20
-667.937370
 11
-219.733276
 21
-667.937370
 0
LINE
 8
001
 10
-231.325735
 20
-680.937370
 11
-219.733276
 21
-680.937370
 0
LINE
 8
001
 10
-220.733276
 20
-667.937370
 11
-220.733276
 21
-680.937370
 0
INSERT
 8
001
 62
7
 2
ARROW
 6
BYBLOCK
 10
-220.733276
 20
-667.937370
 41
1.000000
 42
1.000000
 50
270.000000
 0
INSERT
 8
001
 62
7
 2
ARROW
 6
BYBLOCK
 10
-220.733276
 20
-680.937370
 41
1.000000
 42
1.000000
 50
90.000000
 0
TEXT
 8
001
 10
-221.733275
 20
-677.203443
 40
3.200000
 1
13
 50
90.000003
 41
1.031250
 7
STANDARD
 0
POINT
 8
001
 10
-234.225170
 20
-667.937370
 0
POINT
 8
001
 10
-232.325735
 20
-680.937370
 0
POINT
 8
001
 10
-220.733276
 20
-680.937370
 0
ENDBLK
 8
001
 0
BLOCK
 8
001
 2
*D3
 70
1
 10
0.0
 20
0.0
 0
LINE
 8
001
 10
-153.890412
 20
-680.936637
 11
-137.505168
 21
-680.936637
 0
LINE
 8
001
 10
-154.574718
 20
-620.675466
 11
-137.505168
 21
-620.675466
 0
LINE
 8
001
 10
-138.505168
 20
-680.936637
 11
-138.505168
 21
-620.675466
 0
INSERT
 8
001
 62
7
 2
ARROW
 6
BYBLOCK
 10
-138.505168
 20
-680.936637
 41
1.000000
 42
1.000000
 50
90.000000
 0
INSERT
 8
001
 62
7
 2
ARROW
 6
BYBLOCK
 10
-138.505168
 20
-620.675466
 41
1.000000
 42
1.000000
 50
270.000000
 0
TEXT
 8
001
 10
-139.505168
 20
-653.089051
 40
3.200000
 1
60
 50
90.000003
 41
0.937500
 7
STANDARD
 0
POINT
 8
001
 10
-154.890412
 20
-680.936637
 0
POINT
 8
001
 10
-155.574718
 20
-620.675466
 0
POINT
 8
001
 10
-138.505168
 20
-620.675466
 0
ENDBLK
 8
001
 0
BLOCK
 8
001
 2
*D4
 70
1
 10
0.0
 20
0.0
 0
LINE
 8
001
 10
-167.634401
 20
-648.768288
 11
-167.634401
 21
-612.800417
 0
LINE
 8
001
 10
-152.544868
 20
-648.768288
 11
-152.544868
 21
-612.800417
 0
LINE
 8
001
 10
-167.634401
 20
-613.800417
 11
-152.544868
 21
-613.800417
 0
INSERT
 8
001
 62
7
 2
ARROW
 6
BYBLOCK
 10
-167.634401
 20
-613.800417
 41
1.000000
 42
1.000000
 0
INSERT
 8
001
 62
7
 2
ARROW
 6
BYBLOCK
 10
-152.544868
 20
-613.800417
 41
1.000000
 42
1.000000
 50
180.000000
 0
TEXT
 8
001
 10
-163.154543
 20
-612.800417
 40
3.200000
 1
15
 41
1.031250
 7
STANDARD
 0
POINT
 8
001
 10
-167.634401
 20
-649.768288
 0
POINT
 8
001
 10
-152.544868
 20
-649.768288
 0
POINT
 8
001
 10
-152.544868
 20
-613.800417
 0
ENDBLK
 8
001
 0
BLOCK
 8
001
 2
*D5
 70
1
 10
0.0
 20
0.0
 0
LINE
 8
001
 10
-245.325735
 20
-679.937370
 11
-245.325735
 21
-693.065195
 0
LINE
 8
001
 10
-230.325735
 20
-679.937370
 11
-230.325735
 21
-693.065195
 0
LINE
 8
001
 10
-245.325735
 20
-692.065195
 11
-230.325735
 21
-692.065195
 0
INSERT
 8
001
 62
7
 2
ARROW
 6
BYBLOCK
 10
-245.325735
 20
-692.065195
 41
1.000000
 42
1.000000
 0
INSERT
 8
001
 62
7
 2
ARROW
 6
BYBLOCK
 10
-230.325735
 20
-692.065195
 41
1.000000
 42
1.000000
 50
180.000000
 0
TEXT
 8
001
 10
-241.564018
 20
-691.065195
 40
3.200000
 1
%%c15
 41
0.966797
 7
STANDARD
 0
POINT
 8
001
 10
-245.325735
 20
-678.937370
 0
POINT
 8
001
 10
-230.325735
 20
-678.937370
 0
POINT
 8
001
 10
-230.325735
 20
-692.065195
 0
ENDBLK
 8
001
 0
BLOCK
 8
001
 2
*D6
 70
1
 10
0.0
 20
0.0
 0
LINE
 8
001
 10
-169.134401
 20
-665.992963
 11
-169.134401
 21
-693.065195
 0
LINE
 8
001
 10
-151.044868
 20
-665.992963
 11
-151.044868
 21
-693.065195
 0
LINE
 8
001
 10
-169.134401
 20
-692.065195
 11
-151.044868
 21
-692.065195
 0
INSERT
 8
001
 62
7
 2
ARROW
 6
BYBLOCK
 10
-169.134401
 20
-692.065195
 41
1.000000
 42
1.000000
 0
INSERT
 8
001
 62
7
 2
ARROW
 6
BYBLOCK
 10
-151.044868
 20
-692.065195
 41
1.000000
 42
1.000000
 50
180.000000
 0
TEXT
 8
001
 10
-162.839635
 20
-691.065195
 40
3.200000
 1
18
 41
1.031250
 7
STANDARD
 0
POINT
 8
001
 10
-169.134401
 20
-664.992963
 0
POINT
 8
001
 10
-151.044868
 20
-664.992963
 0
POINT
 8
001
 10
-151.044868
 20
-692.065195
 0
ENDBLK
 8
001
 0
BLOCK
 8
001
 2
*D7
 70
1
 10
0.0
 20
0.0
 0
LINE
 8
001
 10
-232.737654
 20
-712.705664
 11
-217.466005
 21
-712.705664
 0
LINE
 8
001
 10
-232.737654
 20
-707.505664
 11
-217.466005
 21
-707.505664
 0
LINE
 8
001
 10
-218.466005
 20
-712.705664
 11
-218.466005
 21
-707.505664
 0
INSERT
 8
001
 62
7
 2
ARROW
 6
BYBLOCK
 10
-218.466005
 20
-712.705664
 41
1.000000
 42
1.000000
 50
270.000000
 0
INSERT
 8
001
 62
7
 2
ARROW
 6
BYBLOCK
 10
-218.466005
 20
-707.505664
 41
1.000000
 42
1.000000
 50
90.000000
 0
TEXT
 8
001
 10
-219.466005
 20
-705.347156
 40
3.200000
 1
5.2
 50
90.000003
 41
1.104911
 7
STANDARD
 0
POINT
 8
001
 10
-233.737654
 20
-712.705664
 0
POINT
 8
001
 10
-233.737654
 20
-707.505664
 0
POINT
 8
001
 10
-218.466005
 20
-707.505664
 0
LINE
 8
001
 10
-218.466005
 20
-712.705664
 11
-218.466005
 21
-715.705664
 0
LINE
 8
001
 10
-218.466005
 20
-707.505664
 11
-218.466005
 21
-697.097156
 0
ENDBLK
 8
001
 0
ENDSEC
 0
SECTION
 2
ENTITIES
 0
DIMENSION
 8
001
 2
*D0
 10
-225.239250
 20
-624.679854
 11
-226.239250
 21
-618.288518
 13
-233.329799
 23
-620.679854
 14
-232.829799
 24
-624.679854
 50
270.000000
 0
DIMENSION
 8
001
 2
*D1
 10
-232.829799
 20
-613.800417
 11
-241.999947
 21
-612.800417
 13
-242.829799
 23
-621.179854
 14
-232.829799
 24
-621.179854
 0
DIMENSION
 8
001
 2
*D2
 10
-220.733276
 20
-680.937370
 11
-221.733275
 21
-677.203443
 13
-234.225170
 23
-667.937370
 14
-232.325735
 24
-680.937370
 50
270.000000
 0
DIMENSION
 8
001
 2
*D3
 10
-138.505168
 20
-620.675466
 11
-139.505168
 21
-653.089051
 13
-154.890412
 23
-680.936637
 14
-155.574718
 24
-620.675466
 50
90.000000
 0
DIMENSION
 8
001
 2
*D4
 10
-152.544868
 20
-613.800417
 11
-163.154543
 21
-612.800417
 13
-167.634401
 23
-649.768288
 14
-152.544868
 24
-649.768288
 0
DIMENSION
 8
001
 2
*D5
 10
-230.325735
 20
-692.065195
 11
-241.564018
 21
-691.065195
 13
-245.325735
 23
-678.937370
 14
-230.325735
 24
-678.937370
 0
DIMENSION
 8
001
 2
*D6
 10
-151.044868
 20
-692.065195
 11
-162.839635
 21
-691.065195
 13
-169.134401
 23
-664.992963
 14
-151.044868
 24
-664.992963
 0
DIMENSION
 8
001
 2
*D7
 10
-218.466005
 20
-707.505664
 11
-219.466005
 21
-705.347156
 13
-233.737654
 23
-712.705664
 14
-233.737654
 24
-707.505664
 50
90.000000
 0
TEXT
 8
001
 62
3
 10
-81.528005
 20
-731.191927
 40
1.993800
 1
A
 41
0.700000
 7
STANDARD
 0
TEXT
 8
001
 62
3
 10
-79.000578
 20
-731.191927
 40
1.993800
 1
P
 41
0.700000
 7
STANDARD
 0
TEXT
 8
001
 62
3
 10
-76.473151
 20
-731.191927
 40
1.993800
 1
P
 41
0.700000
 7
STANDARD
 0
TEXT
 8
001
 62
3
 10
-73.945724
 20
-731.191927
 40
1.993800
 1
D
 41
0.700000
 7
STANDARD
 0
TEXT
 8
001
 62
3
 10
-69.475806
 20
-730.981154
 40
1.993800
 1
C
 41
0.700000
 7
STANDARD
 0
TEXT
 8
001
 62
3
 10
-66.948379
 20
-730.981154
 40
1.993800
 1
H
 41
0.700000
 7
STANDARD
 0
TEXT
 8
001
 62
3
 10
-64.420952
 20
-730.981154
 40
1.993800
 1
C
 41
0.700000
 7
STANDARD
 0
TEXT
 8
001
 62
3
 10
-61.893525
 20
-730.981154
 40
1.993800
 1
K
 41
0.700000
 7
STANDARD
 0
TEXT
 8
001
 62
3
 10
-57.197334
 20
-730.899187
 40
1.993800
 1
DESN
 41
1.216762
 7
STANDARD
 0
TEXT
 8
001
 62
3
 10
-82.378570
 20
-754.651748
 40
3.190080
 1
作成日
 41
1.017226
 7
STANDARD
 0
LINE
 8
001
 62
3
 10
-47.013094
 20
-749.162646
 11
-47.013094
 21
-728.227746
 0
TEXT
 8
001
 62
3
 10
-44.653302
 20
-730.813635
 40
1.794420
 1
D
 41
0.666667
 7
STANDARD
 0
TEXT
 8
001
 62
3
 10
-41.845406
 20
-730.813635
 40
1.794420
 1
E
 41
0.666667
 7
STANDARD
 0
TEXT
 8
001
 62
3
 10
-39.037509
 20
-730.813635
 40
1.794420
 1
F
 41
0.666667
 7
STANDARD
 0
TEXT
 8
001
 62
3
 10
-44.653302
 20
-734.793811
 40
3.190080
 1
製図
 41
1.076369
 7
STANDARD
 0
TEXT
 8
001
 62
3
 10
-136.949318
 20
-735.211108
 40
3.190080
 1
部品名
 41
0.959524
 7
STANDARD
 0
TEXT
 8
001
 62
3
 10
-137.491675
 20
-752.191219
 40
2.591940
 1
１
 41
0.884615
 7
STANDARD
 0
TEXT
 8
001
 62
3
 10
-133.132458
 20
-752.191219
 40
2.591940
 1
台
 41
0.884615
 7
STANDARD
 0
TEXT
 8
001
 62
3
 10
-128.773241
 20
-752.191219
 40
2.591940
 1
分
 41
0.884615
 7
STANDARD
 0
TEXT
 8
001
 62
3
 10
-137.491675
 20
-755.680369
 40
2.591940
 1
個
 41
0.884615
 7
STANDARD
 0
TEXT
 8
001
 62
3
 10
-128.773241
 20
-755.680369
 40
2.591940
 1
数
 41
0.884615
 7
STANDARD
 0
TEXT
 8
001
 62
3
 10
-134.632844
 20
-764.908947
 40
4.386360
 1
日動工業株式会社
 41
0.833333
 7
STANDARD
 0
TEXT
 8
001
 62
3
 10
-136.145498
 20
-759.733166
 40
2.591940
 1
NICHIDO IND.CO.,LTD
 41
0.949051
 7
STANDARD
 0
TEXT
 8
001
 62
3
 10
-114.230096
 20
-752.943805
 40
2.591940
 1
3AD
 41
1.013213
 7
STANDARD
 0
TEXT
 8
001
 62
3
 10
-114.230096
 20
-755.764784
 40
2.591940
 1
三角法
 41
0.844344
 7
STANDARD
 0
TEXT
 8
001
 62
3
 10
-95.362616
 20
-760.114430
 40
2.880000
 1
出図コード
 41
0.699326
 7
STANDARD
 0
TEXT
 8
001
 62
3
 10
-95.362616
 20
-764.182550
 40
2.880000
 1
HM-A4
 41
0.839192
 7
STANDARD
 0
LINE
 8
001
 62
3
 10
-173.524826
 20
-575.129754
 11
-173.524826
 21
-574.129754
 0
LINE
 8
001
 62
3
 10
-118.691140
 20
-589.577833
 11
-35.091140
 21
-589.577833
 0
TEXT
 8
001
 62
3
 10
-45.816140
 20
-593.722833
 40
3.040000
 1
担
 41
0.859375
 7
STANDARD
 0
TEXT
 8
001
 62
3
 10
-38.928640
 20
-593.722833
 40
3.040000
 1
当
 41
0.859375
 7
STANDARD
 0
TEXT
 8
001
 62
3
 10
-86.011917
 20
-593.739995
 40
3.040000
 1
変更・追記内容
 41
1.182726
 7
STANDARD
 0
LINE
 8
001
 62
3
 10
-118.691140
 20
-585.072444
 11
-118.691140
 21
-604.427833
 0
TEXT
 8
001
 62
3
 10
-114.918436
 20
-598.677009
 40
2.432000
 1
1
 41
1.499999
 7
STANDARD
 0
TEXT
 8
001
 62
3
 10
-114.918436
 20
-603.833220
 40
2.432000
 1
2
 41
1.000000
 7
STANDARD
 0
TEXT
 8
001
 62
3
 10
-105.732191
 20
-593.163468
 40
3.200000
 1
日
 41
0.859375
 7
STANDARD
 0
TEXT
 8
001
 62
3
 10
-96.855317
 20
-593.163468
 40
3.200000
 1
付
 41
0.859375
 7
STANDARD
 0
TEXT
 8
001
 62
3
 10
-105.906350
 20
-588.927833
 40
3.200000
 1
図
 41
0.859375
 7
STANDARD
 0
TEXT
 8
001
 62
3
 10
-87.250454
 20
-588.927833
 40
3.200000
 1
面
 41
0.859375
 7
STANDARD
 0
TEXT
 8
001
 62
3
 10
-68.594559
 20
-588.927833
 40
3.200000
 1
略
 41
0.859375
 7
STANDARD
 0
TEXT
 8
001
 62
3
 10
-49.938664
 20
-588.927833
 40
3.200000
 1
歴
 41
0.859375
 7
STANDARD
 0
TEXT
 8
001
 62
3
 10
-118.088776
 20
-593.802833
 40
3.200000
 1
記
 41
0.859375
 7
STANDARD
 0
TEXT
 8
001
 62
3
 10
-111.835868
 20
-593.802833
 40
3.200000
 1
号
 41
0.859375
 7
STANDARD
 0
LINE
 8
001
 62
3
 10
-44.689784
 20
-604.427833
 11
-118.691140
 21
-604.427833
 0
LINE
 8
001
 62
3
 10
-36.539449
 20
-604.427833
 11
-44.689784
 21
-604.427833
 0
LINE
 8
001
 62
3
 10
-36.539449
 20
-604.427833
 11
-35.091140
 21
-604.427833
 0
LINE
 8
001
 62
3
 10
-59.013094
 20
-749.162646
 11
-59.013094
 21
-728.227746
 0
LINE
 8
001
 62
3
 10
-71.013094
 20
-749.162646
 11
-71.013094
 21
-728.227746
 0
LINE
 8
001
 62
3
 10
-83.013094
 20
-749.162646
 11
-83.013094
 21
-728.227746
 0
LINE
 8
001
 62
3
 10
-71.013094
 20
-749.162646
 11
-71.013094
 21
-756.140946
 0
LINE
 8
001
 62
3
 10
-83.013094
 20
-749.162646
 11
-83.013094
 21
-756.140946
 0
LINE
 8
001
 62
3
 10
-83.013094
 20
-756.140946
 11
-83.013094
 21
-765.129754
 0
LINE
 8
001
 62
3
 10
-95.828114
 20
-760.661079
 11
-83.013094
 21
-760.661079
 0
LINE
 8
001
 62
3
 10
-95.828114
 20
-742.184346
 11
-95.828114
 21
-765.129754
 0
LINE
 8
001
 62
3
 10
-106.538474
 20
-742.184346
 11
-106.538474
 21
-756.140946
 0
LINE
 8
001
 62
3
 10
-114.516599
 20
-749.162646
 11
-114.516599
 21
-756.140946
 0
LINE
 8
001
 62
3
 10
-138.109251
 20
-728.227746
 11
-138.109251
 21
-765.129754
 0
LINE
 8
001
 62
3
 10
-125.908561
 20
-728.227746
 11
-125.908561
 21
-756.140946
 0
LINE
 8
001
 62
3
 10
-138.109251
 20
-728.227746
 11
-35.024826
 21
-728.227746
 0
LINE
 8
001
 62
3
 10
-38.005308
 20
-756.140946
 11
-67.794004
 21
-756.140946
 0
LINE
 8
001
 62
3
 10
-38.005308
 20
-756.140946
 11
-35.024826
 21
-756.140946
 0
LINE
 8
001
 62
3
 10
-85.183948
 20
-756.140946
 11
-93.270583
 21
-756.140946
 0
LINE
 8
001
 62
3
 10
-85.183948
 20
-756.140946
 11
-67.794004
 21
-756.140946
 0
LINE
 8
001
 62
3
 10
-123.540290
 20
-756.140946
 11
-138.109251
 21
-756.140946
 0
LINE
 8
001
 62
3
 10
-115.334817
 20
-756.140946
 11
-123.540290
 21
-756.140946
 0
LINE
 8
001
 62
3
 10
-115.334817
 20
-756.140946
 11
-93.270583
 21
-756.140946
 0
LINE
 8
001
 62
3
 10
-123.240365
 20
-749.162646
 11
-138.109251
 21
-749.162646
 0
LINE
 8
001
 62
3
 10
-108.464855
 20
-749.162646
 11
-123.240365
 21
-749.162646
 0
LINE
 8
001
 62
3
 10
-108.464855
 20
-749.162646
 11
-35.024826
 21
-749.162646
 0
LINE
 8
001
 62
3
 10
-120.077014
 20
-742.184346
 11
-138.109251
 21
-742.184346
 0
LINE
 8
001
 62
3
 10
-88.828310
 20
-742.184346
 11
-83.013094
 21
-742.184346
 0
LINE
 8
001
 62
3
 10
-93.938339
 20
-742.184346
 11
-88.828310
 21
-742.184346
 0
LINE
 8
001
 62
3
 10
-115.945983
 20
-742.184346
 11
-93.938339
 21
-742.184346
 0
LINE
 8
001
 62
3
 10
-115.945983
 20
-742.184346
 11
-120.077014
 21
-742.184346
 0
LINE
 8
001
 62
3
 10
-124.513629
 20
-735.206046
 11
-138.109251
 21
-735.206046
 0
LINE
 8
001
 62
3
 10
-84.272857
 20
-735.206046
 11
-35.024826
 21
-735.206046
 0
LINE
 8
001
 62
3
 10
-88.222802
 20
-735.206046
 11
-84.272857
 21
-735.206046
 0
LINE
 8
001
 62
3
 10
-121.169191
 20
-735.206046
 11
-124.513629
 21
-735.206046
 0
LINE
 8
001
 62
3
 10
-117.705915
 20
-735.206046
 11
-121.169191
 21
-735.206046
 0
LINE
 8
001
 62
3
 10
-90.774987
 20
-735.206046
 11
-117.705915
 21
-735.206046
 0
LINE
 8
001
 62
3
 10
-90.774987
 20
-735.206046
 11
-88.222802
 21
-735.206046
 0
LINE
 8
001
 10
-113.873436
 20
-595.267078
 11
-115.773436
 21
-598.557975
 0
LINE
 8
001
 10
-113.873436
 20
-595.267078
 11
-111.973436
 21
-598.557975
 0
LINE
 8
001
 10
-115.773436
 20
-598.557975
 11
-111.973436
 21
-598.557975
 0
LINE
 8
001
 10
-113.873436
 20
-600.423289
 11
-115.773436
 21
-603.714185
 0
LINE
 8
001
 10
-113.873436
 20
-600.423289
 11
-111.973436
 21
-603.714185
 0
LINE
 8
001
 10
-115.773436
 20
-603.714185
 11
-111.973436
 21
-603.714185
 0
TEXT
 8
001
 62
3
 10
-93.270583
 20
-756.140946
 40
3.200000
 1
1/1
 41
1.072092
 7
STANDARD
 0
ARC
 8
001
 62
3
 10
-154.588857
 20
-669.936637
 40
2.000000
 50
0.000000
 51
90.000000
 0
ARC
 8
001
 62
3
 10
-165.588857
 20
-669.936637
 40
2.000000
 50
90.000000
 51
180.000000
 0
LINE
 8
001
 62
3
 10
-152.588857
 20
-678.936637
 11
-152.588857
 21
-669.936637
 0
LINE
 8
001
 62
3
 10
-167.588857
 20
-678.936637
 11
-167.588857
 21
-669.936637
 0
ARC
 8
001
 62
3
 10
-154.588857
 20
-678.936637
 40
2.000000
 50
270.000000
 51
0.000000
 0
ARC
 8
001
 62
3
 10
-165.588857
 20
-678.936637
 40
2.000000
 50
180.000000
 51
270.000000
 0
LINE
 8
001
 62
3
 10
-165.588857
 20
-680.936637
 11
-154.588857
 21
-680.936637
 0
LINE
 8
001
 62
3
 10
-165.588857
 20
-667.936637
 11
-154.588857
 21
-667.936637
 0
ARC
 8
001
 62
3
 10
-243.325735
 20
-669.937370
 40
2.000000
 50
90.000000
 51
180.000000
 0
ARC
 8
001
 62
3
 10
-232.325735
 20
-669.937370
 40
2.000000
 50
0.000000
 51
90.000000
 0
LINE
 8
001
 62
3
 10
-245.325735
 20
-678.937370
 11
-245.325735
 21
-669.937370
 0
LINE
 8
001
 62
3
 10
-230.325735
 20
-678.937370
 11
-230.325735
 21
-669.937370
 0
ARC
 8
001
 62
3
 10
-243.325735
 20
-678.937370
 40
2.000000
 50
180.000000
 51
270.000000
 0
ARC
 8
001
 62
3
 10
-232.325735
 20
-678.937370
 40
2.000000
 50
270.000000
 51
0.000000
 0
LINE
 8
001
 62
3
 10
-232.325735
 20
-680.937370
 11
-243.325735
 21
-680.937370
 0
LINE
 8
001
 62
3
 10
-236.337144
 20
-667.937370
 11
-233.333863
 21
-667.937370
 0
TEXT
 8
001
 62
3
 10
-70.177570
 20
-756.041442
 40
3.200000
 1
2005.5.20
 41
1.515874
 7
STANDARD
 0
LINE
 8
001
 62
3
 10
-235.378621
 20
-644.187736
 11
-235.378621
 21
-630.184059
 0
ARC
 8
001
 62
3
 10
-237.878621
 20
-644.187736
 40
2.500000
 50
302.451873
 51
0.000000
 0
LINE
 8
001
 62
3
 10
-242.829799
 20
-621.179854
 11
-242.829799
 21
-624.679854
 0
LINE
 8
001
 62
3
 10
-232.829799
 20
-621.179854
 11
-232.829799
 21
-624.679854
 0
LINE
 8
001
 62
3
 10
-242.329799
 20
-620.679854
 11
-233.329799
 21
-620.679854
 0
LINE
 8
001
 62
3
 10
-232.829799
 20
-624.679854
 11
-242.829799
 21
-624.679854
 0
ARC
 8
001
 62
3
 10
-233.329799
 20
-621.179854
 40
0.500000
 50
0.000000
 51
90.000000
 0
ARC
 8
001
 62
3
 10
-242.329799
 20
-621.179854
 40
0.500000
 50
90.000000
 51
180.000000
 0
LINE
 8
001
 62
3
 10
-234.829799
 20
-629.679854
 11
-240.829799
 21
-629.679854
 0
LINE
 8
001
 62
3
 10
-234.829799
 20
-629.679854
 11
-235.395442
 21
-630.199512
 0
LINE
 8
001
 62
3
 10
-240.829799
 20
-629.679854
 11
-240.322756
 21
-630.199512
 0
LINE
 8
001
 62
3
 10
-234.829799
 20
-629.679854
 11
-234.829799
 21
-624.679854
 0
LINE
 8
001
 62
3
 10
-240.829799
 20
-629.679854
 11
-240.829799
 21
-624.679854
 0
LINE
 8
001
 62
3
 10
-167.022686
 20
-647.715567
 11
-162.589635
 21
-640.938133
 0
LINE
 8
001
 62
3
 10
-153.156583
 20
-647.715567
 11
-157.589635
 21
-640.938133
 0
ARC
 8
001
 62
3
 10
-163.884401
 20
-649.768288
 40
3.750000
 50
146.811702
 51
180.000000
 0
ARC
 8
001
 62
3
 10
-156.294868
 20
-649.768288
 40
3.750000
 50
0.000000
 51
33.188298
 0
LINE
 8
001
 62
3
 10
-162.589635
 20
-646.183348
 11
-162.589635
 21
-630.195308
 0
LINE
 8
001
 62
3
 10
-157.589635
 20
-646.183348
 11
-157.589635
 21
-630.195308
 0
ARC
 8
001
 62
3
 10
-160.089635
 20
-646.483348
 40
2.500000
 50
180.000000
 51
0.000000
 0
LINE
 8
001
 62
3
 10
-155.104551
 20
-621.175466
 11
-155.104551
 21
-624.675466
 0
LINE
 8
001
 62
3
 10
-165.104551
 20
-621.175466
 11
-165.104551
 21
-624.675466
 0
LINE
 8
001
 62
3
 10
-164.604551
 20
-620.675466
 11
-155.604551
 21
-620.675466
 0
LINE
 8
001
 62
3
 10
-155.104551
 20
-624.675466
 11
-165.104551
 21
-624.675466
 0
ARC
 8
001
 62
3
 10
-155.604551
 20
-621.175466
 40
0.500000
 50
0.000000
 51
90.000000
 0
ARC
 8
001
 62
3
 10
-164.604551
 20
-621.175466
 40
0.500000
 50
90.000000
 51
180.000000
 0
LINE
 8
001
 62
3
 10
-163.104551
 20
-629.675466
 11
-157.104551
 21
-629.675466
 0
LINE
 8
001
 62
3
 10
-163.104551
 20
-629.675466
 11
-162.664950
 21
-630.119273
 0
LINE
 8
001
 62
3
 10
-157.104551
 20
-629.675466
 11
-157.632050
 21
-630.154468
 0
LINE
 8
001
 62
3
 10
-163.104551
 20
-629.675466
 11
-163.104551
 21
-624.675466
 0
LINE
 8
001
 62
3
 10
-157.104551
 20
-629.675466
 11
-157.104551
 21
-624.675466
 0
LINE
 8
001
 62
3
 10
-167.634401
 20
-650.068288
 11
-167.634401
 21
-661.968288
 0
LINE
 8
001
 62
3
 10
-152.544868
 20
-650.068288
 11
-152.544868
 21
-661.968288
 0
LINE
 8
001
 62
3
 10
-169.134401
 20
-664.992963
 11
-169.134401
 21
-661.968288
 0
LINE
 8
001
 62
3
 10
-151.044868
 20
-664.992963
 11
-151.044868
 21
-661.968288
 0
LINE
 8
001
 62
3
 10
-169.134401
 20
-661.968288
 11
-167.634401
 21
-661.968288
 0
LINE
 8
001
 62
3
 10
-152.544868
 20
-661.968288
 11
-151.044868
 21
-661.968288
 0
LINE
 8
001
 62
3
 10
-238.837144
 20
-667.437370
 11
-238.837144
 21
-640.702536
 0
LINE
 8
001
 62
3
 10
-236.837144
 20
-667.437370
 11
-236.837144
 21
-640.702536
 0
LINE
 8
001
 62
3
 10
-236.837144
 20
-640.702536
 11
-238.837144
 21
-640.702536
 0
LINE
 8
001
 62
3
 10
-240.337834
 20
-630.184059
 11
-238.837144
 21
-646.572584
 0
LINE
 8
001
 62
3
 10
-236.537144
 20
-646.297342
 11
-236.837144
 21
-646.460471
 0
LINE
 8
001
 62
3
 10
-236.330149
 20
-707.005664
 11
-237.954957
 21
-707.005664
 0
LINE
 8
001
 62
3
 10
-236.330149
 20
-713.205664
 11
-237.954957
 21
-713.205664
 0
LINE
 8
001
 62
3
 10
-233.737654
 20
-707.505664
 11
-235.611882
 21
-707.505664
 0
LINE
 8
001
 62
3
 10
-233.737654
 20
-712.705664
 11
-235.611882
 21
-712.705664
 0
ARC
 8
001
 62
3
 10
-237.954957
 20
-710.105664
 40
3.500000
 50
47.975372
 51
62.339550
 0
ARC
 8
001
 62
3
 10
-237.954957
 20
-710.105664
 40
3.500000
 50
297.660450
 51
312.024628
 0
LINE
 8
001
 62
3
 10
-230.351092
 20
-707.080053
 11
-233.737654
 21
-707.505664
 0
ARC
 8
001
 62
3
 10
-230.382266
 20
-706.832004
 40
0.250000
 50
277.163178
 51
23.378738
 0
CIRCLE
 8
001
 62
3
 10
-237.954957
 20
-710.105664
 40
8.500000
 0
LINE
 8
001
 62
3
 10
-230.351092
 20
-713.131275
 11
-233.737654
 21
-712.705664
 0
ARC
 8
001
 62
3
 10
-230.382266
 20
-713.379324
 40
0.250000
 50
336.621262
 51
82.836822
 0
LINE
 8
001
 62
3
 10
-236.837144
 20
-661.968288
 11
-238.837144
 21
-661.968288
 0
LINE
 8
001
 62
3
 10
-169.134401
 20
-664.992963
 11
-167.588857
 21
-669.936637
 0
LINE
 8
001
 62
3
 10
-151.044868
 20
-664.992963
 11
-152.588857
 21
-669.936637
 0
ARC
 8
001
 62
3
 10
-236.337144
 20
-667.437370
 40
0.500000
 50
180.000000
 51
270.000000
 0
LINE
 8
001
 62
3
 10
-239.337144
 20
-667.937370
 11
-243.333863
 21
-667.937370
 0
ARC
 8
001
 62
3
 10
-239.337144
 20
-667.437370
 40
0.500000
 50
270.000000
 51
0.000000
 0
LINE
 8
001
 62
3
 10
-236.907264
 20
-669.936637
 11
-238.837144
 21
-669.936637
 0
LINE
 8
001
 62
3
 10
-236.907264
 20
-666.870192
 11
-236.907264
 21
-669.936637
 0
LINE
 8
001
 62
3
 10
-238.837144
 20
-667.437370
 11
-238.837144
 21
-669.936637
 0
LINE
 8
001
 62
3
 10
-162.089635
 20
-667.936637
 11
-162.089635
 21
-661.968288
 0
LINE
 8
001
 62
3
 10
-158.089635
 20
-667.936637
 11
-158.089635
 21
-661.968288
 0
LINE
 8
001
 62
3
 10
-236.837144
 20
-661.968288
 11
-235.469914
 21
-667.937370
 0
LINE
 8
001
 62
3
 10
-238.818144
 20
-661.968288
 11
-240.185374
 21
-667.937370
 0
TEXT
 8
001
 62
3
 10
-122.841410
 20
-735.206046
 40
4.500000
 1
ワンタッチストッパ－
 41
0.670650
 7
STANDARD
 0
TEXT
 8
001
 62
3
 10
-118.011499
 20
-742.184346
 40
4.500000
 1
BH-S
 41
1.115176
 7
STANDARD
 0
ARC
 8
001
 62
3
 10
-237.954957
 20
-710.105664
 40
3.100000
 50
90.000000
 51
161.180937
 0
ARC
 8
001
 62
3
 10
-237.954957
 20
-710.105664
 40
3.100000
 50
198.819063
 51
270.000000
 0
LINE
 8
001
 62
3
 10
-243.159762
 20
-709.105664
 11
-243.302861
 21
-710.166839
 0
LINE
 8
001
 62
3
 10
-243.294612
 20
-710.105664
 11
-243.159762
 21
-711.105664
 0
LINE
 8
001
 62
3
 10
-243.159762
 20
-709.105664
 11
-240.889237
 21
-709.105664
 0
LINE
 8
001
 62
3
 10
-243.159762
 20
-711.105664
 11
-240.889237
 21
-711.105664
 0
TEXT
 8
001
 62
3
 10
-78.549021
 20
-765.129754
 40
6.300000
 1
K-BH-S
 41
0.814934
 7
STANDARD
 0
TEXT
 8
001
 62
3
 10
-94.179308
 20
-745.909783
 40
3.200000
 1
耐候性
 41
0.833333
 7
STANDARD
 0
TEXT
 8
001
 62
3
 10
-95.539795
 20
-749.353939
 40
3.200000
 1
グレード
 41
0.833333
 7
STANDARD
 0
LINE
 8
001
 62
3
 10
-162.089635
 20
-661.968288
 11
-158.089635
 21
-661.968288
 0
LINE
 8
001
 62
3
 10
-163.188857
 20
-680.936637
 11
-163.188857
 21
-675.936637
 0
LINE
 8
001
 62
3
 10
-162.588857
 20
-675.936637
 11
-165.288857
 21
-675.936637
 0
LINE
 8
001
 62
3
 10
-165.288857
 20
-675.936637
 11
-165.288857
 21
-671.736637
 0
LINE
 8
001
 62
3
 10
-154.888857
 20
-671.736637
 11
-165.288857
 21
-671.736637
 0
LINE
 8
001
 62
3
 10
-157.588857
 20
-675.936637
 11
-162.588857
 21
-675.936637
 0
LINE
 8
001
 62
3
 10
-156.988857
 20
-680.936637
 11
-156.988857
 21
-675.936637
 0
LINE
 8
001
 62
3
 10
-154.888857
 20
-675.936637
 11
-157.588857
 21
-675.936637
 0
LINE
 8
001
 62
3
 10
-154.888857
 20
-675.936637
 11
-154.888857
 21
-671.736637
 0
LINE
 8
001
 62
3
 10
-312.024826
 20
-585.129754
 11
-35.024826
 21
-585.129754
 0
TEXT
 8
001
 62
3
 10
-137.312169
 20
-731.313277
 40
1.993800
 1
CONPONENTS
 41
0.533160
 7
STANDARD
 0
TEXT
 8
001
 62
3
 10
-137.114364
 20
-749.011903
 40
2.990700
 1
材
 41
0.833333
 7
STANDARD
 0
TEXT
 8
001
 62
3
 10
-129.602082
 20
-749.011903
 40
2.990700
 1
質
 41
0.833333
 7
STANDARD
 0
TEXT
 8
001
 62
3
 10
-136.901664
 20
-738.334444
 40
1.993800
 1
MODEL
 41
1.031073
 7
STANDARD
 0
TEXT
 8
001
 62
3
 10
-137.114364
 20
-745.341010
 40
1.993800
 1
MATERIAL
 41
0.659278
 7
STANDARD
 0
TEXT
 8
001
 62
3
 10
-105.836702
 20
-749.248516
 40
2.990700
 1
備
 41
0.833333
 7
STANDARD
 0
TEXT
 8
001
 62
3
 10
-99.124572
 20
-749.248516
 40
2.990700
 1
考
 41
0.833333
 7
STANDARD
 0
TEXT
 8
001
 62
3
 10
-106.082946
 20
-745.577623
 40
1.993800
 1
REMARKS
 41
0.675794
 7
STANDARD
 0
TEXT
 8
001
 62
3
 10
-105.570484
 20
-752.450131
 40
1.993800
 1
SCALE
 41
0.771963
 7
STANDARD
 0
TEXT
 8
001
 62
3
 10
-105.706855
 20
-755.939281
 40
2.990700
 1
尺
 41
0.833333
 7
STANDARD
 0
TEXT
 8
001
 62
3
 10
-98.994726
 20
-755.939281
 40
2.990700
 1
度
 41
0.833333
 7
STANDARD
 0
TEXT
 8
001
 62
3
 10
-80.663348
 20
-734.927697
 40
2.990700
 1
承認
 41
1.089473
 7
STANDARD
 0
TEXT
 8
001
 62
3
 10
-68.343642
 20
-734.774474
 40
2.990700
 1
検図
 41
0.931761
 7
STANDARD
 0
TEXT
 8
001
 62
3
 10
-56.343732
 20
-734.692507
 40
2.990700
 1
設
 41
0.833333
 7
STANDARD
 0
TEXT
 8
001
 62
3
 10
-51.867782
 20
-734.692507
 40
2.990700
 1
計
 41
0.833333
 7
STANDARD
 0
TEXT
 8
001
 62
3
 10
-136.901664
 20
-742.184346
 40
2.990700
 1
品
 41
0.833333
 7
STANDARD
 0
TEXT
 8
001
 62
3
 10
-129.376973
 20
-742.184346
 40
2.990700
 1
番
 41
0.833333
 7
STANDARD
 0
LINE
 8
001
 62
3
 10
-81.901759
 20
-765.129754
 11
-312.024826
 21
-765.129754
 0
LINE
 8
001
 62
3
 10
-36.426461
 20
-765.129754
 11
-35.024826
 21
-765.129754
 0
LINE
 8
001
 62
3
 10
-38.616474
 20
-765.129754
 11
-36.426461
 21
-765.129754
 0
LINE
 8
001
 62
3
 10
-79.955081
 20
-765.129754
 11
-38.616474
 21
-765.129754
 0
LINE
 8
001
 62
3
 10
-79.955081
 20
-765.129754
 11
-81.901759
 21
-765.129754
 0
LINE
 8
001
 62
3
 10
-312.024826
 20
-585.129754
 11
-312.024826
 21
-765.129754
 0
LINE
 8
001
 62
3
 10
-35.024826
 20
-765.129754
 11
-35.024826
 21
-585.129754
 0
LINE
 8
001
 10
-108.585707
 20
-589.577833
 11
-108.585707
 21
-604.427833
 0
LINE
 8
001
 10
-45.024546
 20
-599.477833
 11
-118.691140
 21
-599.477833
 0
LINE
 8
001
 10
-36.776014
 20
-599.477833
 11
-45.024546
 21
-599.477833
 0
LINE
 8
001
 10
-36.776014
 20
-599.477833
 11
-35.091140
 21
-599.477833
 0
LINE
 8
001
 10
-46.688665
 20
-589.577833
 11
-46.688665
 21
-604.427833
 0
LINE
 8
001
 10
-90.980381
 20
-589.577833
 11
-90.980381
 21
-604.427833
 0
LINE
 8
001
 10
-118.691140
 20
-594.527833
 11
-35.091140
 21
-594.527833
 0
LINE
 8
001
 62
3
 10
-35.124863
 20
-722.227746
 11
-86.824226
 21
-722.227746
 0
LINE
 8
001
 62
3
 10
-60.824226
 20
-728.227746
 11
-60.824226
 21
-722.227746
 0
LINE
 8
001
 62
3
 10
-86.824226
 20
-728.227746
 11
-86.824226
 21
-722.227746
 0
TEXT
 8
001
 62
3
 10
-85.674712
 20
-727.671661
 40
4.500000
 1
コード
 41
0.833333
 7
STANDARD
 0
TEXT
 8
001
 10
-59.431435
 20
-727.729390
 40
4.500000
 1
29623
 41
1.000000
 7
STANDARD
 0
TEXT
 8
001
 62
3
 10
-123.240365
 20
-749.162646
 40
3.200000
 1
PA6
 41
1.252657
 7
STANDARD
 0
ENDSEC
 0
EOF
