 0
SECTION
 2
HEADER
 9
$ACADVER
 1
AC1003
 9
$EXTMIN
 10
-138.500000
 20
-90.000000
 9
$EXTMAX
 10
138.500000
 20
97.000000
 9
$LIMMIN
 10
-138.501000
 20
-90.001000
 9
$LIMMAX
 10
138.501000
 20
97.001000
 9
$SNAPUNIT
 10
1
 20
1
 9
$SNAPBASE
 10
0
 20
0
 9
$GRIDMODE
 70
0
 9
$GRIDUNIT
 10
0
 20
0
 9
$LTSCALE
 40
4.616667
 9
$TEXTSIZE
 40
3.2
 9
$DIMTAD
 70
0
 9
$LUNITS
 70
2
 9
$LUPREC
 70
4
 9
$FILLETRAD
 40
0
 9
$AUNITS
 70
0
 9
$AUPREC
 70
0
 0
ENDSEC
 0
SECTION
 2
TABLES
 0
TABLE
 2
LTYPE
 70
25
  0
LTYPE
  2
CONTINUOUS
 70
    64
  3
Solid-line
 72
    65
 73
     0
 40
0.0
  0
LTYPE
  2
BORDER
 70
    64
  3
BORDER
 72
    65
 73
     6
 40
1.75
 49
0.5
 49
-0.25
 49
0.5
 49
-0.25
 49
0.0
 49
-0.25
  0
LTYPE
  2
BORDER2
 70
    64
  3
BORDER2
 72
    65
 73
     6
 40
0.875
 49
0.25
 49
-0.125
 49
0.25
 49
-0.125
 49
0.0
 49
-0.125
  0
LTYPE
  2
BORDERX2
 70
    64
  3
BORDERX2
 72
    65
 73
     6
 40
3.5
 49
1.0
 49
-0.5
 49
1.0
 49
-0.5
 49
0.0
 49
-0.5
  0
LTYPE
  2
CENTER
 70
    64
  3
CENTER
 72
    65
 73
     4
 40
2.0
 49
1.25
 49
-0.25
 49
0.25
 49
-0.25
  0
LTYPE
  2
CENTER2
 70
    64
  3
CENTER2
 72
    65
 73
     4
 40
1.125
 49
0.75
 49
-0.125
 49
0.125
 49
-0.125
  0
LTYPE
  2
CENTERX2
 70
    64
  3
CENTERX2
 72
    65
 73
     4
 40
4.0
 49
2.5
 49
-0.5
 49
0.5
 49
-0.5
  0
LTYPE
  2
DASHDOT
 70
    64
  3
DASHDOT
 72
    65
 73
     4
 40
1.0
 49
0.5
 49
-0.25
 49
0.0
 49
-0.25
  0
LTYPE
  2
DASHDOT2
 70
    64
  3
DASHDOT2
 72
    65
 73
     4
 40
0.5
 49
0.25
 49
-0.125
 49
0.0
 49
-0.125
  0
LTYPE
  2
DASHDOTX2
 70
    64
  3
DASHDOTX2
 72
    65
 73
     4
 40
2.0
 49
1.0
 49
-0.5
 49
0.0
 49
-0.5
  0
LTYPE
  2
DASHED
 70
    64
  3
DASHED
 72
    65
 73
     2
 40
0.75
 49
0.5
 49
-0.25
  0
LTYPE
  2
DASHED2
 70
    64
  3
DASHED2
 72
    65
 73
     2
 40
0.375
 49
0.25
 49
-0.125
  0
LTYPE
  2
DASHEDX2
 70
    64
  3
DASHEDX2
 72
    65
 73
     2
 40
1.5
 49
1.0
 49
-0.5
  0
LTYPE
  2
DIVIDE
 70
    64
  3
DIVIDE
 72
    65
 73
     6
 40
1.25
 49
0.5
 49
-0.25
 49
0.0
 49
-0.25
 49
0.0
 49
-0.25
  0
LTYPE
  2
DIVIDE2
 70
    64
  3
DIVIDE2
 72
    65
 73
     6
 40
0.625
 49
0.25
 49
-0.125
 49
0.0
 49
-0.125
 49
0.0
 49
-0.125
  0
LTYPE
  2
DIVIDEX2
 70
    64
  3
DIVIDEX2
 72
    65
 73
     6
 40
2.5
 49
1.0
 49
-0.5
 49
0.0
 49
-0.5
 49
0.0
 49
-0.5
  0
LTYPE
  2
DOT
 70
    64
  3
DOT
 72
    65
 73
     2
 40
0.25
 49
0.0
 49
-0.25
  0
LTYPE
  2
DOT2
 70
    64
  3
DOT2
 72
    65
 73
     2
 40
0.125
 49
0.0
 49
-0.125
  0
LTYPE
  2
DOTX2
 70
    64
  3
DOTX2
 72
    65
 73
     2
 40
0.5
 49
0.0
 49
-0.5
  0
LTYPE
  2
HIDDEN
 70
    64
  3
HIDDEN
 72
    65
 73
     2
 40
0.375
 49
0.25
 49
-0.125
  0
LTYPE
  2
HIDDEN2
 70
    64
  3
HIDDEN2
 72
    65
 73
     2
 40
0.1875
 49
0.125
 49
-0.0625
  0
LTYPE
  2
HIDDENX2
 70
    64
  3
HIDDENX2
 72
    65
 73
     2
 40
0.75
 49
0.5
 49
-0.25
  0
LTYPE
  2
PHANTOM
 70
    64
  3
PHANTOM
 72
    65
 73
     6
 40
2.5
 49
1.25
 49
-0.25
 49
0.25
 49
-0.25
 49
0.25
 49
-0.25
  0
LTYPE
  2
PHANTOM2
 70
    64
  3
PHANTOM2
 72
    65
 73
     6
 40
1.25
 49
0.625
 49
-0.125
 49
0.125
 49
-0.125
 49
0.125
 49
-0.125
  0
LTYPE
  2
PHANTOMX2
 70
    64
  3
PHANTOMX2
 72
    65
 73
     6
 40
5.0
 49
2.5
 49
-0.5
 49
0.5
 49
-0.5
 49
0.5
 49
-0.5
 0
ENDTAB
 0
TABLE
 2
LAYER
 70
1
 0
LAYER
 2
001
 70
0
 62
7
 6
CONTINUOUS
 0
ENDTAB
 0
TABLE
 2
STYLE
 70
2
 0
STYLE
 2
STANDARD
 70
0
 40
0
 41
1
 50
0
 71
0
 42
.2
 3
TXT
 4
BIGFONT
 0
STYLE
 2
TATEGAKI
 70
4
 40
1
 41
1
 50
0
 71
0
 42
.2
 3
TXT
 4
BIGFONT
 0
ENDTAB
 0
ENDSEC
 0
SECTION
 2
BLOCKS
 0
BLOCK
 8
0
 2
ARROW
 70
0
 10
0
 20
0
 0
POLYLINE
 8
0
 6
CONTINUOUS
 62
0
 66
1
 0
VERTEX
 8
0
 6
CONTINUOUS
 62
0
 10
2.000000
 20
0.535898
 0
VERTEX
 8
0
 6
CONTINUOUS
 62
0
 10
0.0
 20
0.0
 0
VERTEX
 8
0
 6
CONTINUOUS
 62
0
 10
2.000000
 20
-0.535898
 0
SEQEND
 8
0
 0
ENDBLK
 8
0
 0
BLOCK
 8
001
 2
*D0
 70
1
 10
0.0
 20
0.0
 0
LINE
 8
001
 10
-75.820088
 20
-15.251423
 11
-89.856436
 21
-15.251423
 0
LINE
 8
001
 10
-70.320865
 20
48.934300
 11
-89.856436
 21
48.934300
 0
LINE
 8
001
 10
-88.856436
 20
-15.251423
 11
-88.856436
 21
48.934300
 0
INSERT
 8
001
 62
7
 2
ARROW
 6
BYBLOCK
 10
-88.856436
 20
-15.251423
 41
1.000000
 42
1.000000
 50
90.000000
 0
INSERT
 8
001
 62
7
 2
ARROW
 6
BYBLOCK
 10
-88.856436
 20
48.934300
 41
1.000000
 42
1.000000
 50
270.000000
 0
TEXT
 8
001
 10
-89.856436
 20
14.091439
 40
3.200000
 1
64
 50
90.000003
 41
0.859375
 7
STANDARD
 0
POINT
 8
001
 10
-74.820088
 20
-15.251423
 0
POINT
 8
001
 10
-69.320865
 20
48.934300
 0
POINT
 8
001
 10
-88.856436
 20
48.934300
 0
ENDBLK
 8
001
 0
BLOCK
 8
001
 2
*D1
 70
1
 10
0.0
 20
0.0
 0
LINE
 8
001
 10
26.989262
 20
-15.251423
 11
39.929102
 21
-15.251423
 0
LINE
 8
001
 10
27.107656
 20
7.083943
 11
39.929102
 21
7.083943
 0
LINE
 8
001
 10
38.929102
 20
-15.251423
 11
38.929102
 21
7.083943
 0
INSERT
 8
001
 62
7
 2
ARROW
 6
BYBLOCK
 10
38.929102
 20
-15.251423
 41
1.000000
 42
1.000000
 50
90.000000
 0
INSERT
 8
001
 62
7
 2
ARROW
 6
BYBLOCK
 10
38.929102
 20
7.083943
 41
1.000000
 42
1.000000
 50
270.000000
 0
TEXT
 8
001
 10
37.929102
 20
-6.833740
 40
3.200000
 1
22
 50
90.000003
 41
0.859375
 7
STANDARD
 0
POINT
 8
001
 10
25.989262
 20
-15.251423
 0
POINT
 8
001
 10
26.107656
 20
7.083943
 0
POINT
 8
001
 10
38.929102
 20
7.083943
 0
ENDBLK
 8
001
 0
BLOCK
 8
001
 2
*D2
 70
1
 10
0.0
 20
0.0
 0
LINE
 8
001
 10
-24.009961
 20
34.934300
 11
-24.009961
 21
59.294144
 0
LINE
 8
001
 10
27.990039
 20
34.934300
 11
27.990039
 21
59.294144
 0
LINE
 8
001
 10
-24.009961
 20
58.294144
 11
27.990039
 21
58.294144
 0
INSERT
 8
001
 62
7
 2
ARROW
 6
BYBLOCK
 10
-24.009961
 20
58.294144
 41
1.000000
 42
1.000000
 0
INSERT
 8
001
 62
7
 2
ARROW
 6
BYBLOCK
 10
27.990039
 20
58.294144
 41
1.000000
 42
1.000000
 50
180.000000
 0
TEXT
 8
001
 10
-0.759961
 20
59.294144
 40
3.200000
 1
52
 41
0.859375
 7
STANDARD
 0
POINT
 8
001
 10
-24.009961
 20
33.934300
 0
POINT
 8
001
 10
27.990039
 20
33.934300
 0
POINT
 8
001
 10
27.990039
 20
58.294144
 0
ENDBLK
 8
001
 0
BLOCK
 8
001
 2
*D3
 70
1
 10
0.0
 20
0.0
 0
LINE
 8
001
 10
-78.320865
 20
40.434300
 11
-78.320865
 21
59.294144
 0
LINE
 8
001
 10
-58.320865
 20
39.184300
 11
-58.320865
 21
59.294144
 0
LINE
 8
001
 10
-78.320865
 20
58.294144
 11
-58.320865
 21
58.294144
 0
INSERT
 8
001
 62
7
 2
ARROW
 6
BYBLOCK
 10
-78.320865
 20
58.294144
 41
1.000000
 42
1.000000
 0
INSERT
 8
001
 62
7
 2
ARROW
 6
BYBLOCK
 10
-58.320865
 20
58.294144
 41
1.000000
 42
1.000000
 50
180.000000
 0
TEXT
 8
001
 10
-71.070865
 20
59.294144
 40
3.200000
 1
20
 41
0.937500
 7
STANDARD
 0
POINT
 8
001
 10
-78.320865
 20
39.434300
 0
POINT
 8
001
 10
-58.320865
 20
38.184300
 0
POINT
 8
001
 10
-58.320865
 20
58.294144
 0
ENDBLK
 8
001
 0
BLOCK
 8
001
 2
*D4
 70
1
 10
0.0
 20
0.0
 0
LINE
 8
001
 10
-75.820088
 20
-15.251423
 11
-75.820088
 21
-28.375684
 0
LINE
 8
001
 10
-60.820088
 20
-15.251423
 11
-60.820088
 21
-28.375684
 0
LINE
 8
001
 10
-75.820088
 20
-27.375684
 11
-60.820088
 21
-27.375684
 0
INSERT
 8
001
 62
7
 2
ARROW
 6
BYBLOCK
 10
-75.820088
 20
-27.375684
 41
1.000000
 42
1.000000
 0
INSERT
 8
001
 62
7
 2
ARROW
 6
BYBLOCK
 10
-60.820088
 20
-27.375684
 41
1.000000
 42
1.000000
 50
180.000000
 0
TEXT
 8
001
 10
-72.445088
 20
-26.375684
 40
3.200000
 1
%%c15
 41
0.966797
 7
STANDARD
 0
POINT
 8
001
 10
-75.820088
 20
-14.251423
 0
POINT
 8
001
 10
-60.820088
 20
-14.251423
 0
POINT
 8
001
 10
-60.820088
 20
-27.375684
 0
ENDBLK
 8
001
 0
BLOCK
 8
001
 2
*D5
 70
1
 10
0.0
 20
0.0
 0
LINE
 8
001
 10
14.289262
 20
-11.251423
 11
14.289262
 21
-27.614175
 0
LINE
 8
001
 10
24.689262
 20
-11.251423
 11
24.689262
 21
-27.614175
 0
LINE
 8
001
 10
14.289262
 20
-26.614175
 11
24.689262
 21
-26.614175
 0
INSERT
 8
001
 62
7
 2
ARROW
 6
BYBLOCK
 10
14.289262
 20
-26.614175
 41
1.000000
 42
1.000000
 50
180.000000
 0
INSERT
 8
001
 62
7
 2
ARROW
 6
BYBLOCK
 10
24.689262
 20
-26.614175
 41
1.000000
 42
1.000000
 0
TEXT
 8
001
 10
3.039262
 20
-25.614175
 40
3.200000
 1
%%c10
 41
1.031250
 7
STANDARD
 0
POINT
 8
001
 10
14.289262
 20
-10.251423
 0
POINT
 8
001
 10
24.689262
 20
-10.251423
 0
POINT
 8
001
 10
24.689262
 20
-26.614175
 0
LINE
 8
001
 10
14.289262
 20
-26.614175
 11
3.039262
 21
-26.614175
 0
LINE
 8
001
 10
24.689262
 20
-26.614175
 11
27.689262
 21
-26.614175
 0
ENDBLK
 8
001
 0
BLOCK
 8
001
 2
*D6
 70
1
 10
0.0
 20
0.0
 0
LINE
 8
001
 10
-15.009961
 20
19.934300
 11
-15.009961
 21
8.966489
 0
LINE
 8
001
 10
14.990039
 20
12.006881
 11
14.990039
 21
8.966489
 0
LINE
 8
001
 10
-15.009961
 20
9.966489
 11
14.990039
 21
9.966489
 0
INSERT
 8
001
 62
7
 2
ARROW
 6
BYBLOCK
 10
-15.009961
 20
9.966489
 41
1.000000
 42
1.000000
 0
INSERT
 8
001
 62
7
 2
ARROW
 6
BYBLOCK
 10
14.990039
 20
9.966489
 41
1.000000
 42
1.000000
 50
180.000000
 0
TEXT
 8
001
 10
-2.759961
 20
10.966489
 40
3.200000
 1
30
 41
0.937500
 7
STANDARD
 0
POINT
 8
001
 10
-15.009961
 20
20.934300
 0
POINT
 8
001
 10
14.990039
 20
13.006881
 0
POINT
 8
001
 10
14.990039
 20
9.966489
 0
ENDBLK
 8
001
 0
BLOCK
 8
001
 2
*D7
 70
1
 10
0.0
 20
0.0
 0
LINE
 8
001
 10
-25.464746
 20
20.720491
 11
-25.464746
 21
8.966489
 0
LINE
 8
001
 10
-15.009961
 20
19.934300
 11
-15.009961
 21
8.966489
 0
LINE
 8
001
 10
-25.464746
 20
9.966489
 11
-15.009961
 21
9.966489
 0
INSERT
 8
001
 62
7
 2
ARROW
 6
BYBLOCK
 10
-25.464746
 20
9.966489
 41
1.000000
 42
1.000000
 0
INSERT
 8
001
 62
7
 2
ARROW
 6
BYBLOCK
 10
-15.009961
 20
9.966489
 41
1.000000
 42
1.000000
 50
180.000000
 0
TEXT
 8
001
 10
-22.788700
 20
10.966489
 40
3.200000
 1
10
 41
1.145833
 7
STANDARD
 0
POINT
 8
001
 10
-25.464746
 20
21.720491
 0
POINT
 8
001
 10
-15.009961
 20
20.934300
 0
POINT
 8
001
 10
-15.009961
 20
9.966489
 0
ENDBLK
 8
001
 0
BLOCK
 8
001
 2
*D8
 70
1
 10
0.0
 20
0.0
 0
LINE
 8
001
 10
-19.009961
 20
19.934300
 11
-34.181625
 21
19.934300
 0
LINE
 8
001
 10
-21.061145
 20
26.465802
 11
-34.181625
 21
26.465802
 0
LINE
 8
001
 10
-33.181625
 20
19.934300
 11
-33.181625
 21
26.465802
 0
INSERT
 8
001
 62
7
 2
ARROW
 6
BYBLOCK
 10
-33.181625
 20
19.934300
 41
1.000000
 42
1.000000
 50
270.000000
 0
INSERT
 8
001
 62
7
 2
ARROW
 6
BYBLOCK
 10
-33.181625
 20
26.465802
 41
1.000000
 42
1.000000
 50
90.000000
 0
TEXT
 8
001
 10
-34.181625
 20
29.465802
 40
3.200000
 1
7
 50
90.000003
 41
0.859375
 7
STANDARD
 0
POINT
 8
001
 10
-18.009961
 20
19.934300
 0
POINT
 8
001
 10
-20.061145
 20
26.465802
 0
POINT
 8
001
 10
-33.181625
 20
26.465802
 0
LINE
 8
001
 10
-33.181625
 20
19.934300
 11
-33.181625
 21
16.934300
 0
LINE
 8
001
 10
-33.181625
 20
26.465802
 11
-33.181625
 21
32.215802
 0
ENDBLK
 8
001
 0
BLOCK
 8
001
 2
*D9
 70
1
 10
0.0
 20
0.0
 0
LINE
 8
001
 10
-69.320088
 20
-49.728993
 11
-85.852385
 21
-49.728993
 0
LINE
 8
001
 10
-69.320088
 20
-43.528993
 11
-85.852385
 21
-43.528993
 0
LINE
 8
001
 10
-84.852385
 20
-49.728993
 11
-84.852385
 21
-43.528993
 0
INSERT
 8
001
 62
7
 2
ARROW
 6
BYBLOCK
 10
-84.852385
 20
-49.728993
 41
1.000000
 42
1.000000
 50
270.000000
 0
INSERT
 8
001
 62
7
 2
ARROW
 6
BYBLOCK
 10
-84.852385
 20
-43.528993
 41
1.000000
 42
1.000000
 50
90.000000
 0
TEXT
 8
001
 10
-85.852385
 20
-40.528993
 40
3.200000
 1
6.2
 50
90.000003
 41
1.104911
 7
STANDARD
 0
POINT
 8
001
 10
-68.320088
 20
-49.728993
 0
POINT
 8
001
 10
-68.320088
 20
-43.528993
 0
POINT
 8
001
 10
-84.852385
 20
-43.528993
 0
LINE
 8
001
 10
-84.852385
 20
-49.728993
 11
-84.852385
 21
-52.728993
 0
LINE
 8
001
 10
-84.852385
 20
-43.528993
 11
-84.852385
 21
-32.278993
 0
ENDBLK
 8
001
 0
BLOCK
 8
001
 2
*D10
 70
1
 10
0.0
 20
0.0
 0
LINE
 8
001
 10
-63.102786
 20
-49.228993
 11
-51.241754
 21
-49.228993
 0
LINE
 8
001
 10
-63.102786
 20
-44.028993
 11
-51.241754
 21
-44.028993
 0
LINE
 8
001
 10
-52.241754
 20
-49.228993
 11
-52.241754
 21
-44.028993
 0
INSERT
 8
001
 62
7
 2
ARROW
 6
BYBLOCK
 10
-52.241754
 20
-49.228993
 41
1.000000
 42
1.000000
 50
90.000000
 0
INSERT
 8
001
 62
7
 2
ARROW
 6
BYBLOCK
 10
-52.241754
 20
-44.028993
 41
1.000000
 42
1.000000
 50
270.000000
 0
TEXT
 8
001
 10
-53.241754
 20
-48.147482
 40
3.200000
 1
5
 50
90.000003
 41
0.859375
 7
STANDARD
 0
POINT
 8
001
 10
-64.102786
 20
-49.228993
 0
POINT
 8
001
 10
-64.102786
 20
-44.028993
 0
POINT
 8
001
 10
-52.241754
 20
-44.028993
 0
ENDBLK
 8
001
 0
BLOCK
 8
001
 2
*D11
 70
1
 10
0.0
 20
0.0
 0
LINE
 8
001
 10
-60.674789
 20
-41.328993
 11
-45.093061
 21
-41.328993
 0
LINE
 8
001
 10
-60.674789
 20
-51.928993
 11
-45.093061
 21
-51.928993
 0
LINE
 8
001
 10
-46.093061
 20
-41.328993
 11
-46.093061
 21
-51.928993
 0
INSERT
 8
001
 62
7
 2
ARROW
 6
BYBLOCK
 10
-46.093061
 20
-41.328993
 41
1.000000
 42
1.000000
 50
270.000000
 0
INSERT
 8
001
 62
7
 2
ARROW
 6
BYBLOCK
 10
-46.093061
 20
-51.928993
 41
1.000000
 42
1.000000
 50
90.000000
 0
TEXT
 8
001
 10
-47.093061
 20
-51.813104
 40
3.200000
 1
10.2
 50
90.000003
 41
1.213235
 7
STANDARD
 0
POINT
 8
001
 10
-61.674789
 20
-41.328993
 0
POINT
 8
001
 10
-61.674789
 20
-51.928993
 0
POINT
 8
001
 10
-46.093061
 20
-51.928993
 0
ENDBLK
 8
001
 0
ENDSEC
 0
SECTION
 2
ENTITIES
 0
DIMENSION
 8
001
 2
*D0
 10
-88.856436
 20
48.934300
 11
-89.856436
 21
14.091439
 13
-74.820088
 23
-15.251423
 14
-69.320865
 24
48.934300
 50
90.000000
 0
DIMENSION
 8
001
 2
*D1
 10
38.929102
 20
7.083943
 11
37.929102
 21
-6.833740
 13
25.989262
 23
-15.251423
 14
26.107656
 24
7.083943
 50
90.000000
 0
DIMENSION
 8
001
 2
*D2
 10
27.990039
 20
58.294144
 11
-0.759961
 21
59.294144
 13
-24.009961
 23
33.934300
 14
27.990039
 24
33.934300
 0
DIMENSION
 8
001
 2
*D3
 10
-58.320865
 20
58.294144
 11
-71.070865
 21
59.294144
 13
-78.320865
 23
39.434300
 14
-58.320865
 24
38.184300
 0
DIMENSION
 8
001
 2
*D4
 10
-60.820088
 20
-27.375684
 11
-72.445088
 21
-26.375684
 13
-75.820088
 23
-14.251423
 14
-60.820088
 24
-14.251423
 0
DIMENSION
 8
001
 2
*D5
 10
24.689262
 20
-26.614175
 11
3.039262
 21
-25.614175
 13
14.289262
 23
-10.251423
 14
24.689262
 24
-10.251423
 0
DIMENSION
 8
001
 2
*D6
 10
14.990039
 20
9.966489
 11
-2.759961
 21
10.966489
 13
-15.009961
 23
20.934300
 14
14.990039
 24
13.006881
 0
DIMENSION
 8
001
 2
*D7
 10
-15.009961
 20
9.966489
 11
-22.788700
 21
10.966489
 13
-25.464746
 23
21.720491
 14
-15.009961
 24
20.934300
 0
DIMENSION
 8
001
 2
*D8
 10
-33.181625
 20
26.465802
 11
-34.181625
 21
29.465802
 13
-18.009961
 23
19.934300
 14
-20.061145
 24
26.465802
 50
90.000000
 0
DIMENSION
 8
001
 2
*D9
 10
-84.852385
 20
-43.528993
 11
-85.852385
 21
-40.528993
 13
-68.320088
 23
-49.728993
 14
-68.320088
 24
-43.528993
 50
90.000000
 0
DIMENSION
 8
001
 2
*D10
 10
-52.241754
 20
-44.028993
 11
-53.241754
 21
-48.147482
 13
-64.102786
 23
-49.228993
 14
-64.102786
 24
-44.028993
 50
90.000000
 0
DIMENSION
 8
001
 2
*D11
 10
-46.093061
 20
-51.928993
 11
-47.093061
 21
-51.813104
 13
-61.674789
 23
-41.328993
 14
-61.674789
 24
-51.928993
 50
270.000000
 0
TEXT
 8
001
 62
3
 10
91.996821
 20
-56.062172
 40
1.993800
 1
A
 41
0.700000
 7
STANDARD
 0
TEXT
 8
001
 62
3
 10
94.524248
 20
-56.062172
 40
1.993800
 1
P
 41
0.700000
 7
STANDARD
 0
TEXT
 8
001
 62
3
 10
97.051675
 20
-56.062172
 40
1.993800
 1
P
 41
0.700000
 7
STANDARD
 0
TEXT
 8
001
 62
3
 10
99.579102
 20
-56.062172
 40
1.993800
 1
D
 41
0.700000
 7
STANDARD
 0
TEXT
 8
001
 62
3
 10
104.049020
 20
-55.851400
 40
1.993800
 1
C
 41
0.700000
 7
STANDARD
 0
TEXT
 8
001
 62
3
 10
106.576447
 20
-55.851400
 40
1.993800
 1
H
 41
0.700000
 7
STANDARD
 0
TEXT
 8
001
 62
3
 10
109.103874
 20
-55.851400
 40
1.993800
 1
C
 41
0.700000
 7
STANDARD
 0
TEXT
 8
001
 62
3
 10
111.631301
 20
-55.851400
 40
1.993800
 1
K
 41
0.700000
 7
STANDARD
 0
TEXT
 8
001
 62
3
 10
116.327493
 20
-55.769433
 40
1.993800
 1
DESN
 41
1.216762
 7
STANDARD
 0
TEXT
 8
001
 62
3
 10
91.146256
 20
-79.521994
 40
3.190080
 1
作成日
 41
1.017226
 7
STANDARD
 0
LINE
 8
001
 62
3
 10
126.511732
 20
-74.032892
 11
126.511732
 21
-53.097992
 0
TEXT
 8
001
 62
3
 10
128.871524
 20
-55.683880
 40
1.794420
 1
D
 41
0.666667
 7
STANDARD
 0
TEXT
 8
001
 62
3
 10
131.679421
 20
-55.683880
 40
1.794420
 1
E
 41
0.666667
 7
STANDARD
 0
TEXT
 8
001
 62
3
 10
134.487317
 20
-55.683880
 40
1.794420
 1
F
 41
0.666667
 7
STANDARD
 0
TEXT
 8
001
 62
3
 10
128.871524
 20
-59.664057
 40
3.190080
 1
製図
 41
1.076369
 7
STANDARD
 0
TEXT
 8
001
 62
3
 10
36.575508
 20
-60.081353
 40
3.190080
 1
部品名
 41
0.959524
 7
STANDARD
 0
TEXT
 8
001
 62
3
 10
36.033152
 20
-77.061465
 40
2.591940
 1
１
 41
0.884615
 7
STANDARD
 0
TEXT
 8
001
 62
3
 10
40.392368
 20
-77.061465
 40
2.591940
 1
台
 41
0.884615
 7
STANDARD
 0
TEXT
 8
001
 62
3
 10
44.751585
 20
-77.061465
 40
2.591940
 1
分
 41
0.884615
 7
STANDARD
 0
TEXT
 8
001
 62
3
 10
36.033152
 20
-80.550615
 40
2.591940
 1
個
 41
0.884615
 7
STANDARD
 0
TEXT
 8
001
 62
3
 10
44.751585
 20
-80.550615
 40
2.591940
 1
数
 41
0.884615
 7
STANDARD
 0
TEXT
 8
001
 62
3
 10
38.891982
 20
-89.779192
 40
4.386360
 1
日動工業株式会社
 41
0.833333
 7
STANDARD
 0
TEXT
 8
001
 62
3
 10
37.379329
 20
-84.603412
 40
2.591940
 1
NICHIDO IND.CO.,LTD
 41
0.949051
 7
STANDARD
 0
TEXT
 8
001
 62
3
 10
59.294730
 20
-77.814051
 40
2.591940
 1
3AD
 41
1.013213
 7
STANDARD
 0
TEXT
 8
001
 62
3
 10
59.294730
 20
-80.635030
 40
2.591940
 1
三角法
 41
0.844344
 7
STANDARD
 0
TEXT
 8
001
 62
3
 10
78.162211
 20
-84.984676
 40
2.880000
 1
出図コード
 41
0.699326
 7
STANDARD
 0
TEXT
 8
001
 62
3
 10
78.162211
 20
-89.052796
 40
2.880000
 1
HM-A4
 41
0.839192
 7
STANDARD
 0
LINE
 8
001
 62
3
 10
0.000000
 20
96.000000
 11
0.000000
 21
97.000000
 0
LINE
 8
001
 62
3
 10
54.833686
 20
85.551921
 11
138.433686
 21
85.551921
 0
TEXT
 8
001
 62
3
 10
127.708686
 20
81.406921
 40
3.040000
 1
担
 41
0.859375
 7
STANDARD
 0
TEXT
 8
001
 62
3
 10
134.596186
 20
81.406921
 40
3.040000
 1
当
 41
0.859375
 7
STANDARD
 0
TEXT
 8
001
 62
3
 10
87.512910
 20
81.389759
 40
3.040000
 1
変更・追記内容
 41
1.182726
 7
STANDARD
 0
LINE
 8
001
 62
3
 10
54.833686
 20
90.057310
 11
54.833686
 21
70.701921
 0
TEXT
 8
001
 62
3
 10
58.606391
 20
76.452745
 40
2.432000
 1
1
 41
1.499999
 7
STANDARD
 0
TEXT
 8
001
 62
3
 10
58.606391
 20
71.296534
 40
2.432000
 1
2
 41
1.000000
 7
STANDARD
 0
TEXT
 8
001
 62
3
 10
67.792635
 20
81.966286
 40
3.200000
 1
日
 41
0.859375
 7
STANDARD
 0
TEXT
 8
001
 62
3
 10
76.669509
 20
81.966286
 40
3.200000
 1
付
 41
0.859375
 7
STANDARD
 0
TEXT
 8
001
 62
3
 10
67.618477
 20
86.201921
 40
3.200000
 1
図
 41
0.859375
 7
STANDARD
 0
TEXT
 8
001
 62
3
 10
86.274372
 20
86.201921
 40
3.200000
 1
面
 41
0.859375
 7
STANDARD
 0
TEXT
 8
001
 62
3
 10
104.930267
 20
86.201921
 40
3.200000
 1
略
 41
0.859375
 7
STANDARD
 0
TEXT
 8
001
 62
3
 10
123.586162
 20
86.201921
 40
3.200000
 1
歴
 41
0.859375
 7
STANDARD
 0
TEXT
 8
001
 62
3
 10
55.436050
 20
81.326921
 40
3.200000
 1
記
 41
0.859375
 7
STANDARD
 0
TEXT
 8
001
 62
3
 10
61.688958
 20
81.326921
 40
3.200000
 1
号
 41
0.859375
 7
STANDARD
 0
LINE
 8
001
 62
3
 10
128.835042
 20
70.701921
 11
54.833686
 21
70.701921
 0
LINE
 8
001
 62
3
 10
136.985378
 20
70.701921
 11
128.835042
 21
70.701921
 0
LINE
 8
001
 62
3
 10
136.985378
 20
70.701921
 11
138.433686
 21
70.701921
 0
LINE
 8
001
 10
59.651391
 20
79.862676
 11
57.751391
 21
76.571779
 0
LINE
 8
001
 10
59.651391
 20
79.862676
 11
61.551391
 21
76.571779
 0
LINE
 8
001
 10
57.751391
 20
76.571779
 11
61.551391
 21
76.571779
 0
LINE
 8
001
 10
59.651391
 20
74.706466
 11
57.751391
 21
71.415569
 0
LINE
 8
001
 10
59.651391
 20
74.706466
 11
61.551391
 21
71.415569
 0
LINE
 8
001
 10
57.751391
 20
71.415569
 11
61.551391
 21
71.415569
 0
LINE
 8
001
 62
3
 10
114.511732
 20
-74.032892
 11
114.511732
 21
-53.097992
 0
LINE
 8
001
 62
3
 10
102.511732
 20
-74.032892
 11
102.511732
 21
-53.097992
 0
LINE
 8
001
 62
3
 10
90.511732
 20
-74.032892
 11
90.511732
 21
-53.097992
 0
LINE
 8
001
 62
3
 10
102.511732
 20
-74.032892
 11
102.511732
 21
-81.011192
 0
LINE
 8
001
 62
3
 10
90.511732
 20
-74.032892
 11
90.511732
 21
-81.011192
 0
LINE
 8
001
 62
3
 10
90.511732
 20
-81.011192
 11
90.511732
 21
-90.000000
 0
LINE
 8
001
 62
3
 10
77.696712
 20
-85.531325
 11
90.511732
 21
-85.531325
 0
LINE
 8
001
 62
3
 10
77.696712
 20
-67.054592
 11
77.696712
 21
-90.000000
 0
LINE
 8
001
 62
3
 10
66.986352
 20
-67.054592
 11
66.986352
 21
-81.011192
 0
LINE
 8
001
 62
3
 10
59.008227
 20
-74.032892
 11
59.008227
 21
-81.011192
 0
LINE
 8
001
 62
3
 10
35.415575
 20
-53.097992
 11
35.415575
 21
-90.000000
 0
LINE
 8
001
 62
3
 10
47.616265
 20
-53.097992
 11
47.616265
 21
-81.011192
 0
LINE
 8
001
 62
3
 10
35.415575
 20
-53.097992
 11
138.500000
 21
-53.097992
 0
LINE
 8
001
 62
3
 10
135.519519
 20
-81.011192
 11
105.730822
 21
-81.011192
 0
LINE
 8
001
 62
3
 10
135.519519
 20
-81.011192
 11
138.500000
 21
-81.011192
 0
LINE
 8
001
 62
3
 10
88.340879
 20
-81.011192
 11
80.254244
 21
-81.011192
 0
LINE
 8
001
 62
3
 10
88.340879
 20
-81.011192
 11
105.730822
 21
-81.011192
 0
LINE
 8
001
 62
3
 10
49.984537
 20
-81.011192
 11
35.415575
 21
-81.011192
 0
LINE
 8
001
 62
3
 10
58.190010
 20
-81.011192
 11
49.984537
 21
-81.011192
 0
LINE
 8
001
 62
3
 10
58.190010
 20
-81.011192
 11
80.254244
 21
-81.011192
 0
LINE
 8
001
 62
3
 10
50.284461
 20
-74.032892
 11
35.415575
 21
-74.032892
 0
LINE
 8
001
 62
3
 10
65.059971
 20
-74.032892
 11
50.284461
 21
-74.032892
 0
LINE
 8
001
 62
3
 10
65.059971
 20
-74.032892
 11
138.500000
 21
-74.032892
 0
LINE
 8
001
 62
3
 10
53.447812
 20
-67.054592
 11
35.415575
 21
-67.054592
 0
LINE
 8
001
 62
3
 10
84.696517
 20
-67.054592
 11
90.511732
 21
-67.054592
 0
LINE
 8
001
 62
3
 10
79.586488
 20
-67.054592
 11
84.696517
 21
-67.054592
 0
LINE
 8
001
 62
3
 10
57.578843
 20
-67.054592
 11
79.586488
 21
-67.054592
 0
LINE
 8
001
 62
3
 10
57.578843
 20
-67.054592
 11
53.447812
 21
-67.054592
 0
LINE
 8
001
 62
3
 10
49.011198
 20
-60.076292
 11
35.415575
 21
-60.076292
 0
LINE
 8
001
 62
3
 10
89.251969
 20
-60.076292
 11
138.500000
 21
-60.076292
 0
LINE
 8
001
 62
3
 10
85.302024
 20
-60.076292
 11
89.251969
 21
-60.076292
 0
LINE
 8
001
 62
3
 10
52.355635
 20
-60.076292
 11
49.011198
 21
-60.076292
 0
LINE
 8
001
 62
3
 10
55.818911
 20
-60.076292
 11
52.355635
 21
-60.076292
 0
LINE
 8
001
 62
3
 10
82.749839
 20
-60.076292
 11
55.818911
 21
-60.076292
 0
LINE
 8
001
 62
3
 10
82.749839
 20
-60.076292
 11
85.302024
 21
-60.076292
 0
TEXT
 8
001
 62
3
 10
104.191428
 20
-79.770903
 40
3.200000
 1
2005.6.3
 41
1.620088
 7
STANDARD
 0
LINE
 8
001
 62
3
 10
24.989262
 20
-3.243369
 11
13.989262
 21
-3.243369
 0
LINE
 8
001
 62
3
 10
13.747029
 20
-3.243369
 11
14.190666
 21
-1.993119
 0
LINE
 8
001
 62
3
 10
25.233049
 20
-3.243369
 11
24.789412
 21
-1.993119
 0
LINE
 8
001
 62
3
 10
14.190666
 20
-1.993119
 11
24.789412
 21
-1.993119
 0
LINE
 8
001
 62
3
 10
-18.009961
 20
19.934300
 11
-16.009961
 21
19.934300
 0
LINE
 8
001
 62
3
 10
14.990039
 20
15.581976
 11
14.990039
 21
30.934300
 0
LINE
 8
001
 62
3
 10
-15.009961
 20
20.934300
 11
-15.009961
 21
30.934300
 0
ARC
 8
001
 62
3
 10
-10.009961
 20
30.934300
 40
5.000000
 50
90.000000
 51
180.000000
 0
ARC
 8
001
 62
3
 10
9.990039
 20
30.934300
 40
5.000000
 50
0.000000
 51
90.000000
 0
ARC
 8
001
 62
3
 10
-16.009961
 20
20.934300
 40
1.000000
 50
270.000000
 51
0.000000
 0
LINE
 8
001
 62
3
 10
25.989262
 20
-15.251423
 11
12.989262
 21
-15.251423
 0
LINE
 8
001
 62
3
 10
14.289262
 20
-6.051423
 11
24.689262
 21
-6.051423
 0
LINE
 8
001
 62
3
 10
24.689262
 20
-10.251423
 11
24.689262
 21
-6.051423
 0
LINE
 8
001
 62
3
 10
21.989262
 20
-10.251423
 11
24.689262
 21
-10.251423
 0
LINE
 8
001
 62
3
 10
22.589262
 20
-15.251423
 11
22.589262
 21
-10.251423
 0
LINE
 8
001
 62
3
 10
16.389262
 20
-15.251423
 11
16.389262
 21
-10.251423
 0
LINE
 8
001
 62
3
 10
14.289262
 20
-10.251423
 11
16.989262
 21
-10.251423
 0
LINE
 8
001
 62
3
 10
14.289262
 20
-10.251423
 11
14.289262
 21
-6.051423
 0
ARC
 8
001
 62
3
 10
13.989262
 20
-5.243369
 40
2.000000
 50
90.000000
 51
180.000000
 0
LINE
 8
001
 6
HIDDEN
 62
15
 10
13.989262
 20
-3.243369
 11
13.655539
 21
-3.243369
 0
ARC
 8
001
 62
3
 10
24.989262
 20
-5.243369
 40
2.000000
 50
0.000000
 51
90.000000
 0
LINE
 8
001
 6
HIDDEN
 62
15
 10
24.989262
 20
-3.243369
 11
25.324539
 21
-3.243369
 0
TEXT
 8
001
 62
3
 10
80.254244
 20
-81.011192
 40
3.200000
 1
1/1
 41
1.072092
 7
STANDARD
 0
LINE
 8
001
 62
3
 10
26.989262
 20
-14.251423
 11
26.989262
 21
-5.243369
 0
LINE
 8
001
 62
3
 10
11.989262
 20
-14.251423
 11
11.989262
 21
-5.243369
 0
LINE
 8
001
 62
3
 10
14.990039
 20
15.581976
 11
14.990039
 21
-1.993119
 0
LINE
 8
001
 62
3
 10
19.990039
 20
15.581976
 11
19.990039
 21
-1.993119
 0
LINE
 8
001
 62
3
 10
19.990039
 20
15.581976
 11
19.990039
 21
30.934300
 0
ARC
 8
001
 62
3
 10
9.990039
 20
30.934300
 40
10.000000
 50
0.000000
 51
90.000000
 0
ARC
 8
001
 62
3
 10
-10.009961
 20
30.934300
 40
10.000000
 50
90.000000
 51
180.000000
 0
LINE
 8
001
 62
3
 10
-20.009961
 20
21.934300
 11
-20.009961
 21
30.934300
 0
LINE
 8
001
 62
3
 10
-24.009961
 20
33.710580
 11
-24.009961
 21
33.934300
 0
ARC
 8
001
 62
3
 10
-18.009961
 20
21.934300
 40
2.000000
 50
180.000000
 51
270.000000
 0
ARC
 8
001
 62
3
 10
-9.009961
 20
33.934300
 40
15.000000
 50
90.000000
 51
180.000000
 0
ARC
 8
001
 62
3
 10
12.990039
 20
33.934300
 40
15.000000
 50
0.000000
 51
90.000000
 0
LINE
 8
001
 62
3
 10
27.990039
 20
33.934300
 11
27.990039
 21
13.006881
 0
CIRCLE
 8
001
 62
3
 10
23.107656
 20
7.083943
 40
3.000000
 0
LINE
 8
001
 62
3
 10
27.990039
 20
13.006881
 11
28.978398
 21
8.322652
 0
LINE
 8
001
 62
3
 10
27.938565
 20
3.525528
 11
23.873567
 21
-1.993119
 0
ARC
 8
001
 62
3
 10
23.107656
 20
7.083943
 40
6.000000
 50
323.624887
 51
11.914480
 0
LINE
 8
001
 62
3
 10
-22.525595
 20
30.155258
 11
-20.951764
 21
28.598995
 0
ARC
 8
001
 62
3
 10
-23.061145
 20
26.465802
 40
3.000000
 50
261.730782
 51
45.321586
 0
LINE
 8
001
 62
3
 10
-18.009961
 20
19.934300
 11
-23.685279
 21
19.934300
 0
ARC
 8
001
 62
3
 10
-23.678542
 20
21.720491
 40
1.786204
 50
81.148808
 51
270.216093
 0
LINE
 8
001
 62
3
 10
-74.155365
 20
-3.243369
 11
-62.486365
 21
-3.243369
 0
LINE
 8
001
 62
3
 10
-62.577855
 20
-3.243369
 11
-63.021492
 21
-1.993119
 0
LINE
 8
001
 62
3
 10
-74.063875
 20
-3.243369
 11
-73.620238
 21
-1.993119
 0
LINE
 8
001
 62
3
 10
-63.021492
 20
-1.993119
 11
-73.620238
 21
-1.993119
 0
LINE
 8
001
 62
3
 10
-64.320865
 20
40.934300
 11
-59.820865
 21
40.934300
 0
ARC
 8
001
 62
3
 10
-59.820865
 20
39.434300
 40
1.500000
 50
0.000000
 51
90.000000
 0
ARC
 8
001
 62
3
 10
-76.820865
 20
39.434300
 40
1.500000
 50
90.000000
 51
180.000000
 0
ARC
 8
001
 62
3
 10
-64.320865
 20
42.434300
 40
1.500000
 50
180.000000
 51
270.000000
 0
LINE
 8
001
 62
3
 10
-72.320865
 20
40.934300
 11
-76.820865
 21
40.934300
 0
ARC
 8
001
 62
3
 10
-72.320865
 20
42.434300
 40
1.500000
 50
270.000000
 51
0.000000
 0
LINE
 8
001
 62
3
 10
-63.021492
 20
-1.993119
 11
-58.320865
 21
13.006881
 0
LINE
 8
001
 62
3
 10
-73.620238
 20
-1.993119
 11
-78.320865
 21
13.006881
 0
LINE
 8
001
 62
3
 10
-74.820088
 20
-15.251423
 11
-61.820088
 21
-15.251423
 0
ARC
 8
001
 62
3
 10
-62.820088
 20
-5.243369
 40
2.000000
 50
0.000000
 51
90.000000
 0
ARC
 8
001
 62
3
 10
-73.820088
 20
-5.243369
 40
2.000000
 50
90.000000
 51
180.000000
 0
LINE
 8
001
 62
3
 10
-60.820088
 20
-14.251423
 11
-60.820088
 21
-5.243369
 0
LINE
 8
001
 62
3
 10
-75.820088
 20
-14.251423
 11
-75.820088
 21
-5.243369
 0
LINE
 8
001
 62
3
 10
-67.320865
 20
48.934300
 11
-69.320865
 21
48.934300
 0
LINE
 8
001
 62
3
 10
-58.320865
 20
36.934300
 11
-58.320865
 21
39.434300
 0
LINE
 8
001
 62
3
 10
-70.820865
 20
47.434300
 11
-70.820865
 21
40.885571
 0
ARC
 8
001
 62
3
 10
-69.320865
 20
47.434300
 40
1.500000
 50
90.000000
 51
180.000000
 0
ARC
 8
001
 62
3
 10
-67.320865
 20
47.434300
 40
1.500000
 50
0.000000
 51
90.000000
 0
LINE
 8
001
 62
3
 10
-78.320865
 20
36.934300
 11
-78.320865
 21
39.434300
 0
LINE
 8
001
 62
3
 10
-58.320865
 20
21.934300
 11
-58.320865
 21
36.934300
 0
LINE
 8
001
 62
3
 10
-78.320865
 20
21.934300
 11
-78.320865
 21
36.934300
 0
LINE
 8
001
 62
3
 10
-65.820865
 20
20.934300
 11
-65.820865
 21
47.434300
 0
LINE
 8
001
 62
3
 10
-70.820865
 20
20.934300
 11
-70.820865
 21
40.685571
 0
LINE
 8
001
 62
3
 10
19.990039
 20
13.006881
 11
14.990039
 21
13.006881
 0
ARC
 8
001
 62
3
 10
-19.009961
 20
33.710580
 40
5.000000
 50
180.000000
 51
225.321586
 0
LINE
 8
001
 62
3
 10
-9.009961
 20
48.934300
 11
12.990039
 21
48.934300
 0
LINE
 8
001
 62
3
 10
-10.009961
 20
40.934300
 11
9.990039
 21
40.934300
 0
LINE
 8
001
 62
3
 10
-10.009961
 20
35.934300
 11
9.990039
 21
35.934300
 0
TEXT
 8
001
 62
3
 10
59.301184
 20
-59.328856
 40
4.500000
 1
角フック
 41
0.849294
 7
STANDARD
 0
TEXT
 8
001
 62
3
 10
57.578843
 20
-67.054592
 40
4.500000
 1
BH-AH
 41
1.000425
 7
STANDARD
 0
TEXT
 8
001
 62
3
 10
92.596407
 20
-90.000000
 40
6.300000
 1
K-BH-AH
 41
0.837006
 7
STANDARD
 0
LINE
 8
001
 62
3
 10
-69.820865
 20
19.934300
 11
-66.820865
 21
19.934300
 0
ARC
 8
001
 62
3
 10
-60.320865
 20
21.934300
 40
2.000000
 50
270.000000
 51
0.000000
 0
ARC
 8
001
 62
3
 10
-76.320865
 20
21.934300
 40
2.000000
 50
180.000000
 51
270.000000
 0
LINE
 8
001
 62
3
 10
-58.320865
 20
21.934300
 11
-58.320865
 21
13.006881
 0
LINE
 8
001
 62
3
 10
-78.320865
 20
21.934300
 11
-78.320865
 21
13.006881
 0
ARC
 8
001
 62
3
 10
-66.820865
 20
20.934300
 40
1.000000
 50
270.000000
 51
0.000000
 0
ARC
 8
001
 62
3
 10
-69.820865
 20
20.934300
 40
1.000000
 50
180.000000
 51
270.000000
 0
LINE
 8
001
 62
3
 10
-60.320865
 20
19.934300
 11
-66.820865
 21
19.934300
 0
LINE
 8
001
 62
3
 10
-69.820865
 20
19.934300
 11
-76.320865
 21
19.934300
 0
LINE
 8
001
 6
CENTER
 10
-64.194919
 20
26.434300
 11
-72.849076
 21
26.434300
 0
ARC
 8
001
 62
3
 10
-61.820088
 20
-14.251423
 40
1.000000
 50
270.000000
 51
0.000000
 0
ARC
 8
001
 62
3
 10
-74.820088
 20
-14.251423
 40
1.000000
 50
180.000000
 51
270.000000
 0
ARC
 8
001
 62
3
 10
12.989262
 20
-14.251423
 40
1.000000
 50
180.000000
 51
270.000000
 0
ARC
 8
001
 62
3
 10
25.989262
 20
-14.251423
 40
1.000000
 50
270.000000
 51
0.000000
 0
LINE
 8
001
 62
3
 10
21.989262
 20
-10.251423
 11
16.989262
 21
-10.251423
 0
LINE
 8
001
 6
CENTER
 10
-68.320088
 20
-16.919029
 11
-68.320088
 21
50.946986
 0
LINE
 8
001
 62
3
 10
-66.695280
 20
-43.528993
 11
-68.320088
 21
-43.528993
 0
LINE
 8
001
 62
3
 10
-66.695280
 20
-49.728993
 11
-68.320088
 21
-49.728993
 0
LINE
 8
001
 62
3
 10
-64.102786
 20
-44.028993
 11
-65.977013
 21
-44.028993
 0
LINE
 8
001
 62
3
 10
-64.102786
 20
-49.228993
 11
-65.977013
 21
-49.228993
 0
ARC
 8
001
 62
3
 10
-68.320088
 20
-46.628993
 40
3.500000
 50
47.975372
 51
62.339550
 0
ARC
 8
001
 62
3
 10
-68.320088
 20
-46.628993
 40
3.500000
 50
297.660450
 51
312.024628
 0
LINE
 8
001
 6
CENTER
 10
-77.410837
 20
-46.628993
 11
-59.115847
 21
-46.628993
 0
LINE
 8
001
 62
3
 10
-60.716223
 20
-43.603382
 11
-64.102786
 21
-44.028993
 0
ARC
 8
001
 62
3
 10
-60.747397
 20
-43.355333
 40
0.250000
 50
277.163178
 51
23.378738
 0
CIRCLE
 8
001
 62
3
 10
-68.320088
 20
-46.628993
 40
8.500000
 0
LINE
 8
001
 62
3
 10
-60.716223
 20
-49.654605
 11
-64.102786
 21
-49.228993
 0
ARC
 8
001
 62
3
 10
-60.747397
 20
-49.902653
 40
0.250000
 50
336.621262
 51
82.836822
 0
LINE
 8
001
 6
DASHED
 10
-68.320088
 20
-51.928993
 11
-61.674789
 21
-51.928993
 0
LINE
 8
001
 6
DASHED
 10
-68.320088
 20
-41.328993
 11
-61.674789
 21
-41.328993
 0
ARC
 8
001
 62
3
 10
-68.320088
 20
-46.628993
 40
3.100000
 50
90.000000
 51
161.180937
 0
ARC
 8
001
 62
3
 10
-68.320088
 20
-46.628993
 40
3.100000
 50
198.819063
 51
270.000000
 0
ARC
 8
001
 6
DASHED
 10
-68.320088
 20
-46.628993
 40
5.300000
 50
90.000000
 51
169.124284
 0
ARC
 8
001
 6
DASHED
 10
-68.320088
 20
-46.628993
 40
5.300000
 50
190.875716
 51
270.000000
 0
LINE
 8
001
 62
3
 10
-73.524893
 20
-45.628993
 11
-71.254368
 21
-45.628993
 0
LINE
 8
001
 62
3
 10
-73.524893
 20
-47.628993
 11
-71.254368
 21
-47.628993
 0
LINE
 8
001
 62
3
 10
-73.524893
 20
-45.628993
 11
-73.595661
 21
-46.654681
 0
LINE
 8
001
 62
3
 10
-73.593889
 20
-46.628993
 11
-73.524893
 21
-47.628993
 0
LINE
 8
001
 6
CENTER
 10
-68.320088
 20
-37.272766
 11
-68.320088
 21
-56.150596
 0
LINE
 8
001
 62
3
 10
-138.500000
 20
90.000000
 11
-138.500000
 21
-90.000000
 0
LINE
 8
001
 62
3
 10
138.500000
 20
-90.000000
 11
138.500000
 21
90.000000
 0
LINE
 8
001
 62
3
 10
-138.500000
 20
90.000000
 11
138.500000
 21
90.000000
 0
TEXT
 8
001
 62
3
 10
36.212658
 20
-56.183523
 40
1.993800
 1
CONPONENTS
 41
0.533160
 7
STANDARD
 0
TEXT
 8
001
 62
3
 10
36.410462
 20
-73.882149
 40
2.990700
 1
材
 41
0.833333
 7
STANDARD
 0
TEXT
 8
001
 62
3
 10
43.922744
 20
-73.882149
 40
2.990700
 1
質
 41
0.833333
 7
STANDARD
 0
TEXT
 8
001
 62
3
 10
36.623162
 20
-63.204690
 40
1.993800
 1
MODEL
 41
1.031073
 7
STANDARD
 0
TEXT
 8
001
 62
3
 10
36.410462
 20
-70.211256
 40
1.993800
 1
MATERIAL
 41
0.659278
 7
STANDARD
 0
TEXT
 8
001
 62
3
 10
67.688124
 20
-74.118762
 40
2.990700
 1
備
 41
0.833333
 7
STANDARD
 0
TEXT
 8
001
 62
3
 10
74.400254
 20
-74.118762
 40
2.990700
 1
考
 41
0.833333
 7
STANDARD
 0
TEXT
 8
001
 62
3
 10
67.441881
 20
-70.447869
 40
1.993800
 1
REMARKS
 41
0.675794
 7
STANDARD
 0
TEXT
 8
001
 62
3
 10
67.954342
 20
-77.320377
 40
1.993800
 1
SCALE
 41
0.771963
 7
STANDARD
 0
TEXT
 8
001
 62
3
 10
67.817971
 20
-80.809527
 40
2.990700
 1
尺
 41
0.833333
 7
STANDARD
 0
TEXT
 8
001
 62
3
 10
74.530101
 20
-80.809527
 40
2.990700
 1
度
 41
0.833333
 7
STANDARD
 0
TEXT
 8
001
 62
3
 10
92.861478
 20
-59.797943
 40
2.990700
 1
承認
 41
1.089473
 7
STANDARD
 0
TEXT
 8
001
 62
3
 10
105.181184
 20
-59.644720
 40
2.990700
 1
検図
 41
0.931761
 7
STANDARD
 0
TEXT
 8
001
 62
3
 10
117.181094
 20
-59.562753
 40
2.990700
 1
設
 41
0.833333
 7
STANDARD
 0
TEXT
 8
001
 62
3
 10
121.657044
 20
-59.562753
 40
2.990700
 1
計
 41
0.833333
 7
STANDARD
 0
TEXT
 8
001
 62
3
 10
36.623162
 20
-67.054592
 40
2.990700
 1
品
 41
0.833333
 7
STANDARD
 0
TEXT
 8
001
 62
3
 10
44.147854
 20
-67.054592
 40
2.990700
 1
番
 41
0.833333
 7
STANDARD
 0
LINE
 8
001
 62
3
 10
91.623068
 20
-90.000000
 11
-138.500000
 21
-90.000000
 0
LINE
 8
001
 62
3
 10
137.098365
 20
-90.000000
 11
138.500000
 21
-90.000000
 0
LINE
 8
001
 62
3
 10
134.908352
 20
-90.000000
 11
137.098365
 21
-90.000000
 0
LINE
 8
001
 62
3
 10
93.569746
 20
-90.000000
 11
134.908352
 21
-90.000000
 0
LINE
 8
001
 62
3
 10
93.569746
 20
-90.000000
 11
91.623068
 21
-90.000000
 0
LINE
 8
001
 10
64.939120
 20
85.551921
 11
64.939120
 21
70.701921
 0
LINE
 8
001
 10
128.500280
 20
75.651921
 11
54.833686
 21
75.651921
 0
LINE
 8
001
 10
136.748813
 20
75.651921
 11
128.500280
 21
75.651921
 0
LINE
 8
001
 10
136.748813
 20
75.651921
 11
138.433686
 21
75.651921
 0
LINE
 8
001
 10
126.836161
 20
85.551921
 11
126.836161
 21
70.701921
 0
LINE
 8
001
 10
82.544446
 20
85.551921
 11
82.544446
 21
70.701921
 0
LINE
 8
001
 10
54.833686
 20
80.601921
 11
138.433686
 21
80.601921
 0
LINE
 8
001
 62
3
 10
138.399964
 20
-47.097992
 11
86.700600
 21
-47.097992
 0
LINE
 8
001
 62
3
 10
112.700600
 20
-53.097992
 11
112.700600
 21
-47.097992
 0
LINE
 8
001
 62
3
 10
86.700600
 20
-53.097992
 11
86.700600
 21
-47.097992
 0
TEXT
 8
001
 62
3
 10
87.850114
 20
-52.541906
 40
4.500000
 1
コード
 41
0.833333
 7
STANDARD
 0
TEXT
 8
001
 10
114.093391
 20
-52.599635
 40
4.500000
 1
29617
 41
1.071428
 7
STANDARD
 0
TEXT
 8
001
 62
3
 10
78.304570
 20
-70.589647
 40
3.200000
 1
耐候性
 41
0.833333
 7
STANDARD
 0
TEXT
 8
001
 62
3
 10
78.159057
 20
-73.790938
 40
3.200000
 1
グレード
 41
0.833333
 7
STANDARD
 0
TEXT
 8
001
 62
3
 10
47.690956
 20
-73.471477
 40
3.200000
 1
PA6
 41
1.000000
 7
STANDARD
 0
ENDSEC
 0
EOF
